#TITLE:Lolit Speed;
#SUBTITLE:EXoduz Violation II;
#ARTIST:Project Gabbangelion;
#TITLETRANSLIT:;
#SUBTITLETRANSLIT:;
#ARTISTTRANSLIT:;
#CREDIT:;
#BANNER:../Banner.png;
#BACKGROUND:../Background.png;
#LYRICSPATH:;
#CDTITLE:;
#MUSIC:lolitspeed.ogg;
#OFFSET:0.734;
#SAMPLESTART:36.655;
#SAMPLELENGTH:16.335;
#SELECTABLE:YES;
#DISPLAYBPM:235.000;
#BPMS:0.000=222.700,40.000=228.500,48.000=235.075,1536.000=200.000,1540.000=190.000;
#STOPS:;
#BGCHANGES:;
// cache tags:
#FIRSTBEAT:4.000;
#LASTBEAT:1582.000;
#SONGFILENAME:Songs/EXoduz Violation II/Lolit Speed - [Ov3rHell3XoduZ]/lolitspeed.sm;
#HASMUSIC:1;
#HASBANNER:1;
#MUSICLENGTH:406.500;
// end cache tags

//---------------dance-single - ----------------
#NOTES:
     dance-single:
     :
     Beginner:
     16:
     1.000,1.000,0.406,0.507,1.000,3605.000,165.000,206.000,89.000,14.000:
0000
0000
0000
0000
,
1000
0100
0010
0002
,
0000
0203
0000
0310
,
1000
0100
0010
0200
,
0000
0000
1300
0100
,
0010
0001
1000
0010
0000
0000
0100
0000
0000
0002
0000
0000
,
0000
0023
0000
0230
,
2300
3020
0230
0302
,
0000
0000
0000
0000
0000
0000
0000
0003
,
MMMM
0000
0000
0000
0000
0000
0000
0000
M000
0000
0MMM
0M00
MMMM
0000
0000
0000
MMMM
0000
MMMM
0000
MMMM
0000
MMMM
0000
0000
0000
MMMM
0000
M000
0000
MM00
0000
,
00M0
0000
0000
0000
,
0000
0000
0000
0000
,
1000
0010
1000
0010
0100
0001
1000
0001
,
1000
0100
1000
0010
0100
0001
0100
0001
,
0010
0100
1000
0001
0100
0001
1000
0010
,
1000
0010
0100
0001
4000
0000
3400
0000
,
0310
0001
1000
0001
0100
0001
1000
0010
,
1000
0010
0100
0010
0100
0001
1000
0001
,
0010
0100
1000
0100
1000
0001
0100
0001
,
1000
0010
0100
0001
0040
0000
0430
0000
,
1300
0001
0100
0001
1000
0010
1000
0010
,
0100
0001
0010
0100
1000
0100
1000
0001
,
0100
0001
0100
0001
1000
0010
0100
0001
,
1000
0001
0010
0001
0040
0000
0430
0000
,
1300
0001
0100
0001
1000
0010
1000
0010
,
0100
0001
1000
0001
0010
0001
0010
0100
,
1000
0001
0100
0001
1000
0100
1000
0100
,
0010
0001
1000
0001
0040
0000
0430
0000
,
1300
0001
0100
0001
1000
0001
1000
0100
,
1000
0010
0100
0001
0010
0100
1000
0001
,
0100
0001
1000
0010
0100
0001
1000
0100
,
0010
0100
1000
0001
0400
0000
0304
0000
,
0013
0100
1000
0001
0100
0001
1000
0010
,
1000
0000
0001
0000
1000
0100
0010
0001
1000
0100
0010
0001
1000
0010
0100
0001
,
1000
MMMM
0000
0000
0000
0000
0000
0000
,
0000
0000
0000
0000
0000
0000
0000
MMMM
,
0001
0100
0001
0000
1000
0010
1000
0000
0010
0100
0010
0000
0100
0001
0100
0000
,
0001
0010
0001
0000
1000
0100
1000
0000
0001
0100
0001
0000
1000
0010
1000
0000
,
0010
0100
0010
0000
1000
0100
1000
0000
0001
0010
0001
0000
1000
0001
1000
0000
,
0001
0100
0001
0000
1000
0010
1000
0000
0001
0010
0001
0000
2000
0000
0000
0000
,
3010
0100
0010
0000
1000
0001
1000
0000
0001
0100
0001
0000
1000
0100
1000
0000
,
0001
0010
0001
0000
1000
0010
1000
0000
0001
0100
0001
0000
1000
0100
1000
0000
,
0010
0100
0010
0000
0100
0001
0100
0000
0001
1000
0001
0000
1000
0010
1000
0000
,
0010
0100
0010
0000
1000
0100
1000
0000
0001
0100
0001
0000
2000
0000
0000
0000
,
3001
0100
0001
0000
1000
0010
1000
0000
0001
0010
0001
0000
1000
0100
1000
0000
,
0010
0100
0010
0000
0100
0001
0100
0000
0010
1000
0010
0000
0100
0001
0100
0000
,
0001
0010
0001
0000
1000
0100
1000
0000
0001
0100
0001
0000
1000
0001
1000
0000
,
0010
1000
0010
0000
0100
0001
0100
0000
0001
0010
0001
0000
2000
0000
0000
0000
,
3100
0010
0100
0000
1000
0001
1000
0000
0010
0100
0010
0000
1000
0100
1000
0000
,
0001
0010
0001
0000
0100
0001
0100
0000
0010
1000
0010
0000
0100
0001
0100
0000
,
0001
0010
0001
0000
1000
0100
1000
0000
0001
1000
0001
0000
0100
0001
0100
0000
,
0002
0000
1000
0000
1000
0000
1000
0003
,
M001
0100
0001
0000
1000
0010
1000
0000
0010
0100
0010
0000
0100
0001
0100
0000
,
0001
0010
0001
0000
1000
0100
1000
0000
0001
0100
0001
0000
1000
0010
1000
0000
,
0010
0100
0010
0000
0100
0001
0100
0000
0001
1000
0001
0000
1000
0100
1000
0000
,
0001
1000
0001
0000
0100
0001
0100
0000
0001
1000
0001
0000
0020
0000
0000
0000
,
0130
1000
0100
0000
0010
0001
0010
0000
1000
0010
1000
0000
0001
0100
0001
0000
,
1000
0100
1000
0000
0010
0100
0010
0000
1000
0100
1000
0000
0001
0010
0001
0000
,
1000
0100
1000
0000
0010
0100
0010
0000
1000
0100
1000
0000
0001
0100
0001
0000
,
1000
0010
1000
0000
0010
0100
0010
0000
0100
0001
0100
0000
0002
0000
0000
0000
,
1003
0100
1000
0000
0001
0100
0001
0000
1000
0001
1000
0000
0001
0010
0001
0000
,
1000
0010
1000
0000
0001
1000
0001
0000
0100
0001
0100
0000
0010
1000
0010
0000
,
0100
0001
0100
0000
0001
1000
0001
0000
1000
0100
1000
0000
0010
0100
0010
0000
,
1000
0100
1000
0000
0001
0100
0001
0000
0010
0100
0010
0000
0200
0000
0000
0000
,
1300
0010
1000
0010
0100
0001
0100
0001
,
1000
0001
1000
0100
1000
0100
0010
0001
,
0010
0001
1000
0010
1000
0010
0100
0001
,
1000
MMMM
0000
0000
0000
0000
0000
MMMM
,
0010
0001
1000
0010
0100
0001
1000
0001
0010
0001
0010
0100
,
1000
0001
0100
0001
1000
0010
0100
0010
0100
0001
1000
0001
,
1000
0100
0010
0001
1000
0010
1000
0010
0100
0001
1000
0001
,
0010
0100
1000
0100
1000
0001
0100
0001
1000
0010
1000
0010
0100
0001
1000
0001
,
1000
0100
0010
0001
1000
0010
1000
0010
0100
0001
1000
0001
,
0010
0100
1000
0001
0100
0001
1000
0010
0100
0001
1000
0001
,
0010
0001
0010
0100
1000
0001
0100
0001
0100
0010
1000
0100
,
0010
0001
0010
0001
1000
0001
0100
0001
1000
0001
1000
0100
1000
0001
1000
0001
,
0100
0010
1000
0100
1000
0001
0100
0001
0010
0100
1000
0100
,
1000
0010
0100
0001
1000
0001
1000
0001
0100
0001
1000
0001
,
1000
0001
1000
0100
0010
0001
0010
0001
1000
0010
0100
0001
,
1000
0100
1000
0100
1000
0010
0100
0010
0100
0001
0100
0001
0100
0001
0010
0001
,
0010
0100
1000
0001
0100
0001
1000
0010
0100
0001
0010
0100
,
1000
0001
0100
0001
1000
0010
1000
0010
0100
0001
1000
0001
,
0010
0100
1000
0001
0100
0001
1000
0010
0100
0001
0000
0000
,
1111
0000
1101
1101
,
1000
0100
0010
0001
1000
0010
0100
0001
0010
0001
0010
0100
,
1000
0001
0100
0001
1000
0001
1000
0010
0100
0001
0010
0001
,
0010
0100
1000
0001
0100
0001
1000
0001
1000
0010
1000
0010
,
0100
0001
1000
0001
1000
0100
1000
0100
0010
0001
0010
0001
,
1000
0010
1000
0010
0100
0001
1000
0001
1000
0100
0010
0001
,
0010
0001
1000
0010
1000
0010
0100
0001
1000
0001
0010
0100
,
1000
0100
1000
0001
0100
0001
1000
0010
0100
0010
0100
0001
,
0010
0100
1000
0100
1000
0001
0100
0001
1000
0010
1000
0010
,
0100
0001
1000
0001
0010
0001
0010
0100
1000
0001
0100
0001
,
1000
0010
1000
0010
0100
0001
1000
0100
1000
0001
0010
0100
,
1000
0001
0100
0001
1000
0100
0010
0001
0010
0001
0010
0001
,
1000
0010
1000
0010
0100
0001
1000
0001
1000
0100
1000
0001
,
0100
0001
0010
0001
0010
0001
0010
0100
1000
0001
0100
0001
,
1000
0010
0100
0001
1000
0100
0010
0001
0010
0001
0010
0001
,
1000
0010
0100
0001
1000
0100
1000
0001
0100
0001
0010
0100
,
1000
000M
M000
00M0
0M00
000M
M000
0M00
00M0
000M
M000
00M0
,
0100
0110
0010
1010
,
1000
1100
0100
0110
,
0010
0011
0001
0101
,
0100
0000
0110
0000
0010
0000
1010
1000
,
1100
0100
0110
0010
,
0011
0001
1001
1000
,
1001
0001
0101
0100
,
0110
0000
0010
0000
1010
0000
1000
1100
,
0110
0011
0101
1010
,
0110
0101
1001
1100
,
1010
0110
0101
0011
,
0110
0000
1100
0000
1001
0000
0101
0110
,
1010
1100
0110
0011
,
1001
0101
1010
1100
,
0110
1100
1010
0110
,
0101
0000
1001
0000
0101
0000
1001
0011
,
0011
0000
0000
0000
,
MMMM
0000
0000
0000
,
1111
0000
0000
0000
,
MMMM
0000
0000
0000
,
0001
0000
0000
1000
0000
0000
0010
0000
0000
0100
0000
0000
0001
0000
0010
0000
0100
0000
1000
0000
0001
0000
0100
0000
,
0001
0000
0000
0000
1000
0000
0000
0000
0010
0000
0000
0000
0100
0000
0000
0001
0000
0000
0010
0000
0000
0001
0000
0000
0010
0000
0000
0100
0000
0000
1000
0000
0000
0100
0000
0000
1000
0000
0000
0001
0000
0000
0100
0000
0000
0001
0000
0000
,
1000
0010
0100
0001
0010
0001
0010
0100
1000
0001
0010
0100
1000
0001
0100
0001
,
1000
0110
0000
0000
,
1000
0001
1000
0000
0010
0100
0010
0000
0100
0000
0000
0000
0001
0000
0000
0000
,
0010
0100
0010
0000
0001
0100
0001
0000
1000
0000
0000
0000
0010
0000
0000
0000
,
0100
0001
0100
0000
0010
1000
0010
0000
0100
0001
0100
0000
0001
0010
0001
0000
,
1000
0100
1000
0000
0010
0100
0010
0000
0100
0000
0000
0000
0001
0000
0000
0000
,
0010
0100
0010
0000
0001
0100
0001
0000
1000
0000
0000
0000
0010
0000
0000
0000
,
0100
0010
0100
0000
0010
0100
0010
0000
1000
0000
0000
0000
0100
0000
0000
0000
,
0010
0001
0010
0000
0100
1000
0100
0000
1000
0000
0000
0000
0001
0000
0000
0000
,
1000
0010
1000
0000
0001
0100
0001
0000
1000
0100
1000
0000
0001
0010
0001
0000
,
1000
0100
1000
0000
0010
0100
0010
0000
0100
0000
0000
0000
0001
0000
0000
0000
,
0010
0100
0010
0000
0001
0100
0001
0000
1000
0000
0000
0000
0010
0000
0000
0000
,
0100
0001
0100
0000
0010
1000
0010
0000
0100
0000
0000
0000
0001
0000
0000
0000
,
1000
0100
1000
0000
0001
0010
0001
0000
1000
0010
1000
0000
0010
0100
0010
0000
,
0200
0302
0203
0320
2030
3200
2300
3002
,
2003
3020
0230
0302
0203
0302
2003
3200
,
0320
0032
2003
3020
0430
0300
0400
0300
,
0400
0000
0000
0000
,
0301
1000
0001
0010
0100
1000
0001
0100
0001
1000
0100
0010
,
0001
1000
0010
1000
0010
0100
0001
1000
0001
0010
0100
1000
,
0001
0100
0001
0100
0010
1000
0100
1000
0100
0010
0001
1000
,
0010
0100
0001
1000
0001
0010
0001
0010
0100
1000
0001
0100
,
0001
1000
0010
0100
0001
1000
0001
1000
0100
0010
0001
0010
,
0001
1000
0010
0100
0001
1000
0001
0010
0001
0010
0100
1000
,
0001
0100
0001
1000
0010
0100
0001
1000
0001
1000
0100
0010
,
0001
0010
0001
1000
0010
0100
0001
0100
0001
0010
0100
1000
,
0100
1000
0010
0100
0001
1000
0001
1000
0100
0010
0001
0010
,
0001
1000
0010
0100
0001
0100
0001
0010
0100
1000
0100
1000
,
0010
0100
0001
0010
0100
0010
0100
1000
0010
0100
0001
1000
,
0001
1000
0100
0010
0001
0010
0001
1000
0010
0100
0001
1000
,
0001
1000
0100
0010
0001
0100
0001
0100
0010
1000
0100
0010
,
0001
0010
0001
1000
0010
0100
0001
1000
0001
1000
0100
0010
,
0001
1000
0010
1000
0010
0100
0001
1000
0100
0010
0001
0010
,
0002
2003
3020
0230
,
0301
0101
1010
0110
,
0101
0011
0110
1100
,
1001
0101
1001
1010
,
0110
0101
1001
1100
,
1001
0101
0011
0110
,
1100
1010
0110
1010
,
1100
0110
0011
0101
,
1001
0101
1001
1010
,
0110
0101
0011
0110
,
1100
1010
0110
0101
,
1001
1100
1001
0011
,
1001
1010
1001
0101
,
0011
0110
1100
1010
,
0220
0000
0000
0330
0220
0330
0110
0220
,
0000
0000
0000
0000
,
0330
0020
2030
3200
,
0310
0001
1000
0010
0100
0001
1000
0001
1000
0100
0010
0001
,
1000
0010
0100
0001
1000
0001
0010
0001
0010
0100
1000
0001
,
0100
0001
1000
0010
0100
0001
1000
0001
1000
0100
0010
0001
,
0010
0001
1000
0010
0100
0001
0010
0001
0010
0100
1000
0001
,
0100
0001
0100
0010
1000
0100
0010
0001
0010
0001
1000
0010
,
0100
0001
1000
0001
1000
0100
0010
0001
0100
0010
0100
0010
,
1000
0100
0010
0001
0100
0010
0100
0010
1000
0100
0010
0001
,
0100
0001
0100
0010
1000
0100
0010
0001
1000
0001
1000
0010
,
0100
0001
0010
0001
0010
0100
1000
0100
1000
0010
0100
0001
,
1000
0100
0010
0001
1000
0010
1000
0010
0100
0001
0010
0100
,
1000
0001
0100
0001
0100
0010
1000
0100
1000
0100
1000
0010
,
0100
0001
0010
0100
1000
0100
1000
0100
0010
0001
0010
0001
,
1000
0010
0100
0001
1000
0001
0010
0100
1000
0010
0100
0001
,
2000
0000
0000
0000
3200
0000
0310
0002
,
0000
0000
0000
0000
0000
0000
0000
0003
,
2000
3020
0230
0302
,
0013
0100
1000
0001
0100
0001
1000
0010
0100
0001
1000
0001
1000
0100
0010
0001
,
0010
0001
1000
0010
0100
0001
1000
0001
1000
0100
0010
0001
0010
0001
1000
0010
,
1000
0010
0100
0001
1000
0001
0010
0100
1000
0001
0100
0001
0100
0010
1000
0100
,
0020
0032
2003
3020
,
0230
0302
2003
3200
,
2300
3002
0023
0230
,
2300
3200
0320
0032
,
2003
3020
0230
0302
,
1003
0100
1000
0010
0100
0001
0100
0001
0010
0100
1000
0001
1000
0001
0100
0001
,
1000
0010
0100
0001
1000
0001
1000
0100
0010
0001
0010
0001
1000
0010
0100
0001
,
1000
0001
1000
0100
0010
0001
1000
0010
1000
0010
0100
0001
1000
0001
0010
0100
,
1000
0001
0100
0001
1000
0100
0010
0001
0010
0001
1000
0010
0100
0001
1000
0001
,
0020
0230
2300
3002
,
0203
0000
0000
0000
0320
0000
1030
2000
,
0000
0000
0000
0000
0000
0000
0000
3000
,
1111
MMMM
0000
0000
0000
0000
0000
MMMM
,
1000
0010
0100
0001
1000
0001
1000
0100
,
0010
0001
1000
0010
0110
0100
0101
0001
,
0110
1000
0001
0100
0001
1000
0010
0100
,
0001
1000
0100
1000
0010
0100
0001
0010
,
1100
1000
0001
0100
0001
1000
0010
0100
,
0001
1000
0100
0010
0011
0001
0101
0010
,
1100
1000
0001
0100
0001
1000
0010
0100
,
0001
0010
0100
1000
0001
0100
0001
0010
,
0110
0100
1000
0010
0100
0001
1000
0001
,
0010
0001
0010
0100
1100
1000
0110
0100
,
0101
0001
1000
0010
1000
0010
0100
0001
,
1000
0001
0010
0100
1000
0001
0100
0001
,
0110
1000
0010
0100
0001
1000
0001
0010
,
0100
1000
0100
1000
1010
0010
0110
0100
,
0101
0001
0010
0100
1100
1000
0001
0100
,
0101
0000
0001
0000
0110
0000
0100
0000
1000
0010
0100
0001
1000
0001
0010
0100
,
1000
0001
0100
0001
0010
0100
1000
0010
0100
0001
1000
0001
,
1000
0100
0010
0001
1000
0010
1000
0010
0100
0001
1000
0001
,
0010
0100
1000
0001
0100
0001
0100
0010
1000
0100
0010
0001
,
0010
0001
1000
0010
0100
0001
1000
0001
0010
0100
1000
0100
,
1000
0010
0100
0001
1000
0010
0100
0001
1000
0001
0010
0100
,
1000
0001
0100
0001
1000
0100
0010
0001
0010
0001
1000
0010
,
0100
0001
1000
0001
0010
0100
1000
0001
0100
0001
0100
0010
,
1000
0010
1000
0100
0010
0100
1000
0001
0100
0001
1000
0001
,
1000
0010
0100
0001
0100
0001
0010
0100
1000
0100
1000
0010
,
0100
0001
1000
0001
1000
0100
0010
0001
0010
0001
1000
0010
,
0100
0001
0010
0100
1000
0001
0100
0001
0100
0010
1000
0100
,
0010
0100
1000
0001
1000
0001
0100
0001
1000
0100
0010
0100
,
1000
0001
0010
0001
1000
0010
1000
0010
0100
0001
1000
0100
,
0010
0100
1000
0100
1000
0010
0100
0001
0010
0001
0010
0100
,
1000
0001
0100
0001
1000
0001
1000
0010
1000
0010
0100
0001
,
0010
0000
0110
0000
1100
1100
1010
0000
,
0100
0010
0001
1000
0010
0100
0001
1000
0001
1000
0010
0100
0001
1000
0001
0010
,
0100
1000
0100
1000
0010
0100
0001
1000
0001
0010
0001
0010
0100
1000
0001
0100
,
0001
1000
0100
1000
0010
0100
0001
1000
0001
0010
0100
1000
0001
0100
0001
1000
,
0100
0010
0001
1000
0010
1000
0010
0100
0001
1000
0001
0010
0100
1000
0001
0100
,
0001
0100
0010
1000
0100
1000
0100
0010
0001
0100
0001
0100
0010
1000
0100
0010
,
0001
1000
0100
1000
0010
0100
0001
1000
0001
0010
0001
0010
0100
1000
0001
0100
,
0001
1000
0100
1000
0010
0100
0001
1000
0001
0010
0100
1000
,
0001
0100
0001
1000
0010
1000
0010
0100
0001
1000
0100
0010
,
0100
1000
0001
0100
0001
0100
0010
1000
0100
0010
0001
1000
,
0010
1000
0010
0100
0001
0010
0100
1000
0001
0100
0001
1000
,
0010
1000
0010
0100
0001
1000
0001
1000
0100
0010
0001
1000
,
0100
1000
0001
0010
0100
1000
0100
1000
0010
0100
0001
0100
,
0001
0010
0100
1000
0010
1000
0010
0100
0001
1000
0001
0010
,
0100
1000
0001
0100
0001
0100
0010
1000
0100
1000
0100
0010
,
0001
1000
0010
1000
0010
0100
0001
1000
0001
0010
0100
1000
,
0002
0000
0203
0000
0310
0010
0020
0000
,
1030
0000
0110
0011
0000
0101
0110
0000
,
0010
1000
0010
1000
0100
1000
0100
0010
0100
0010
0001
0010
0001
0010
0001
0010
,
0004
0000
0000
0000
,
0000
0000
0000
0000
,
0103
0010
0100
0010
1000
0100
1000
0100
1000
0100
0010
0100
0010
0100
0010
0100
,
0040
0000
0000
0000
,
0000
0000
0000
0000
,
0032
0003
2000
3000
0200
0300
2000
3000
0002
0003
0200
0300
0002
0003
0020
0030
,
0200
0300
0000
0000
1100
0000
1010
0000
0000
0000
0110
0000
0101
0000
0000
0000
,
0001
0010
0001
0010
0001
0010
0001
0010
0100
1000
0100
1000
0100
1000
0010
1000
,
0010
0100
0010
0100
0010
0100
0001
0100
0001
1000
0001
1000
0001
1000
0100
1000
,
0100
0010
0001
0010
0001
1000
0010
1000
0010
0100
0001
1000
0001
1000
0001
1000
,
0004
0000
0000
0000
,
0000
0000
0000
0000
,
0103
0010
1000
0100
0010
0001
1000
0010
,
0200
0300
0002
0003
0200
0300
0002
0003
0020
0030
0200
0300
2000
3000
0020
0030
,
0100
0000
0101
0011
0000
0110
1100
0000
,
2000
3020
0030
0000
,
0101
0000
0011
0110
0000
1100
1001
0000
,
0020
0030
0200
0300
0020
0030
0200
0300
0020
0030
0200
0300
0020
0030
0200
0300
,
0020
0000
2030
0000
0000
0000
0000
3000
,
1000
0100
0010
0001
1000
0010
1000
0010
0100
0001
1000
0001
0010
0001
0010
0100
,
1000
0100
1000
0001
0100
0001
0100
0010
1000
0100
1000
0100
0010
0001
1000
0100
,
0010
0001
0010
0001
1000
0010
1000
0010
0100
0001
1000
0001
1000
0001
0010
0100
,
4000
0000
0000
0000
,
0000
0000
0000
0000
,
0000
0000
0000
0000
,
3020
0030
0200
0300
0002
0003
0020
0030
0200
0300
2000
3000
0002
0003
0200
0300
,
0002
0000
2003
0000
0000
0000
0000
3000
,
0100
0010
0100
0010
0001
0010
0001
1000
0010
1000
0010
0100
0001
1000
0001
1000
,
0001
1000
0100
1000
0100
1000
0100
0010
0100
0010
0001
0010
0001
0010
0001
0100
,
0001
0100
0010
0100
0010
1000
0100
1000
0100
1000
0100
0010
0001
0010
0001
0010
,
0004
0000
0000
0000
,
0000
0000
0000
0000
,
0000
0000
0000
0000
,
0203
0300
0020
0030
2000
3000
0200
0300
0020
0030
0002
0003
2000
3000
0002
0003
,
0020
0000
0230
0000
0000
0000
0000
0300
,
1000
0010
1000
0010
1000
0010
1000
0010
0100
0001
0100
0001
0100
0001
0100
0001
,
1000
0100
0010
0100
1000
0100
1000
0010
1000
0010
0100
0001
1000
0001
1000
0001
,
0040
0000
0000
0000
,
0000
0000
0000
0000
,
0000
0000
0000
0000
,
0130
1000
0001
0010
0100
1000
0010
0100
,
0002
0003
2000
3000
0020
0030
0200
0300
0002
0003
2000
3000
0200
0300
0020
0030
,
0002
0000
2003
0000
0000
0000
0000
3000
,
0010
0100
0001
0100
0001
0100
0001
0010
0100
1000
0100
1000
0001
1000
0001
1000
,
0001
0100
0001
0100
0001
0010
0100
1000
0010
0100
0001
1000
0001
0010
0100
1000
,
0004
0000
0000
0000
,
0000
0000
0000
0000
,
0000
0000
0000
0000
,
1003
0010
0100
0001
1000
0001
0010
0100
,
1000
0001
0100
0001
1000
0010
0100
0001
0010
0100
1000
0001
,
0100
0010
0100
0000
0010
1000
0010
0000
1000
0100
1000
0000
0100
0010
0100
0000
,
0010
0001
0010
0000
0001
1000
0001
0000
0100
0001
0100
0000
0010
1000
0010
0000
,
0100
0001
0100
0000
0001
0010
0001
0000
1000
0001
1000
0000
0100
1000
0100
0000
,
0010
0001
0010
0000
0001
1000
0001
0000
0100
0001
0100
0000
0010
1000
0010
0000
,
1000
0001
1000
0000
0100
0010
0100
0000
1000
0010
1000
0000
0010
0100
0010
0000
,
0100
0001
0100
0000
0001
1000
0001
0000
1000
0100
1000
0000
0001
0010
0001
0000
,
1000
0010
1000
0000
0001
0100
0001
0000
1000
0001
1000
0000
0001
0100
0001
0000
,
1000
0010
1000
0000
0010
0100
0010
0000
1000
0100
1000
0000
0001
0010
0001
0000
,
1000
0001
1000
0000
0001
0100
0001
0000
0100
0010
0100
0000
0010
1000
0010
0000
,
0100
0001
0100
0000
0001
1000
0001
0000
1000
0100
1000
0000
0001
0010
0001
0000
,
1000
0100
1000
0000
0001
0100
0001
0000
1000
0001
1000
0000
0001
0100
0001
0000
,
1000
0100
1000
0000
0001
0010
0001
0000
1000
0001
1000
0000
0001
0100
0001
0000
,
1000
0010
1000
0000
0001
0100
0001
0000
1000
0001
1000
0000
0001
0100
0001
0000
,
1000
0100
1000
0000
0001
0010
0001
0000
1000
0001
1000
0000
0001
0100
0001
0000
,
1000
0001
1000
0000
0010
1000
0010
0000
0100
0001
0100
0000
0001
1000
0001
0000
,
0100
0001
0100
0000
0001
1000
0001
0000
1000
0100
1000
0000
0002
0000
0000
0000
,
1003
0010
1000
0000
0001
0100
0001
0000
1000
0001
1000
0000
0001
0010
0001
0000
,
1000
0010
1000
0000
0001
1000
0001
0000
0100
0001
0100
0000
0010
1000
0010
0000
,
0100
0001
0100
0000
0001
1000
0001
0000
1000
0100
1000
0000
0001
0010
0001
0000
,
1000
0010
1000
0000
0001
0100
0001
0000
1000
0001
1000
0000
0100
0010
0100
0000
,
0010
0001
0010
0000
0100
1000
0100
0000
1000
0001
1000
0000
0001
0100
0001
0000
,
1000
0010
1000
0000
0001
0100
0001
0000
1000
0001
1000
0000
0100
1000
0100
0000
,
1000
0010
1000
0000
0010
0100
0010
0000
0100
0001
0100
0000
0001
1000
0001
0000
,
0100
0001
0100
0000
0001
0010
0001
0000
1000
0100
1000
0000
0001
0100
0001
0000
,
1000
0001
1000
0000
0010
1000
0010
0000
0100
0001
0100
0000
0001
1000
0001
0000
,
1000
0100
1000
0000
0010
0100
0010
0000
1000
0100
1000
0000
0001
0100
0001
0000
,
1000
0001
1000
0000
0001
0010
0001
0000
1000
0100
1000
0000
0010
0100
0010
0000
,
0100
0001
0100
0000
0001
1000
0001
0000
1000
0010
1000
0000
0001
0100
0001
0000
,
0010
0100
1000
0001
0100
0001
1000
0010
0100
0001
0010
0100
,
1000
0001
0100
0001
1000
0010
0100
0001
0010
0100
1000
0001
,
0100
0001
1000
0100
0010
0001
1000
0010
0100
0001
1000
0100
,
1000
0001
0100
0001
1000
0100
0010
0000
0000
0100
0010
0000
0000
0100
0010
0000
,
0002
0000
2000
0003
0020
3000
0200
0000
0000
0030
0002
0300
0000
0000
0020
0003
,
0000
0030
0200
0000
2000
0000
0320
3000
0200
0000
0032
0300
2003
0000
0200
0000
,
3020
0300
0002
0003
2000
0030
0020
0000
0000
0000
3200
0030
0000
0300
0002
0000
,
0000
0000
0023
0000
0200
0000
2030
0300
0002
3003
0200
0000
0002
0300
2000
3003
,
0200
0000
0020
0300
0002
0030
2000
0003
0000
0000
0020
0000
0000
3030
0200
0000
,
0002
0300
0020
0003
0200
0300
2000
0030
0002
3000
0200
0003
0002
0003
2300
0000
,
0200
0300
0020
3000
0002
0000
2000
0033
3000
0000
0020
0000
0000
0000
0200
0000
,
0000
0300
0032
0000
0020
0000
0200
0303
2000
0030
0002
3000
0200
0003
0002
0003
,
1300
0100
0010
0001
1000
0010
0100
0001
1000
0001
0010
0100
1000
0001
0100
0001
,
1000
0100
0010
0001
1000
0010
0100
0001
1000
0100
1000
0010
,
0100
0001
0010
0100
1000
0001
0100
0001
1000
0100
0010
0001
1000
0010
0100
0001
,
1000
0001
0100
0001
1000
0010
0100
0001
1000
0100
0010
0100
,
1000
0001
0100
0001
1000
0010
0100
0001
0010
0100
1000
0001
0100
0001
1000
0100
,
0010
0001
1000
0001
0100
0001
0010
0100
1000
0001
0100
0001
,
1000
0100
0010
0001
1000
0010
0100
0001
1000
0001
0010
0100
1000
0001
0100
0001
,
1000
0100
0010
0001
1000
0010
0100
0001
1000
0001
0010
0100
,
1000
0001
0100
0001
1000
0010
1000
0001
0100
0001
1000
0100
0010
0001
1000
0010
,
0100
0001
1000
0010
0100
0001
1000
0001
0010
0100
1000
0001
,
0100
0010
1000
0100
0010
0001
1000
0001
0010
0100
1000
0001
0100
0001
1000
0010
,
0100
0001
1000
0100
0010
0100
1000
0010
0100
0001
1000
0001
,
0010
0100
1000
0001
0100
0001
1000
0010
0100
0001
1000
0100
0010
0001
1000
0010
,
1000
0100
0010
0001
1000
0001
0100
0001
0010
0100
1000
0001
,
0100
0001
1000
0100
1000
0010
0100
0001
1000
0001
0010
0100
1000
0001
0100
0001
,
1000
0100
0010
0001
1000
0001
0100
0001
0010
0100
1000
0001
,
1000
0100
0010
0001
1000
0010
0100
0001
1000
0001
0010
0100
1000
0001
0100
0001
,
1000
0100
0010
0001
1000
0010
0100
0001
1000
0001
0010
0100
,
1000
0001
0100
0001
1000
0010
0100
0001
1000
0100
0010
0001
1000
0010
0100
0001
,
1000
0100
0010
0001
1000
0010
0100
0001
1000
0001
0010
0100
,
1000
0001
0100
0001
1000
0010
0100
0001
0010
0100
1000
0001
0100
0001
1000
0010
,
0100
0001
1000
0100
1000
0001
0100
0010
1000
0100
0010
0001
,
1000
0001
0010
0100
1000
0001
0100
0001
1000
0100
0010
0001
1000
0100
0010
0001
,
1000
0010
0100
0001
1000
0001
0100
0001
0010
0100
1000
0001
,
1000
0100
0010
0001
1000
0010
1000
0100
0010
0001
0100
0001
1000
0001
0010
0100
,
1000
0001
0100
0001
1000
0010
0100
0001
1000
0100
0010
0001
,
1000
0010
0100
0001
1000
0100
1000
0001
0100
0001
0010
0100
1000
0001
0010
0100
,
1000
0001
0100
0001
1000
0010
0100
0001
1000
0100
0010
0100
,
1000
0001
0100
0001
1000
0010
0100
0001
1000
0001
0010
0100
0010
0001
1000
0010
,
1000
0100
0010
0001
1000
0001
0100
0001
1000
0100
0010
0001
,
1000
0010
0100
0010
1000
0100
0010
0100
1000
0001
0100
0001
1000
0100
0010
0100
,
1000
0001
0100
0001
1000
0010
0100
0001
1000
0001
0010
0100
,
1000
0001
0100
0001
1000
0010
0100
0001
1000
0100
0010
0100
1000
0010
0100
0001
,
1000
0100
0010
0100
1000
0001
0100
0001
1000
0010
0100
0001
,
1000
0100
0010
0001
1000
0010
1000
0100
0010
0001
1000
0001
0100
0001
0010
0100
,
1000
0001
0100
0001
1000
0010
0100
0001
1000
0100
0010
0001
,
1000
0010
0100
0001
1000
0100
0010
0100
1000
0001
0100
0001
1000
0010
0100
0001
,
1000
0100
0010
0100
1000
0001
0100
0001
1000
0010
0100
0001
,
1000
0100
0010
0001
1000
0001
0100
0001
0010
0100
1000
0001
0100
0001
1000
0100
,
0010
0001
1000
0001
0100
0001
0010
0100
1000
0001
0100
0001
1000
0100
0010
0100
,
2000
3001
0100
0001
1000
0010
0100
0001
1000
0001
0010
0100
1000
0001
0100
0001
,
2000
3100
0010
0001
1000
0001
0100
0001
0010
0100
1000
0010
0100
0001
1000
0100
,
0020
0000
0000
0000
,
0000
0000
0000
0000
,
0000
0002
0000
0000
,
0000
0000
0000
0000
,
0000
0000
0000
2000
,
0000
0000
0000
0000
,
0000
0000
0000
0000
,
0000
0000
0200
0000
,
0000
0000
0000
0000
0000
3333
0000
0000
,
MMMM
0000
MMMM
0000
;

//---------------dance-single - ----------------
#NOTES:
     dance-single:
     :
     Easy:
     17:
     1.000,1.000,0.394,0.509,1.000,3828.000,160.000,207.000,89.000,14.000:
0000
0000
0000
0000
,
1000
0100
0010
0002
,
0000
0203
0000
0310
,
1000
0100
0010
0200
,
0000
0000
1300
0100
,
0010
0001
1000
0010
0000
0000
0100
0000
0000
0002
0000
0000
,
0000
0023
0000
0230
,
2300
3020
0230
0302
,
0000
0000
0000
0000
0000
0000
0000
0003
,
MMMM
0000
0000
0000
0000
0000
0000
0000
M000
0000
0MMM
0M00
MMMM
0000
0000
0000
MMMM
0000
MMMM
0000
MMMM
0000
MMMM
0000
0000
0000
MMMM
0000
M000
0000
MM00
0000
,
00M0
0000
0000
0000
,
0000
0000
0000
0000
,
1000
0010
1000
0010
0100
0001
1000
0001
,
1000
0100
1000
0010
0100
0001
0100
0001
,
0010
0100
1000
0001
0100
0001
1000
0010
,
1000
0000
0010
0000
0100
0000
0001
0000
1000
0100
0010
0000
0001
1000
0100
0000
,
0010
0001
1000
0001
0100
0001
1000
0010
,
1000
0010
0100
0010
0100
0001
1000
0001
,
0010
0100
1000
0100
1000
0001
0100
0001
,
1000
0000
0010
0000
0100
0000
0001
0000
0010
0100
1000
0000
0001
0100
0010
0000
,
1000
0001
0100
0001
1000
0010
1000
0010
,
0100
0001
0010
0100
1000
0100
1000
0001
,
0100
0001
0100
0001
1000
0010
0100
0001
,
1000
0000
0001
0000
0010
0000
0001
0000
0010
0100
1000
0000
0001
0100
0001
0000
,
1000
0001
0100
0001
1000
0010
1000
0010
,
0100
0001
1000
0001
0010
0001
0010
0100
,
1000
0001
0100
0001
1000
0100
1000
0100
,
0010
0000
0001
0000
1000
0000
0001
0000
0010
0100
1000
0000
0001
1000
0001
0000
,
1000
0001
0100
0001
1000
0001
1000
0100
,
1000
0010
0100
0001
0010
0100
1000
0001
,
0100
0001
1000
0010
0100
0001
1000
0100
,
0010
0000
0100
0000
1000
0000
0001
0000
0100
0001
0100
0000
0010
1000
0100
0000
,
0010
0100
1000
0001
0100
0001
1000
0010
,
1000
0000
0001
0000
1000
0100
0010
0001
1000
0100
0010
0001
1000
0010
0100
0001
,
1000
MMMM
0000
0000
0000
0000
0000
0000
,
0000
0000
0000
0000
0000
0000
0000
MMMM
,
1000
0100
0010
0001
1000
0010
1000
0010
0100
0001
1000
0001
1000
0001
0010
0100
,
1000
0001
0100
0001
1000
0100
0010
0001
1000
0010
1000
0010
0100
0001
1000
0001
,
1000
0100
0010
0001
1000
0010
0100
0001
0100
0001
0010
0100
1000
0100
0010
0100
,
1000
0010
0100
0001
1000
0001
0010
0100
1000
0001
0100
0001
2000
0000
0000
0000
,
3010
0100
0010
0000
1000
0001
1000
0000
0001
0100
0001
0000
1000
0100
1000
0000
,
0001
0010
0001
0000
1000
0010
1000
0000
0001
0100
0001
0000
1000
0100
1000
0000
,
0010
0100
0010
0000
0100
0001
0100
0000
0001
1000
0001
0000
1000
0010
1000
0000
,
0010
0100
0010
0000
1000
0100
1000
0000
0001
0100
0001
0000
2000
0000
0000
0000
,
3100
0010
0001
1000
0001
0100
0001
0010
0100
1000
0001
0100
0001
0100
0010
1000
,
0100
1000
0100
0010
0001
1000
0001
1000
0001
0010
0100
1000
0001
0100
0001
0100
,
0010
1000
0100
0010
0100
1000
0010
1000
0010
0100
0001
1000
0001
1000
0100
0010
,
0001
0010
0001
0010
0001
1000
0010
0100
0001
1000
0001
0010
0200
0000
0000
0000
,
1300
0010
0100
0000
1000
0001
1000
0000
0010
0100
0010
0000
1000
0100
1000
0000
,
0001
0010
0001
0000
0100
0001
0100
0000
0010
1000
0010
0000
0100
0001
0100
0000
,
0001
0010
0001
0000
1000
0100
1000
0000
0001
1000
0001
0000
0100
0001
0100
0000
,
0002
0000
1000
0000
1000
0000
1000
0003
,
M001
0100
0001
0000
1000
0010
1000
0000
0010
0100
0010
0000
0100
0001
0100
0000
,
0001
0010
0001
0000
1000
0100
1000
0000
0001
0100
0001
0000
1000
0010
1000
0000
,
0010
0100
0010
0000
0100
0001
0100
0000
0001
1000
0001
0000
1000
0100
1000
0000
,
0001
1000
0001
0000
0100
0001
0100
0000
0001
1000
0001
0000
0020
0000
0000
0000
,
0031
0010
0100
1000
0001
0100
0001
1000
0100
0010
0001
1000
0010
1000
0010
0100
,
0001
1000
0001
1000
0100
0010
0001
0010
0001
1000
0010
0100
0001
1000
0001
1000
,
0100
1000
0100
0010
0100
1000
0010
0100
0001
1000
0001
1000
0100
0010
0001
0010
,
0001
1000
0010
1000
0010
0100
0001
1000
0100
0010
0001
1000
0002
0000
0000
0000
,
1003
0100
1000
0000
0001
0100
0001
0000
1000
0001
1000
0000
0001
0010
0001
0000
,
1000
0010
1000
0000
0001
1000
0001
0000
0100
0001
0100
0000
0010
1000
0010
0000
,
0100
0001
0100
0000
0001
1000
0001
0000
1000
0100
1000
0000
0010
0100
0010
0000
,
1000
0100
1000
0000
0001
0100
0001
0000
0010
0100
0010
0000
0200
0000
0000
0000
,
1300
0010
1000
0010
0100
0001
0100
0001
,
1000
0001
1000
0100
1000
0100
0010
0001
,
0010
0001
1000
0010
1000
0010
0100
0001
,
1000
MMMM
0000
0000
0000
0000
0000
MMMM
,
0010
0001
1000
0010
0100
0001
1000
0100
0010
0100
1000
0010
,
0100
0001
1000
0001
0010
0100
1000
0001
0100
0001
1000
0100
,
0010
0001
1000
0010
0100
0001
1000
0001
0010
0100
1000
0001
,
0100
0010
1000
0100
0010
0001
1000
0010
0100
0001
1000
0001
0010
0100
1000
0001
,
1000
0100
0010
0001
1000
0010
0100
0001
1000
0001
0010
0100
,
1000
0001
0100
0001
1000
0100
0010
0001
1000
0010
0100
0001
,
1000
0100
0010
0100
1000
0010
0100
0001
1000
0100
0010
0001
,
1000
0001
0010
0001
1000
0001
0100
0001
1000
0001
1000
0100
1000
0100
0010
0001
,
1000
0100
0010
0001
1000
0001
0100
0001
0010
0100
1000
0010
,
0100
0001
1000
0100
0010
0100
1000
0010
0100
0010
1000
0100
,
0010
0001
1000
0001
0100
0001
0010
0100
1000
0001
0100
0001
,
1000
0100
0010
0001
1000
0010
0100
0001
1000
0100
0010
0001
1000
0010
0100
0001
,
0010
0100
1000
0001
0100
0001
1000
0010
0100
0001
0010
0100
,
1000
0001
0100
0001
1000
0010
1000
0010
0100
0001
1000
0001
,
0010
0100
1000
0001
0100
0001
1000
0010
0100
0001
0000
0000
,
1111
0000
1101
1101
,
1000
0100
0010
0001
1000
0010
0100
0001
1000
0001
0010
0100
,
1000
0001
0100
0001
1000
0100
0010
0001
1000
0010
0100
0001
,
1000
0100
0010
0001
1000
0001
0100
0001
0010
0100
1000
0001
,
0100
0001
1000
0100
1000
0010
0100
0001
1000
0100
0010
0001
1000
0010
0100
0001
,
1000
0100
0010
0001
1000
0001
0100
0001
0010
0100
1000
0010
0100
0001
1000
0100
,
1000
0001
0100
0001
1000
0010
0100
0001
1000
0100
0010
0001
,
1000
0100
1000
0001
0100
0001
1000
0100
1000
0010
0100
0001
,
1000
0100
0010
0001
1000
0001
0100
0001
0010
0100
1000
0001
,
1000
0100
0010
0001
1000
0001
0100
0001
0100
0010
1000
0100
0010
0001
1000
0001
,
1000
0010
1000
0010
0100
0001
1000
0001
1000
0100
0010
0100
1000
0010
1000
0010
,
0100
0001
1000
0100
0010
0001
1000
0010
0100
0001
1000
0001
0010
0100
1000
0001
,
1000
0010
0100
0001
1000
0001
0010
0100
1000
0001
0100
0001
,
1000
0100
0010
0001
1000
0010
0100
0001
1000
0100
1000
0010
,
0100
0001
0010
0001
1000
0100
0010
0001
1000
0010
0100
0001
,
1000
0010
0100
0001
1000
0100
1000
0001
0100
0001
0010
0100
,
1000
000M
M000
00M0
0M00
000M
M000
0M00
00M0
000M
M000
00M0
,
1001
0001
0101
0100
0110
0010
1010
1000
,
1100
0100
0110
0010
0011
0001
0101
0100
,
0101
0001
1001
1000
1010
0010
1010
1000
,
1100
0100
0110
0010
0110
0100
1100
1010
,
0110
0100
0001
0010
0110
0100
1000
0010
,
0110
0100
0001
1000
1100
0100
0010
0001
,
0011
0010
0100
1000
1001
0001
0100
0001
,
0110
0100
1000
0010
0101
0001
0010
0100
,
1100
1000
1010
0010
0110
0010
1010
1000
,
1100
0100
0011
0001
0101
0100
0110
0010
,
1010
0100
0101
0001
0011
0010
0110
0100
,
1100
1000
1010
0010
0110
0100
0101
0001
,
0011
0010
0100
1000
1010
0010
0100
0001
,
0101
0100
0010
1000
1100
0100
0010
0001
,
0011
0010
0110
0100
1100
1000
1010
0010
,
0110
0100
0001
0010
0110
0100
1000
0001
,
1001
0000
0000
0000
,
MMMM
0000
0000
0000
,
1111
0000
0000
0000
,
MMMM
0000
0000
0000
,
0001
0000
0000
1000
0000
0000
0010
0000
0000
0100
0000
0000
0001
0000
0010
0000
0100
0000
1000
0000
0001
0000
0100
0000
,
0001
0000
0000
0000
1000
0000
0000
0000
0010
0000
0000
0000
0100
0000
0000
0001
0000
0000
0010
0000
0000
0001
0000
0000
0010
0000
0000
0100
0000
0000
1000
0000
0000
0100
0000
0000
1000
0000
0000
0001
0000
0000
0100
0000
0000
0001
0000
0000
,
1000
0010
0100
0001
0010
0001
0010
0100
1000
0001
0010
0100
1000
0001
0100
0001
,
1000
0110
0000
0000
,
1000
0001
1000
0000
0010
0100
0010
0000
0100
0000
0000
0000
0001
0000
0000
0000
,
0010
0100
0010
0000
0001
0100
0001
0000
1000
0000
0000
0000
0010
0000
0000
0000
,
0100
0001
0100
0000
0010
1000
0010
0000
0100
0001
0100
0000
0001
0010
0001
0000
,
1000
0100
1000
0000
0010
0100
0010
0000
0100
0000
0000
0000
0001
0000
0000
0000
,
0010
0100
0010
0000
0001
0100
0001
0000
1000
0000
0000
0000
0010
0000
0000
0000
,
0100
0010
0100
0000
0010
0100
0010
0000
1000
0000
0000
0000
0100
0000
0000
0000
,
0010
0001
0010
0000
0100
1000
0100
0000
1000
0000
0000
0000
0001
0000
0000
0000
,
1000
0010
1000
0000
0001
0100
0001
0000
1000
0100
1000
0000
0001
0010
0001
0000
,
1000
0100
1000
0000
0010
0100
0010
0000
0100
0000
0000
0000
0001
0000
0000
0000
,
0010
0100
0010
0000
0001
0100
0001
0000
1000
0000
0000
0000
0010
0000
0000
0000
,
0100
0001
0100
0000
0010
1000
0010
0000
0100
0000
0000
0000
0001
0000
0000
0000
,
1000
0100
1000
0000
0001
0010
0001
0000
1000
0010
1000
0000
0010
0100
0010
0000
,
0200
0302
0203
0320
2030
3200
2300
3002
,
2003
3020
0230
0302
0203
0302
2003
3200
,
0320
0032
2003
3020
0430
0300
0400
0300
,
0400
0000
0000
0000
,
0301
0010
0001
1000
0010
1000
0100
0010
0001
1000
0001
0100
0001
1000
0010
0100
,
0001
1000
0001
1000
0100
0010
0001
0010
0001
1000
0010
0100
0001
1000
0001
0010
,
0100
1000
0100
0010
0001
1000
0001
0100
0001
1000
0010
0100
0001
1000
0001
0010
,
0100
0010
0001
1000
0100
1000
0010
0100
0001
1000
0001
1000
0100
0010
0001
1000
,
0001
1000
0010
0100
0001
1000
0001
1000
0100
0010
0001
0010
,
0001
1000
0010
0100
0001
1000
0001
0010
0001
0010
0100
1000
,
0001
0100
0001
1000
0010
0100
0001
1000
0001
1000
0100
0010
,
0001
1000
0001
0100
0001
0010
0100
1000
0100
1000
0010
0100
0001
1000
0001
0010
,
0001
0010
0100
1000
0001
0100
0001
0100
0010
1000
0100
0010
0001
1000
0001
0010
,
0100
1000
0010
0100
0001
0100
0001
0010
0100
1000
0100
1000
,
0010
0100
0001
0010
0100
0010
0100
1000
0010
0100
0001
1000
,
0001
1000
0100
0010
0001
0010
0001
1000
0010
0100
0001
1000
,
0100
0010
0001
1000
0001
0100
0001
0010
0100
1000
0100
1000
0010
0100
0001
1000
,
0001
1000
0100
0010
0001
0010
0001
1000
0010
0100
0001
1000
0001
0010
0100
1000
,
0001
0100
0010
1000
0100
0010
0001
1000
0010
0100
0001
1000
0001
0010
0100
1000
,
0002
2003
3020
0230
,
0301
0101
1010
0110
,
0101
0011
0110
1100
,
1001
0101
1001
1010
,
0110
0101
1001
1100
,
1001
0101
0011
0110
,
1100
1010
0110
1010
,
1100
0110
0011
0101
,
1001
0101
1001
1010
,
0110
0101
0011
0110
,
1100
1010
0110
0101
,
1001
1100
1001
0011
,
1001
1010
1001
0101
,
0011
0110
1100
1010
,
0220
0000
0000
0330
0220
0330
0110
0220
,
0000
0000
0000
0000
,
0330
0020
2030
3200
,
0310
0001
1000
0010
0100
0001
1000
0100
0010
0100
1000
0010
,
0100
0001
1000
0001
0010
0001
1000
0010
0100
0001
1000
0100
,
1000
0001
0100
0001
0010
0100
1000
0010
0100
0001
1000
0010
,
0100
0010
1000
0100
0010
0001
1000
0001
0100
0001
0010
0100
,
0010
0001
1000
0100
1000
0010
0100
0001
1000
0001
0010
0100
,
1000
0001
0100
0001
1000
0010
0100
0001
1000
0100
0010
0001
,
1000
0010
0100
0001
1000
0100
1000
0001
0010
0100
1000
0010
,
0100
0001
1000
0001
0100
0001
0010
0100
1000
0010
1000
0001
,
0100
0001
1000
0100
0010
0001
1000
0010
0100
0001
1000
0100
,
0010
0100
1000
0001
0100
0001
1000
0010
0100
0001
0010
0100
,
1000
0001
0100
0001
1000
0100
0010
0001
1000
0010
0100
0001
,
1000
0100
1000
0001
0100
0010
1000
0100
0010
0001
1000
0001
,
0100
0001
0010
0100
1000
0001
0100
0001
1000
0100
0010
0001
,
2000
0000
0000
0000
3200
0000
0310
0002
,
0000
0000
0000
0000
0000
0000
0000
0003
,
2000
3020
0230
0302
,
0013
0100
1000
0001
0100
0001
1000
0010
0100
0001
1000
0001
1000
0100
0010
0001
,
0010
0001
1000
0010
0100
0001
1000
0001
1000
0100
0010
0001
0010
0001
1000
0010
,
1000
0010
0100
0001
1000
0001
0010
0100
1000
0001
0100
0001
0100
0010
1000
0100
,
0020
0032
2003
3020
,
0230
0302
2003
3200
,
2300
3002
0023
0230
,
2300
3200
0320
0032
,
2003
3020
0230
0302
,
1003
0100
1000
0010
0100
0001
1000
0001
0010
0100
1000
0001
0100
0001
1000
0100
,
0010
0001
1000
0010
0100
0001
1000
0001
0010
0001
1000
0010
1000
0100
0010
0001
,
0100
0001
1000
0001
0010
0100
1000
0001
0100
0001
1000
0100
0010
0001
1000
0010
,
1000
0100
0010
0001
0100
0001
1000
0001
0010
0100
1000
0001
1000
0100
0010
0001
,
0020
0230
2300
3002
,
0203
0000
0000
0000
0320
0000
1030
2000
,
0000
0000
0000
0000
0000
0000
0000
3000
,
1111
MMMM
0000
0000
0000
0000
0000
MMMM
,
1000
0010
0100
0001
1000
0001
1000
0100
,
0010
0001
1000
0010
0110
0100
0101
0001
,
0110
1000
0001
0100
0001
1000
0010
0100
,
0001
1000
0100
1000
0010
0100
0001
0010
,
1100
1000
0001
0100
0001
1000
0010
0100
,
0001
1000
0100
0010
0011
0001
0101
0010
,
1100
1000
0001
0100
0001
1000
0010
0100
,
0001
0010
0100
1000
0001
0100
0001
0010
,
0110
0100
1000
0010
0100
0001
1000
0001
,
0010
0001
0010
0100
1100
1000
0110
0100
,
0101
0001
1000
0010
1000
0010
0100
0001
,
1000
0001
0010
0100
1000
0001
0100
0001
,
0110
1000
0010
0100
0001
1000
0001
0010
,
0100
1000
0100
1000
1010
0010
0110
0100
,
0101
0001
0010
0100
1100
1000
0001
0100
,
0101
0000
0001
0000
0110
0000
0100
0000
1000
0010
0100
0001
1000
0001
0010
0100
,
1000
0001
0100
0001
1000
0010
0100
0001
1000
0100
0010
0100
,
1000
0001
0100
0001
0010
0100
1000
0010
0100
0001
1000
0100
,
1000
0010
0100
0001
0010
0100
1000
0001
0100
0001
1000
0100
,
0010
0001
1000
0010
0100
0001
1000
0001
0010
0100
1000
0001
,
0100
0001
1000
0010
0100
0001
1000
0001
0010
0001
1000
0010
,
0100
0001
1000
0100
0010
0001
1000
0010
1000
0100
0010
0001
,
0100
0001
1000
0001
0010
0100
1000
0001
0100
0001
1000
0100
,
0010
0001
1000
0010
1000
0100
0010
0001
1000
0001
0100
0001
,
0010
0100
1000
0001
0100
0001
1000
0010
0100
0001
1000
0100
,
0010
0100
1000
0010
0100
0001
1000
0001
0010
0001
1000
0100
,
0010
0001
1000
0010
1000
0100
0010
0001
1000
0001
0100
0001
,
0010
0100
1000
0001
0100
0001
1000
0100
0010
0001
1000
0010
,
1000
0100
0010
0001
1000
0001
0100
0001
0010
0100
1000
0010
,
0100
0001
1000
0100
0010
0001
1000
0010
1000
0100
0010
0001
,
1000
0001
0100
0001
0010
0100
1000
0001
0100
0001
1000
0100
,
0020
0030
0110
0000
1100
1100
1010
0000
,
0100
0010
0001
1000
0010
0100
0001
1000
0001
1000
0010
0100
0001
1000
0001
0010
,
0100
1000
0100
1000
0010
0100
0001
1000
0001
0010
0001
0010
0100
1000
0001
0100
,
0001
1000
0100
1000
0010
0100
0001
1000
0001
0010
0100
1000
0001
0100
0001
1000
,
0100
0010
0001
1000
0010
1000
0010
0100
0001
1000
0001
0010
0100
1000
0001
0100
,
0001
0100
0010
1000
0100
1000
0100
0010
0001
0100
0001
0100
0010
1000
0100
0010
,
0001
1000
0100
1000
0010
0100
0001
1000
0001
0010
0001
0010
0100
1000
0001
0100
,
0001
1000
0100
1000
0010
0100
0001
1000
0001
0010
0100
1000
,
0001
0100
0001
1000
0010
1000
0010
0100
0001
1000
0100
0010
,
0100
1000
0001
0100
0001
0100
0010
1000
0100
0010
0001
1000
,
0010
1000
0010
0100
0001
0010
0100
1000
0001
0100
0001
1000
,
0010
1000
0010
0100
0001
1000
0001
1000
0100
0010
0001
1000
,
0100
1000
0001
0010
0100
1000
0100
1000
0010
0100
0001
0100
,
0001
0010
0100
1000
0010
1000
0010
0100
0001
1000
0001
0010
,
0100
1000
0001
0100
0001
0100
0010
1000
0100
1000
0100
0010
,
0001
1000
0010
1000
0010
0100
0001
1000
0001
0010
0100
1000
,
0002
0000
0203
0000
0310
0010
0020
0000
,
1030
0000
0110
0011
0000
0101
0110
0000
,
1000
0100
0010
0001
1000
0001
0100
0001
0010
0100
1000
0010
0100
0001
1000
0100
,
0010
0001
1000
0001
0100
0001
1000
0100
1000
0010
0100
0001
1000
0100
0010
0001
,
4000
0000
0000
0000
,
3100
0010
0001
1000
0010
0100
0001
1000
0100
1000
0010
0100
0001
1000
0100
0010
,
0001
1000
0010
1000
0100
0010
0001
1000
0001
0100
0001
0010
0100
1000
0001
0100
,
0040
0000
0000
0000
,
2030
3000
2000
3000
0200
0300
2000
3000
0002
0003
0200
0300
0002
0003
0020
0030
,
0200
0300
0000
0000
1100
0000
1010
0000
0000
0000
0110
0000
0101
0000
0000
0000
,
1000
0100
1000
0001
0100
0001
0010
0100
1000
0010
0100
0001
1000
0100
1000
0001
,
0100
0001
0010
0100
1000
0010
0100
0001
1000
0001
0010
0001
1000
0010
1000
0100
,
0010
0001
1000
0001
0100
0001
0010
0100
1000
0001
0100
0001
1000
0100
0010
0001
,
4000
0000
0000
0000
,
0000
0000
0000
0000
,
3100
0010
0001
1000
0001
0100
0001
0001
,
0200
0300
0002
0003
0200
0300
0002
0003
0020
0030
0200
0300
2000
3000
0020
0030
,
0100
0000
0101
0011
0000
0110
1100
0000
,
2000
3020
0030
0000
,
0101
0000
0011
0110
0000
1100
1001
0000
,
0020
0030
0200
0300
0020
0030
0200
0300
0020
0030
0200
0300
0020
0030
0200
0300
,
0020
0000
2030
0000
0000
0000
0000
3000
,
1000
0100
0010
0001
1000
0001
0100
0001
0010
0100
1000
0010
0100
0001
1000
0100
,
1000
0001
0100
0001
0010
0100
1000
0010
0100
0001
1000
0100
1000
0001
0100
0001
,
0010
0100
1000
0010
0100
0001
1000
0100
0010
0001
1000
0010
1000
0001
0100
0001
,
4000
0000
0000
0000
,
0000
0000
0000
0000
,
0000
0000
0000
0000
,
3020
0030
0200
0300
0002
0003
0020
0030
0200
0300
2000
3000
0002
0003
0200
0300
,
0002
2003
0000
0000
,
3100
0010
0001
1000
0001
0100
0001
0010
0100
1000
0010
0100
0001
1000
0100
1000
,
0010
0100
0001
1000
0001
0010
0001
1000
0010
0100
0001
1000
0100
1000
0010
0100
,
0001
0010
0100
1000
0001
0100
0001
1000
0100
0010
0001
1000
0010
0100
0001
1000
,
0004
0000
0000
0000
,
0000
0000
0000
0000
,
0000
0000
0000
0000
,
0203
0300
0020
0030
2000
3000
0200
0300
0020
0030
0002
0003
2000
3000
0002
0003
,
0020
0230
0000
0000
,
1300
0010
0100
0001
1000
0100
1000
0010
0100
0001
1000
0001
0010
0001
1000
0010
,
0100
0001
1000
0100
0010
0001
1000
0010
0100
0001
1000
0100
0010
0001
1000
0010
,
4000
0000
0000
0000
,
0000
0000
0000
0000
,
0000
0000
0000
0000
,
3100
1000
0001
0010
0100
1000
0010
0100
,
0002
0003
2000
3000
0020
0030
0200
0300
0002
0003
2000
3000
0200
0300
0020
0030
,
0002
2003
0000
0000
,
3001
1000
0001
0100
0001
0010
0100
1000
0010
0100
0001
1000
0100
1000
0010
0100
,
0001
1000
0100
0010
0001
1000
0010
1000
0100
0010
0001
1000
0001
0100
0001
1000
,
0004
0000
0000
0000
,
0000
0000
0000
0000
,
0000
0000
0000
0000
,
1003
0010
0100
0001
1000
0001
0010
0100
,
1000
0001
0100
0001
1000
0010
0100
0001
0010
0100
1000
0001
,
0100
0010
0100
0000
0010
1000
0010
0000
1000
0100
1000
0000
0100
0010
0100
0000
,
0010
0001
0010
0000
0001
1000
0001
0000
0100
0001
0100
0000
0010
1000
0010
0000
,
0100
0001
0100
0000
0001
0010
0001
0000
1000
0001
1000
0000
0100
1000
0100
0000
,
0010
0001
0010
0000
0001
1000
0001
0000
0100
0001
0100
0000
0010
1000
0010
0000
,
1000
0001
1000
0000
0100
0010
0100
0000
1000
0010
1000
0000
0010
0100
0010
0000
,
0100
0001
0100
0000
0001
1000
0001
0000
1000
0100
1000
0000
0001
0010
0001
0000
,
1000
0010
1000
0000
0001
0100
0001
0000
1000
0001
1000
0000
0001
0100
0001
0000
,
1000
0010
1000
0000
0010
0100
0010
0000
1000
0100
1000
0000
0001
0010
0001
0000
,
1000
0001
1000
0000
0001
0100
0001
0000
0100
0010
0100
0000
0010
1000
0010
0000
,
0100
0001
0100
0000
0001
1000
0001
0000
1000
0100
1000
0000
0001
0010
0001
0000
,
1000
0100
1000
0000
0001
0100
0001
0000
1000
0001
1000
0000
0001
0100
0001
0000
,
1000
0100
1000
0000
0001
0010
0001
0000
1000
0001
1000
0000
0001
0100
0001
0000
,
1000
0010
1000
0000
0001
0100
0001
0000
1000
0001
1000
0000
0001
0100
0001
0000
,
1000
0100
1000
0000
0001
0010
0001
0000
1000
0001
1000
0000
0001
0100
0001
0000
,
1000
0001
1000
0000
0010
1000
0010
0000
0100
0001
0100
0000
0001
1000
0001
0000
,
0100
0001
0100
0000
0001
1000
0001
0000
1000
0100
1000
0000
0002
0000
0000
0000
,
1003
0010
1000
0000
0001
0100
0001
0000
1000
0001
1000
0000
0001
0010
0001
0000
,
1000
0010
1000
0000
0001
1000
0001
0000
0100
0001
0100
0000
0010
1000
0010
0000
,
0100
0001
0100
0000
0001
1000
0001
0000
1000
0100
1000
0000
0001
0010
0001
0000
,
1000
0010
1000
0000
0001
0100
0001
0000
1000
0001
1000
0000
0100
0010
0100
0000
,
0010
0001
0010
0000
0100
1000
0100
0000
1000
0001
1000
0000
0001
0100
0001
0000
,
1000
0010
1000
0000
0001
0100
0001
0000
1000
0001
1000
0000
0100
1000
0100
0000
,
1000
0010
1000
0000
0010
0100
0010
0000
0100
0001
0100
0000
0001
1000
0001
0000
,
0100
0001
0100
0000
0001
0010
0001
0000
1000
0100
1000
0000
0001
0100
0001
0000
,
1000
0001
1000
0000
0010
1000
0010
0000
0100
0001
0100
0000
0001
1000
0001
0000
,
1000
0100
1000
0000
0010
0100
0010
0000
1000
0100
1000
0000
0001
0100
0001
0000
,
1000
0001
1000
0000
0001
0010
0001
0000
1000
0100
1000
0000
0010
0100
0010
0000
,
0100
0001
0100
0000
0001
1000
0001
0000
1000
0010
1000
0000
0001
0100
0001
0000
,
0010
0100
1000
0001
0100
0001
1000
0010
0100
0001
0010
0100
,
1000
0001
0100
0001
1000
0010
0100
0001
0010
0100
1000
0001
,
0100
0001
1000
0100
0010
0001
1000
0010
0100
0001
1000
0100
,
1000
0001
0100
0001
1000
0100
0010
0000
0000
0100
0010
0000
0000
0100
0010
0000
,
0002
0000
2000
0003
0020
3000
0200
0000
0000
0030
0002
0300
0000
0000
0020
0003
,
0000
0030
0200
0000
2000
0000
0320
3000
0200
0000
0032
0300
2003
0000
0200
0000
,
3020
0300
0002
0003
2000
0030
0020
0000
0000
0000
3200
0030
0000
0300
0002
0000
,
0000
0000
0023
0000
0200
0000
2030
0300
0002
3003
0200
0000
0002
0300
2000
3003
,
0200
0000
0020
0300
0002
0030
2000
0003
0000
0000
0020
0000
0000
3030
0200
0000
,
0002
0300
0020
0003
0200
0300
2000
0030
0002
3000
0200
0003
0002
0003
2300
0000
,
0200
0300
0020
3000
0002
0000
2000
0033
3000
0000
0020
0000
0000
0000
0200
0000
,
0000
0300
0032
0000
0020
0000
0200
0303
2000
0030
0002
3000
0200
0003
0002
0003
,
1300
0100
0010
0001
1000
0010
0100
0001
1000
0001
0010
0100
1000
0001
0100
0001
,
1000
0100
0010
0001
1000
0010
0100
0001
1000
0100
1000
0010
,
0100
0001
0010
0100
1000
0001
0100
0001
1000
0100
0010
0001
1000
0010
0100
0001
,
1000
0001
0100
0001
1000
0010
0100
0001
1000
0100
0010
0100
,
1000
0001
0100
0001
1000
0010
0100
0001
0010
0100
1000
0001
0100
0001
1000
0100
,
0010
0001
1000
0001
0100
0001
0010
0100
1000
0001
0100
0001
,
1000
0100
0010
0001
1000
0010
0100
0001
1000
0001
0010
0100
1000
0001
0100
0001
,
1000
0100
0010
0001
1000
0010
0100
0001
1000
0001
0010
0100
,
1000
0001
0100
0001
1000
0010
1000
0001
0100
0001
1000
0100
0010
0001
1000
0010
,
0100
0001
1000
0010
0100
0001
1000
0001
0010
0100
1000
0001
,
0100
0010
1000
0100
0010
0001
1000
0001
0010
0100
1000
0001
0100
0001
1000
0010
,
0100
0001
1000
0100
0010
0100
1000
0010
0100
0001
1000
0001
,
0010
0100
1000
0001
0100
0001
1000
0010
0100
0001
1000
0100
0010
0001
1000
0010
,
1000
0100
0010
0001
1000
0001
0100
0001
0010
0100
1000
0001
,
0100
0001
1000
0100
1000
0010
0100
0001
1000
0001
0010
0100
1000
0001
0100
0001
,
1000
0100
0010
0001
1000
0001
0100
0001
0010
0100
1000
0001
,
1000
0100
0010
0001
1000
0010
0100
0001
1000
0001
0010
0100
1000
0001
0100
0001
,
1000
0100
0010
0001
1000
0010
0100
0001
1000
0001
0010
0100
,
1000
0001
0100
0001
1000
0010
0100
0001
1000
0100
0010
0001
1000
0010
0100
0001
,
1000
0100
0010
0001
1000
0010
0100
0001
1000
0001
0010
0100
,
1000
0001
0100
0001
1000
0010
0100
0001
0010
0100
1000
0001
0100
0001
1000
0010
,
0100
0001
1000
0100
1000
0001
0100
0010
1000
0100
0010
0001
,
1000
0001
0010
0100
1000
0001
0100
0001
1000
0100
0010
0001
1000
0100
0010
0001
,
1000
0010
0100
0001
1000
0001
0100
0001
0010
0100
1000
0001
,
1000
0100
0010
0001
1000
0010
1000
0100
0010
0001
0100
0001
1000
0001
0010
0100
,
1000
0001
0100
0001
1000
0010
0100
0001
1000
0100
0010
0001
,
1000
0010
0100
0001
1000
0100
1000
0001
0100
0001
0010
0100
1000
0001
0010
0100
,
1000
0001
0100
0001
1000
0010
0100
0001
1000
0100
0010
0100
,
1000
0001
0100
0001
1000
0010
0100
0001
1000
0001
0010
0100
0010
0001
1000
0010
,
1000
0100
0010
0001
1000
0001
0100
0001
1000
0100
0010
0001
,
1000
0010
0100
0010
1000
0100
0010
0100
1000
0001
0100
0001
1000
0100
0010
0100
,
1000
0001
0100
0001
1000
0010
0100
0001
1000
0001
0010
0100
,
1000
0001
0100
0001
1000
0010
0100
0001
1000
0100
0010
0100
1000
0010
0100
0001
,
1000
0100
0010
0100
1000
0001
0100
0001
1000
0010
0100
0001
,
1000
0100
0010
0001
1000
0010
1000
0100
0010
0001
1000
0001
0100
0001
0010
0100
,
1000
0001
0100
0001
1000
0010
0100
0001
1000
0100
0010
0001
,
1000
0010
0100
0001
1000
0100
0010
0100
1000
0001
0100
0001
1000
0010
0100
0001
,
1000
0100
0010
0100
1000
0001
0100
0001
1000
0010
0100
0001
,
1000
0100
0010
0001
1000
0001
0100
0001
0010
0100
1000
0001
0100
0001
1000
0100
,
0010
0001
1000
0001
0100
0001
0010
0100
1000
0001
0100
0001
1000
0100
0010
0100
,
2000
3001
0100
0001
1000
0010
0100
0001
1000
0001
0010
0100
1000
0001
0100
0001
,
2000
3100
0010
0001
1000
0001
0100
0001
0010
0100
1000
0010
0100
0001
1000
0100
,
0020
0000
0000
0000
,
0000
0000
0000
0000
,
0000
0002
0000
0000
,
0000
0000
0000
0000
,
0000
0000
0000
2000
,
0000
0000
0000
0000
,
0000
0000
0000
0000
,
0000
0000
0200
0000
,
0000
0000
0000
0000
0000
3333
0000
0000
,
MMMM
0000
MMMM
0000
;

//---------------dance-single - Easy----------------
#NOTES:
     dance-single:
     Easy:
     Medium:
     18:
     1.000,1.000,0.389,0.509,1.000,4064.000,158.000,207.000,112.000,29.000:
0000
0000
0000
0000
,
1000
0100
0010
0002
,
0000
0000
0000
0000
0103
0020
0000
0000
0000
0000
0000
0000
1030
0000
0000
0000
,
0001
0100
0010
0200
,
0000
0000
0301
1000
,
0100
0010
0001
1000
0000
0000
0010
0000
0000
0200
0000
0000
,
0000
0302
0000
0023
,
0230
2300
3020
0230
,
0000
0000
0000
0300
,
MMMM
0000
0000
0000
0000
0000
0000
0000
M000
0000
0MMM
0M00
MMMM
0000
0000
0000
MMMM
0000
MMMM
0000
MMMM
0000
MMMM
0000
0000
0000
MMMM
0000
M000
0000
MM00
0000
,
00M0
M000
0M00
00MM
000M
0000
M000
00M0
0M00
0M00
00M0
M000
0000
000M
00M0
0000
,
MM00
0000
0M00
0M00
0M00
00M0
0000
0000
000M
0000
0000
M000
0000
00M0
0000
0000
,
1M00
0010
1000
0010
0100
0001
1000
0001
,
1000
0100
1000
0010
0100
0001
0100
0001
,
0010
0100
1000
0001
0100
0001
1000
0010
,
1000
0000
0010
0000
0100
0000
0001
0000
1000
0100
0010
0000
0001
1000
0100
0000
,
0010
0001
1000
0001
0100
0001
1000
0010
,
1000
0010
0100
0010
0100
0001
1000
0001
,
0010
0100
1000
0100
1000
0001
0100
0001
,
1000
0000
0010
0000
0100
0000
0001
0000
0010
0100
1000
0000
0001
0100
0010
0000
,
1000
0001
0100
0001
1000
0010
1000
0010
,
0100
0001
0010
0100
1000
0100
1000
0001
,
0100
0001
0100
0001
1000
0010
0100
0001
,
1000
0000
0001
0000
0010
0000
0001
0000
0010
0100
1000
0000
0001
0100
0001
0000
,
1000
0001
0100
0001
1000
0010
1000
0010
,
0100
0001
1000
0001
0010
0001
0010
0100
,
1000
0001
0100
0001
1000
0100
1000
0100
,
0010
0000
0001
0000
1000
0000
0001
0000
0010
0100
1000
0000
0001
1000
0001
0000
,
1000
0001
0100
0001
1000
0001
1000
0100
,
1000
0010
0100
0001
0010
0100
1000
0001
,
0100
0001
1000
0010
0100
0001
1000
0100
,
0010
0000
0100
0000
1000
0000
0001
0000
0100
0001
0100
0000
0010
1000
0100
0000
,
0010
0100
1000
0001
0100
0001
1000
0010
,
1000
0000
0001
0000
1000
0100
0010
0001
1000
0100
0010
0001
1000
0010
0100
0001
,
1000
MMMM
0000
0000
0000
0000
0000
0000
,
0000
0000
0000
0000
0000
0000
0000
MMMM
,
1000
0100
0010
0001
1000
0001
0100
0001
0010
0100
1000
0001
1000
0100
1000
0010
,
0100
0001
1000
0001
0010
0001
1000
0010
0100
0001
1000
0100
1000
0001
0100
0001
,
1000
0010
0100
0001
1000
0001
0010
0001
1000
0010
0100
0001
1000
0100
1000
0010
,
0100
0001
1000
0001
0010
0001
1000
0010
0100
0001
1000
0100
0020
0000
0000
0000
,
0031
1000
0001
0100
0001
0010
0100
1000
0010
0100
0001
1000
0100
1000
0010
0100
,
0001
1000
0001
0010
0001
1000
0010
0100
0001
1000
0100
0010
0001
1000
0010
1000
,
0100
0010
0001
1000
0001
0100
0001
0010
0100
1000
0001
0100
0001
1000
0100
0010
,
0001
1000
0010
0100
0001
1000
0001
0010
0100
1000
0001
1000
0200
0000
0000
0000
,
0310
0001
1000
0010
0100
0001
1000
0100
1000
0010
0100
0001
1000
0001
0010
0001
,
1000
0010
0100
0001
1000
0100
0010
0100
1000
0010
0100
0001
0010
0100
0010
0001
,
1000
0010
0100
0001
1000
0100
1000
0010
0100
0001
1000
0001
0010
0100
1000
0001
,
0010
0100
1000
0010
0100
0001
1000
0100
0010
0001
1000
0001
0020
0000
0000
0000
,
0130
1000
0001
0100
0001
1000
0010
0100
0001
1000
0100
0010
0001
1000
0010
0100
,
0001
1000
0100
0010
0100
1000
0010
0100
0001
1000
0001
0100
0001
1000
0100
0010
,
0001
1000
0010
0100
0001
1000
0100
0010
0001
1000
0010
1000
0100
0010
0001
1000
,
0002
0000
1000
0000
1000
0000
1000
0003
,
M001
0100
0001
0000
1000
0010
1000
0000
0010
0100
0010
0000
0100
0001
0100
0000
,
0001
0010
0001
0000
1000
0100
1000
0000
0001
0100
0001
0000
1000
0010
1000
0000
,
0010
0100
0010
0000
0100
0001
0100
0000
0001
1000
0001
0000
1000
0100
1000
0000
,
0001
1000
0001
0000
0100
0001
0100
0000
0001
1000
0001
0000
0020
0000
0000
0000
,
0031
0010
0100
1000
0001
0100
0001
1000
0100
0010
0001
1000
0010
1000
0010
0100
,
0001
1000
0001
1000
0100
0010
0001
0010
0001
1000
0010
0100
0001
1000
0001
1000
,
0100
1000
0100
0010
0100
1000
0010
0100
0001
1000
0001
1000
0100
0010
0001
0010
,
0001
1000
0010
1000
0010
0100
0001
1000
0100
0010
0001
1000
0002
0000
0000
0000
,
1003
0100
1000
0000
0001
0100
0001
0000
1000
0001
1000
0000
0001
0010
0001
0000
,
1000
0010
1000
0000
0001
1000
0001
0000
0100
0001
0100
0000
0010
1000
0010
0000
,
0100
0001
0100
0000
0001
1000
0001
0000
1000
0100
1000
0000
0010
0100
0010
0000
,
1000
0100
1000
0000
0001
0100
0001
0000
0010
0100
0010
0000
0200
0000
0000
0000
,
1300
0010
1000
0010
0100
0001
0100
0001
,
1000
0001
1000
0100
1000
0100
0010
0001
,
0010
0001
1000
0010
1000
0010
0100
0001
,
1000
MMMM
0000
0000
0000
0000
0000
MMMM
,
0010
0001
1000
0010
0100
0001
1000
0100
0010
0100
1000
0010
,
0100
0001
1000
0001
0010
0100
1000
0001
0100
0001
1000
0100
,
0010
0001
1000
0010
0100
0001
1000
0001
0010
0100
1000
0001
,
0100
0010
1000
0100
0010
0001
1000
0010
0100
0001
1000
0001
0010
0100
1000
0001
,
1000
0100
0010
0001
1000
0010
0100
0001
1000
0001
0010
0100
,
1000
0001
0100
0001
1000
0100
0010
0001
1000
0010
0100
0001
,
1000
0100
0010
0100
1000
0010
0100
0001
1000
0100
0010
0001
,
1000
0001
0010
0001
1000
0001
0100
0001
1000
0001
1000
0100
1000
0100
0010
0001
,
1000
0100
0010
0001
1000
0001
0100
0001
0010
0100
1000
0010
,
0100
0001
1000
0100
0010
0100
1000
0010
0100
0010
1000
0100
,
0010
0001
1000
0001
0100
0001
0010
0100
1000
0001
0100
0001
,
1000
0100
0010
0001
1000
0010
0100
0001
1000
0100
0010
0001
1000
0010
0100
0001
,
0010
0100
1000
0001
0100
0001
1000
0010
0100
0001
0010
0100
,
1000
0001
0100
0001
1000
0010
1000
0010
0100
0001
1000
0001
,
0010
0100
1000
0001
0100
0001
1000
0010
0100
0001
0000
0000
,
1111
0000
1101
1101
,
1000
0100
0010
0001
1000
0001
0100
0001
1000
0010
0100
0001
1000
0001
0010
0001
,
1000
0010
0100
0001
1000
0100
1000
0001
0100
0010
1000
0100
0010
0001
1000
0001
,
0010
0001
1000
0100
0010
0001
1000
0001
0100
0001
0010
0100
1000
0001
0100
0001
,
1000
0010
1000
0100
1000
0010
0100
0001
1000
0100
0010
0001
1000
0010
0100
0001
,
1000
0100
0010
0001
1000
0001
0100
0001
0010
0100
1000
0010
0100
0001
1000
0100
,
1000
0001
0100
0001
1000
0010
0100
0001
1000
0100
0010
0001
,
1000
0100
1000
0001
0100
0001
1000
0100
1000
0010
0100
0001
,
1000
0100
0010
0001
1000
0001
0100
0001
0010
0100
1000
0001
,
1000
0100
1000
0010
0100
0001
1000
0001
0010
0100
1000
0001
0100
0001
1000
0100
,
0010
0001
1000
0010
0100
0001
1000
0001
0010
0001
1000
0100
0010
0001
1000
0010
,
0100
0001
1000
0100
1000
0010
0100
0001
0010
0100
1000
0001
0100
0001
1000
0100
,
0010
0001
1000
0010
0100
0001
1000
0001
0010
0001
1000
0100
0010
0001
1000
0001
,
0100
0001
0010
0100
1000
0001
0100
0001
1000
0100
0010
0001
1000
0010
0100
0001
,
1000
0001
0010
0001
1000
0100
0010
0001
1000
0010
0100
0001
,
1000
0010
0100
0001
1000
0100
1000
0001
0100
0001
0010
0100
,
1000
000M
M000
00M0
0M00
000M
M000
0M00
00M0
000M
M000
00M0
,
1001
0001
0101
0100
0110
0010
1010
1000
,
1100
0100
0110
0010
0011
0001
0101
0100
,
0101
0001
1001
1000
1010
0010
1010
1000
,
1100
0100
0110
0010
0110
0100
1100
1010
,
0110
0100
0001
0010
0110
0100
1000
0010
,
0110
0100
0001
1000
1100
0100
0010
0001
,
0011
0010
0100
1000
1001
0001
0100
0001
,
0110
0100
1000
0010
0101
0001
0010
0100
,
1100
1000
1010
0010
0110
0010
1010
1000
,
1100
0100
0011
0001
0101
0100
0110
0010
,
1010
0100
0101
0001
0011
0010
0110
0100
,
1100
1000
1010
0010
0110
0100
0101
0001
,
0011
0010
0100
1000
1010
0010
0100
0001
,
0101
0100
0010
1000
1100
0100
0010
0001
,
0011
0010
0110
0100
1100
1000
1010
0010
,
0110
0100
0001
0010
0110
0100
1000
0001
,
1001
0000
0000
0000
,
MMMM
0000
0000
0000
,
1111
0000
0000
0000
,
MMMM
0000
0000
0000
,
0001
0000
0000
1000
0000
0000
0010
0000
0000
0100
0000
0000
0001
0000
0010
0000
0100
0000
1000
0000
0001
0000
0100
0000
,
0001
0000
0000
0000
1000
0000
0000
0000
0010
0000
0000
0000
0100
0000
0000
0001
0000
0000
1000
0000
0000
0100
0000
0000
1000
0000
0000
0010
0000
0000
0100
0000
0000
0001
0000
0000
1000
0000
0000
0001
0000
0000
0010
0000
0000
0100
0000
0000
,
1000
0001
0100
0001
1000
0100
0010
0001
1000
0010
0100
0001
1000
0100
0010
0001
,
1000
0110
0000
0000
,
1000
0001
1000
0000
0010
0100
0010
0000
0100
0001
0100
0000
0001
1000
0001
0000
,
0010
0100
0010
0000
0001
0100
0001
0000
1000
0010
1000
0000
0010
0100
0010
0000
,
0100
0001
0100
0000
0010
1000
0010
0000
0100
0001
0100
0000
0001
0010
0001
0000
,
1000
0100
1000
0000
0010
0100
0010
0000
0100
0001
0100
0000
0010
1000
0010
0000
,
0100
0010
0100
0000
0001
0100
0001
0000
1000
0010
1000
0000
0001
0100
0001
0000
,
0100
0010
0100
0000
0010
0100
0010
0000
1000
0100
1000
0000
0010
0100
0010
0000
,
0100
0001
0100
0000
0001
0010
0001
0000
1000
0100
1000
0000
0001
0100
0001
0000
,
1000
0010
1000
0000
0001
0100
0001
0000
1000
0100
1000
0000
0001
0010
0001
0000
,
1000
0100
1000
0000
0010
0100
0010
0000
0100
0001
0100
0000
0010
1000
0010
0000
,
0100
0001
0100
0000
0001
1000
0001
0000
1000
0100
1000
0000
0010
0100
0010
0000
,
0100
0001
0100
0000
0010
1000
0010
0000
1000
0001
1000
0000
0001
0100
0001
0000
,
1000
0100
1000
0000
0001
0010
0001
0000
1000
0010
1000
0000
0010
0100
0010
0000
,
0200
0302
0203
0320
2030
3200
2300
3002
,
2003
3020
0230
0302
0203
0302
2003
3200
,
0320
0032
2003
3020
0430
0300
0400
0300
,
0400
0000
0000
0000
,
0301
0010
0001
1000
0010
1000
0100
0010
0001
1000
0001
0100
0001
1000
0010
0100
,
0001
1000
0001
1000
0100
0010
0001
0010
0001
1000
0010
0100
0001
1000
0001
0010
,
0100
1000
0100
0010
0001
1000
0001
0100
0001
1000
0010
0100
0001
1000
0001
0010
,
0100
0010
0001
1000
0100
1000
0010
0100
0001
1000
0001
1000
0100
0010
0001
1000
,
0001
1000
0010
0100
0001
1000
0001
1000
0100
0010
0001
0010
,
0001
1000
0010
0100
0001
1000
0001
0010
0001
0010
0100
1000
,
0001
0100
0001
1000
0010
0100
0001
1000
0001
1000
0100
0010
,
0001
1000
0001
0100
0001
0010
0100
1000
0100
1000
0010
0100
0001
1000
0001
0010
,
0001
0010
0100
1000
0001
0100
0001
0100
0010
1000
0100
0010
0001
1000
0001
0010
,
0100
1000
0010
0100
0001
0100
0001
0010
0100
1000
0100
1000
,
0010
0100
0001
0010
0100
0010
0100
1000
0010
0100
0001
1000
,
0001
1000
0100
0010
0001
0010
0001
1000
0010
0100
0001
1000
,
0100
0010
0001
1000
0001
0100
0001
0010
0100
1000
0100
1000
0010
0100
0001
1000
,
0001
1000
0100
0010
0001
0010
0001
1000
0010
0100
0001
1000
0001
0010
0100
1000
,
0001
0100
0010
1000
0100
0010
0001
1000
0010
0100
0001
1000
0001
0010
0100
1000
,
0002
2003
3020
0230
,
0301
0101
1010
0110
,
0101
0011
0110
1100
,
1001
0101
1001
1010
,
0110
0101
1001
1100
,
1001
0101
0011
0110
,
1100
1010
0110
1010
,
1100
0110
0011
0101
,
1001
0101
1001
1010
,
0110
0101
0011
0110
,
1100
1010
0110
0101
,
1001
1100
1001
0011
,
1001
1010
1001
0101
,
0011
0110
1100
1010
,
0220
0000
0000
0330
0220
0330
0110
0220
,
0000
0000
0000
0000
,
0330
0020
2030
3200
,
0310
0001
1000
0001
0100
0001
1000
0010
0100
0001
1000
0100
0010
0001
1000
0010
,
1000
0100
0010
0001
1000
0001
0100
0001
0010
0100
1000
0001
1000
0100
1000
0001
,
0100
0001
0010
0100
1000
0010
0100
0001
1000
0100
1000
0010
0100
0001
1000
0001
,
0010
0100
1000
0001
0100
0001
1000
0100
0010
0001
1000
0010
0100
0001
1000
0100
,
1000
0010
0100
0001
1000
0100
1000
0010
0100
0001
1000
0100
1000
0001
0100
0001
,
1000
0001
0100
0001
1000
0010
0100
0001
1000
0100
0010
0001
,
1000
0010
0100
0001
1000
0100
1000
0001
0010
0100
1000
0010
,
0100
0001
1000
0001
0100
0001
0010
0100
1000
0010
1000
0001
,
0100
0001
1000
0100
0010
0001
1000
0010
0100
0001
1000
0100
,
0010
0100
1000
0001
0100
0001
1000
0010
0100
0001
0010
0100
,
1000
0001
0100
0001
1000
0100
0010
0001
1000
0010
0100
0001
,
1000
0100
1000
0001
0100
0010
1000
0100
0010
0001
1000
0001
,
0100
0001
0010
0100
1000
0001
0100
0001
1000
0100
0010
0001
,
2000
0000
0000
0000
3200
0000
0310
0002
,
0000
0000
0000
0000
0000
0000
0000
0003
,
2000
3020
0230
0302
,
1003
0010
0100
0001
1000
0100
1000
0010
0100
0001
1000
0100
0010
0001
1000
0010
,
1000
0100
0010
0001
1000
0001
0100
0001
0010
0100
1000
0001
1000
0010
1000
0100
,
0010
0001
0100
0001
0010
0100
1000
0001
0100
0001
1000
0100
0010
0001
1000
0001
,
0020
0032
2003
3020
,
0230
0302
2003
3200
,
2300
3002
0023
0230
,
2300
3200
0320
0032
,
2003
3020
0230
0302
,
1003
0100
1000
0010
0100
0001
1000
0001
0010
0100
1000
0001
0100
0001
1000
0100
,
0010
0001
1000
0010
0100
0001
1000
0001
0010
0001
1000
0010
1000
0100
0010
0001
,
0100
0001
1000
0001
0010
0100
1000
0001
0100
0001
1000
0100
0010
0001
1000
0010
,
1000
0100
0010
0001
0100
0001
1000
0001
0010
0100
1000
0001
1000
0100
0010
0001
,
0020
0230
2300
3002
,
0203
0000
0000
0000
0320
0000
1030
2000
,
0000
0000
0000
0000
0000
0000
0000
3000
,
1111
MMMM
0000
0000
0000
0000
0000
MMMM
,
1000
0010
0100
0001
1000
0001
1000
0100
,
0010
0001
1000
0010
0110
0100
0101
0001
,
0110
1000
0001
0100
0001
1000
0010
0100
,
0001
1000
0100
1000
0010
0100
0001
0010
,
1100
1000
0001
0100
0001
1000
0010
0100
,
0001
1000
0100
0010
0011
0001
0101
0010
,
1100
1000
0001
0100
0001
1000
0010
0100
,
0001
0010
0100
1000
0001
0100
0001
0010
,
0110
0100
1000
0010
0100
0001
1000
0001
,
0010
0001
0010
0100
1100
1000
0110
0100
,
0101
0001
1000
0010
1000
0010
0100
0001
,
1000
0001
0010
0100
1000
0001
0100
0001
,
0110
1000
0010
0100
0001
1000
0001
0010
,
0100
1000
0100
1000
1010
0010
0110
0100
,
0101
0001
0010
0100
1100
1000
0001
0100
,
0101
0000
0001
0000
0110
0000
0100
0000
1000
0010
0100
0001
1000
0001
0010
0100
,
1000
0001
0100
0001
1000
0010
0100
0001
1000
0100
0010
0100
,
1000
0001
0100
0001
0010
0100
1000
0010
0100
0001
1000
0100
,
1000
0010
0100
0001
0010
0100
1000
0001
0100
0001
1000
0100
,
0010
0001
1000
0010
0100
0001
1000
0001
0010
0100
1000
0001
,
0100
0001
1000
0010
0100
0001
1000
0001
0010
0001
1000
0010
,
0100
0001
1000
0100
0010
0001
1000
0010
1000
0100
0010
0001
,
0100
0001
1000
0001
0010
0100
1000
0001
0100
0001
1000
0100
,
0010
0001
1000
0010
1000
0100
0010
0001
1000
0001
0100
0001
,
0010
0100
1000
0001
0100
0001
1000
0010
0100
0001
1000
0100
,
0010
0100
1000
0010
0100
0001
1000
0001
0010
0001
1000
0100
,
0010
0001
1000
0010
1000
0100
0010
0001
1000
0001
0100
0001
,
0010
0100
1000
0001
0100
0001
1000
0100
0010
0001
1000
0010
,
1000
0100
0010
0001
1000
0001
0100
0001
0010
0100
1000
0010
,
0100
0001
1000
0100
0010
0001
1000
0010
1000
0100
0010
0001
,
1000
0001
0100
0001
0010
0100
1000
0001
0100
0001
1000
0100
,
0020
0030
0110
0000
1100
1100
1010
0000
,
0100
0010
0001
1000
0010
0100
0001
1000
0001
1000
0010
0100
0001
1000
0001
0010
,
0100
1000
0100
1000
0010
0100
0001
1000
0001
0010
0001
0010
0100
1000
0001
0100
,
0001
1000
0100
1000
0010
0100
0001
1000
0001
0010
0100
1000
0001
0100
0001
1000
,
0100
0010
0001
1000
0010
1000
0010
0100
0001
1000
0001
0010
0100
1000
0001
0100
,
0001
0100
0010
1000
0100
1000
0100
0010
0001
0100
0001
0100
0010
1000
0100
0010
,
0001
1000
0100
1000
0010
0100
0001
1000
0001
0010
0001
0010
0100
1000
0001
0100
,
0001
1000
0100
1000
0010
0100
0001
1000
0001
0010
0100
1000
,
0001
0100
0001
1000
0010
1000
0010
0100
0001
1000
0100
0010
,
0100
1000
0001
0100
0001
0100
0010
1000
0100
0010
0001
1000
,
0010
1000
0010
0100
0001
0010
0100
1000
0001
0100
0001
1000
,
0010
1000
0010
0100
0001
1000
0001
1000
0100
0010
0001
1000
,
0100
1000
0001
0010
0100
1000
0100
1000
0010
0100
0001
0100
,
0001
0010
0100
1000
0010
1000
0010
0100
0001
1000
0001
0010
,
0100
1000
0001
0100
0001
0100
0010
1000
0100
1000
0100
0010
,
0001
1000
0010
1000
0010
0100
0001
1000
0001
0010
0100
1000
,
0002
0000
0203
0000
0310
0010
0020
0000
,
1030
0000
0110
0011
0000
0101
0110
0000
,
1000
0100
0010
0001
1000
0001
0100
0001
0010
0100
1000
0010
0100
0001
1000
0100
,
0010
0001
1000
0001
0100
0001
1000
0100
1000
0010
0100
0001
1000
0100
0010
0001
,
1000
0010
0100
0001
1000
0100
1000
0010
0100
0001
1000
0100
1000
0010
0100
0001
,
1000
0100
0010
0001
1000
0010
0100
0001
1000
0100
1000
0010
0100
0001
1000
0001
,
0010
0100
1000
0001
0100
0001
1000
0100
0010
0001
1000
0010
1000
0100
0010
0001
,
1000
0001
0100
0001
0010
0100
1000
0001
0100
0001
1000
0100
0010
0001
1000
0001
,
2000
3000
2000
3000
0200
0300
2000
3000
0002
0003
0200
0300
0002
0003
0020
0030
,
0200
0300
0000
0000
1100
0000
1010
0000
0000
0000
0110
0000
0101
0000
0000
0000
,
1000
0100
1000
0001
0100
0001
0010
0100
1000
0010
0100
0001
1000
0100
1000
0001
,
0100
0001
0010
0100
1000
0010
0100
0001
1000
0001
0010
0001
1000
0010
1000
0100
,
0010
0001
1000
0001
0100
0001
0010
0100
1000
0001
0100
0001
1000
0100
0010
0001
,
4000
0000
0000
0000
,
0000
0000
0000
0000
,
3100
0010
0001
1000
0001
0100
0001
0001
,
0200
0300
0002
0003
0200
0300
0002
0003
0020
0030
0200
0300
2000
3000
0020
0030
,
0100
0000
0101
0011
0000
0110
1100
0000
,
2000
3020
0030
0000
,
0101
0000
0011
0110
0000
1100
1001
0000
,
0020
0030
0200
0300
0020
0030
0200
0300
0020
0030
0200
0300
0020
0030
0200
0300
,
0020
0000
2030
0000
0000
0000
0000
3000
,
1000
0100
0010
0001
1000
0001
0100
0001
0010
0100
1000
0010
0100
0001
1000
0100
,
1000
0001
0100
0001
0010
0100
1000
0010
0100
0001
1000
0100
1000
0001
0100
0001
,
0010
0100
1000
0010
0100
0001
1000
0100
0010
0001
1000
0010
1000
0001
0100
0001
,
1000
0001
0100
0001
1000
0010
0100
0001
1000
0100
1000
0010
0100
0001
1000
0100
,
0010
0001
1000
0100
0010
0001
1000
0010
1000
0100
0010
0001
1000
0001
0100
0001
,
4000
0000
0000
0000
,
3020
0030
0200
0300
0002
0003
0020
0030
0200
0300
2000
3000
0002
0003
0200
0300
,
0002
2003
0000
0000
,
3100
0010
0001
1000
0001
0100
0001
0010
0100
1000
0010
0100
0001
1000
0100
1000
,
0010
0100
0001
1000
0001
0010
0001
1000
0010
0100
0001
1000
0100
1000
0010
0100
,
0001
0010
0100
1000
0001
0100
0001
1000
0100
0010
0001
1000
0010
0100
0001
1000
,
0004
0000
0000
0000
,
0000
0000
0000
0000
,
0000
0000
0000
0000
,
0203
0300
0020
0030
2000
3000
0200
0300
0020
0030
0002
0003
2000
3000
0002
0003
,
0020
0230
0000
0000
,
1300
0010
0100
0001
1000
0100
1000
0010
0100
0001
1000
0001
0010
0001
1000
0010
,
0100
0001
1000
0100
0010
0001
1000
0010
0100
0001
1000
0100
0010
0001
1000
0010
,
0100
0001
1000
0100
1000
0010
0100
0001
0010
0100
1000
0001
0100
0001
1000
0100
,
0010
0001
1000
0010
1000
0100
0010
0001
1000
0001
0100
0001
0010
0100
1000
0001
,
4000
0000
0000
0000
,
3001
1000
0001
0010
0100
1000
0010
0100
,
0002
0003
2000
3000
0020
0030
0200
0300
0002
0003
2000
3000
0200
0300
0020
0030
,
0002
2003
0000
0000
,
3001
1000
0001
0100
0001
0010
0100
1000
0010
0100
0001
1000
0100
1000
0010
0100
,
0001
1000
0100
0010
0001
1000
0010
1000
0100
0010
0001
1000
0001
0100
0001
1000
,
0004
0000
0000
0000
,
0000
0000
0000
0000
,
0000
0000
0000
0000
,
1003
0010
0100
0001
1000
0001
0010
0100
,
1000
0001
0100
0001
1000
0010
0100
0001
0010
0100
1000
0001
,
0100
0010
0100
0000
0010
1000
0010
0000
1000
0100
1000
0000
0100
0010
0100
0000
,
0010
0001
0010
0000
0001
1000
0001
0000
0100
0001
0100
0000
0010
1000
0010
0000
,
0100
0001
0100
0000
0001
0010
0001
0000
1000
0001
1000
0000
0100
1000
0100
0000
,
0010
0001
0010
0000
0001
1000
0001
0000
0100
0001
0100
0000
0010
1000
0010
0000
,
1000
0001
1000
0000
0100
0010
0100
0000
1000
0010
1000
0000
0010
0100
0010
0000
,
0100
0001
0100
0000
0001
1000
0001
0000
1000
0100
1000
0000
0001
0010
0001
0000
,
1000
0010
1000
0000
0001
0100
0001
0000
1000
0001
1000
0000
0001
0100
0001
0000
,
1000
0010
1000
0000
0010
0100
0010
0000
1000
0100
1000
0000
0001
0010
0001
0000
,
1000
0001
1000
0000
0001
0100
0001
0000
0100
0010
0100
0000
0010
1000
0010
0000
,
0100
0001
0100
0000
0001
1000
0001
0000
1000
0100
1000
0000
0001
0010
0001
0000
,
1000
0100
1000
0000
0001
0100
0001
0000
1000
0001
1000
0000
0001
0100
0001
0000
,
1000
0100
1000
0000
0001
0010
0001
0000
1000
0001
1000
0000
0001
0100
0001
0000
,
1000
0010
1000
0000
0001
0100
0001
0000
1000
0001
1000
0000
0001
0100
0001
0000
,
1000
0100
1000
0000
0001
0010
0001
0000
1000
0001
1000
0000
0001
0100
0001
0000
,
1000
0001
1000
0000
0010
1000
0010
0000
0100
0001
0100
0000
0001
1000
0001
0000
,
0100
0001
0100
0000
0001
1000
0001
0000
1000
0100
1000
0000
0002
0000
0000
0000
,
1003
0010
1000
0000
0001
0100
0001
0000
1000
0001
1000
0000
0001
0010
0001
0000
,
1000
0010
1000
0000
0001
1000
0001
0000
0100
0001
0100
0000
0010
1000
0010
0000
,
0100
0001
0100
0000
0001
1000
0001
0000
1000
0100
1000
0000
0001
0010
0001
0000
,
1000
0010
1000
0000
0001
0100
0001
0000
1000
0001
1000
0000
0100
0010
0100
0000
,
0010
0001
0010
0000
0100
1000
0100
0000
1000
0001
1000
0000
0001
0100
0001
0000
,
1000
0010
1000
0000
0001
0100
0001
0000
1000
0001
1000
0000
0100
1000
0100
0000
,
1000
0010
1000
0000
0010
0100
0010
0000
0100
0001
0100
0000
0001
1000
0001
0000
,
0100
0001
0100
0000
0001
0010
0001
0000
1000
0100
1000
0000
0001
0100
0001
0000
,
1000
0001
1000
0000
0010
1000
0010
0000
0100
0001
0100
0000
0001
1000
0001
0000
,
1000
0100
1000
0000
0010
0100
0010
0000
1000
0100
1000
0000
0001
0100
0001
0000
,
1000
0001
1000
0000
0001
0010
0001
0000
1000
0100
1000
0000
0010
0100
0010
0000
,
0100
0001
0100
0000
0001
1000
0001
0000
1000
0010
1000
0000
0001
0100
0001
0000
,
0010
0100
1000
0001
0100
0001
1000
0010
0100
0001
0010
0100
,
1000
0001
0100
0001
1000
0010
0100
0001
0010
0100
1000
0001
,
0100
0001
1000
0100
0010
0001
1000
0010
0100
0001
1000
0100
,
1000
0001
0100
0001
1000
0100
0010
0000
0000
0100
0010
0000
0000
0100
0010
0000
,
0002
0000
2000
0000
0023
0000
0200
0000
3000
0030
0002
0300
0000
0000
0020
0000
,
0003
0000
0200
0000
2030
0000
0320
3000
0200
0000
0032
0300
2000
0000
0203
0000
,
3020
0300
0002
0000
2000
0030
0023
0000
0000
0000
0200
0000
0000
0300
3032
0000
,
0000
0000
0020
0000
0200
0000
2003
0300
0002
3030
0200
0003
0002
0300
2000
0003
,
0200
0000
0020
0300
3002
0030
2000
0003
0000
0000
0020
0000
0000
3030
0200
0000
,
0002
0300
0020
0003
0200
0000
2000
0030
0002
3300
0200
0003
0002
0003
2300
0000
,
0200
0000
0020
3000
0002
0000
2300
0033
3000
0000
0020
0000
0000
0000
0200
0000
,
0000
0300
0032
0000
0020
0000
0200
0303
2000
0030
0002
3000
0200
0003
0002
0003
,
1300
0100
0010
0001
1000
0010
0100
0001
1000
0001
0010
0100
1000
0001
0100
0001
,
1000
0100
0010
0001
1000
0010
0100
0001
1000
0100
1000
0010
,
0100
0001
0010
0100
1000
0001
0100
0001
1000
0100
0010
0001
1000
0010
0100
0001
,
1000
0100
0010
0001
1000
0001
0100
0001
0010
0100
1000
0001
0100
0001
1000
0100
,
1000
0001
0100
0001
1000
0010
0100
0001
0010
0100
1000
0001
0100
0001
1000
0100
,
0010
0001
1000
0100
0010
0001
1000
0010
1000
0100
0010
0001
0100
0001
1000
0001
,
1000
0100
0010
0001
1000
0010
0100
0001
1000
0001
0010
0100
1000
0001
0100
0001
,
1000
0100
0010
0001
1000
0010
0100
0001
1000
0001
0010
0100
,
1000
0001
0100
0001
1000
0100
0010
0001
1000
0010
0100
0001
1000
0100
1000
0010
,
0100
0001
0010
0100
1000
0001
0100
0001
1000
0100
0010
0001
1000
0001
0010
0100
,
1000
0010
1000
0100
0010
0001
1000
0001
0010
0100
1000
0001
0100
0001
1000
0010
,
0100
0001
1000
0100
0010
0100
1000
0010
0100
0001
1000
0001
,
0010
0100
1000
0001
0100
0001
1000
0010
0100
0001
1000
0100
0010
0001
1000
0010
,
1000
0100
0010
0001
1000
0001
0100
0001
0010
0100
1000
0001
,
0100
0001
1000
0100
1000
0010
0100
0001
1000
0001
0010
0100
1000
0001
0100
0001
,
1000
0100
0010
0001
1000
0001
0100
0001
0010
0100
1000
0010
0100
0001
1000
0010
,
1000
0100
0010
0001
1000
0010
0100
0001
1000
0001
0010
0100
1000
0001
0100
0001
,
1000
0100
0010
0001
1000
0010
0100
0001
1000
0001
0010
0100
,
1000
0001
0100
0001
1000
0010
0100
0001
1000
0100
0010
0001
1000
0010
0100
0001
,
1000
0100
0010
0001
1000
0010
0100
0001
1000
0001
0010
0100
,
1000
0001
0100
0001
1000
0010
0100
0001
0010
0100
1000
0001
0100
0001
1000
0010
,
0100
0001
1000
0100
1000
0001
0100
0010
1000
0100
0010
0001
,
1000
0001
0010
0100
1000
0001
0100
0001
1000
0100
0010
0001
1000
0100
0010
0001
,
1000
0010
0100
0001
1000
0100
1000
0010
0100
0001
1000
0100
0010
0001
1000
0010
,
1000
0100
0010
0001
1000
0010
1000
0100
0010
0001
0100
0001
1000
0001
0010
0100
,
1000
0001
0100
0001
1000
0010
0100
0001
0010
0100
1000
0001
0100
0001
1000
0001
,
1000
0010
0100
0001
1000
0100
1000
0001
0100
0001
0010
0100
1000
0001
0010
0100
,
1000
0001
0100
0001
1000
0010
0100
0001
1000
0100
0010
0001
1000
0100
0010
0001
,
1000
0001
0100
0001
1000
0010
0100
0001
1000
0001
0010
0100
0010
0001
1000
0010
,
1000
0100
0010
0001
1000
0001
0100
0001
0010
0100
1000
0010
0100
0001
1000
0100
,
1000
0010
0100
0010
1000
0100
0010
0100
1000
0001
0100
0001
1000
0100
0010
0100
,
1000
0001
0100
0001
1000
0010
0100
0001
0010
0100
1000
0001
0100
0001
1000
0001
,
1000
0001
0100
0001
1000
0010
0100
0001
1000
0100
0010
0100
1000
0010
0100
0001
,
1000
0100
0010
0100
1000
0001
0100
0001
1000
0010
0100
0001
,
1000
0100
0010
0001
1000
0010
1000
0100
0010
0001
1000
0001
0100
0001
0010
0100
,
1000
0001
0100
0001
1000
0010
0100
0001
1000
0100
0010
0001
,
1000
0010
0100
0001
1000
0100
0010
0100
1000
0001
0100
0001
1000
0010
0100
0001
,
1000
0100
0010
0100
1000
0001
0100
0001
1000
0010
0100
0001
,
1000
0100
0010
0001
1000
0001
0100
0001
0010
0100
1000
0001
0100
0001
1000
0100
,
0010
0001
1000
0001
0100
0001
0010
0100
1000
0001
0100
0001
1000
0100
0010
0100
,
2000
3001
0100
0001
1000
0010
0100
0001
1000
0001
0010
0100
1000
0001
0100
0001
,
2000
3100
0010
0001
1000
0001
0100
0001
0010
0100
1000
0010
0100
0001
1000
0100
,
0020
0000
0000
0000
,
0000
0000
0000
0000
,
0000
0002
0000
0000
,
0000
0000
0000
0000
,
0000
0000
0000
2000
,
0000
0000
0000
0000
,
0000
0000
0000
0000
,
0000
0000
0200
0000
,
0000
0000
0000
0000
0000
3333
0000
0000
,
MMMM
0000
MMMM
0000
;

//---------------dance-single - Medium----------------
#NOTES:
     dance-single:
     Medium:
     Hard:
     19:
     1.000,1.000,0.384,0.558,1.000,4475.000,156.000,227.000,111.000,80.000:

0000
0000
0000
0000
,
1000
0100
0010
0002
,
0000
0000
0000
0000
0103
0020
0000
0000
0000
0000
0000
0000
1030
0100
0000
0000
,
0010
0001
0000
0000
1000
0010
0000
0000
0100
0010
0000
0000
2000
0100
0000
0000
,
0000
0000
3001
1000
,
0100
0000
0000
0000
0010
0000
0000
0000
0001
0000
0000
0000
1000
0000
0000
0000
0000
0000
0000
0000
0000
0000
0000
0000
0010
0000
0000
0100
0000
0000
0000
0000
0000
0000
0000
0000
0001
0000
0000
0020
0000
0000
0000
0000
0000
0000
0000
0000
,
0000
0000
0000
0000
0130
2000
0000
0000
0000
0000
0000
0000
3010
0100
0000
0000
,
0001
0010
0000
0000
0100
1000
0000
0000
0010
0100
0000
0000
0200
0000
0000
0000
,
0000
0000
0000
0300
,
MMMM
0000
0000
0000
0000
0000
0000
0000
M000
0000
0MMM
0M00
MMMM
0000
0000
0000
MMMM
0000
MMMM
0000
MMMM
0000
MMMM
0000
0000
0000
MMMM
0000
M000
0000
MM00
0000
,
00M0
M000
0M00
00MM
000M
0000
M000
00M0
0M00
0M00
00M0
M000
0000
000M
00M0
0000
,
MM00
0000
0M00
0M00
0M00
00M0
0000
0000
000M
0000
0000
M000
0000
00M0
0000
0000
,
1M00
0010
1000
0010
0100
0001
1000
0001
,
1000
0100
1000
0010
0100
0001
0100
0001
,
0010
0100
1000
0001
0100
0001
1000
0010
,
1000
0000
0010
0000
0100
0000
0001
0000
1000
0100
0010
0000
0001
1000
0100
0000
,
0010
0001
1000
0001
0100
0001
1000
0010
,
1000
0010
0100
0010
0100
0001
1000
0001
,
0010
0100
1000
0100
1000
0001
0100
0001
,
1000
0000
0010
0000
0100
0000
0001
0000
0010
0100
1000
0000
0001
0100
0010
0000
,
1000
0001
0100
0001
1000
0010
1000
0010
,
0100
0001
0010
0100
1000
0100
1000
0001
,
0100
0001
0100
0001
1000
0010
0100
0001
,
1000
0000
0001
0000
0010
0000
0001
0000
0010
0100
1000
0000
0001
0100
0001
0000
,
1000
0001
0100
0001
1000
0010
1000
0010
,
0100
0001
1000
0001
0010
0001
0010
0100
,
1000
0001
0100
0001
1000
0100
1000
0100
,
0010
0000
0001
0000
1000
0000
0001
0000
0010
0100
1000
0000
0001
1000
0001
0000
,
1000
0001
0100
0001
1000
0001
1000
0100
,
1000
0010
0100
0001
0010
0100
1000
0001
,
0100
0001
1000
0010
0100
0001
1000
0100
,
0010
0000
0100
0000
1000
0000
0001
0000
0100
0001
0100
0000
0010
1000
0100
0000
,
0010
0100
1000
0001
0100
0001
1000
0010
,
1000
0000
0001
0000
1000
0100
0010
0001
1000
0100
0010
0001
1000
0010
0100
0001
,
1000
MMMM
0000
0000
0000
0000
0000
0000
,
0000
0000
0000
0000
0000
0000
0000
MMMM
,
1000
0100
0010
0001
1000
0001
0100
0001
0010
0100
1000
0001
1000
0100
1000
0010
,
0100
0001
1000
0001
0010
0001
1000
0010
0100
0001
1000
0100
1000
0001
0100
0001
,
1000
0010
0100
0001
1000
0001
0010
0001
1000
0010
0100
0001
1000
0100
1000
0010
,
0100
0001
1000
0001
0010
0001
1000
0010
0100
0001
1000
0100
0010
0001
1000
0000
,
0001
1000
0001
0100
0001
0010
0100
1000
0010
0100
0001
1000
0100
1000
0010
0100
,
0001
1000
0001
0010
0001
1000
0010
0100
0001
1000
0100
0010
0001
1000
0010
1000
,
0100
0010
0001
1000
0001
0100
0001
0010
0100
1000
0001
0100
0001
1000
0100
0010
,
0001
1000
0010
0100
0001
1000
0001
0010
0100
1000
0001
1000
0100
0010
0001
0000
,
1000
0001
1000
0010
0100
0001
1000
0100
1000
0010
0100
0001
1000
0001
0010
0001
,
1000
0010
0100
0001
1000
0100
0010
0100
1000
0010
0100
0001
0010
0100
0010
0001
,
1000
0010
0100
0001
1000
0100
1000
0010
0100
0001
1000
0001
0010
0100
1000
0001
,
0010
0100
1000
0010
0100
0001
1000
0100
0010
0001
1000
0001
0010
0100
1000
0000
,
0001
1000
0001
0100
0001
1000
0010
0100
0001
1000
0100
0010
0001
1000
0010
0100
,
0001
1000
0100
0010
0100
1000
0010
0100
0001
1000
0001
0100
0001
1000
0100
0010
,
0001
1000
0010
0100
0001
1000
0100
0010
0001
1000
0010
1000
0100
0010
0001
1000
,
0002
0000
1000
0000
1000
0000
1000
0003
,
1000
0100
0010
0001
1000
0010
0100
0001
1000
0001
0010
0001
1000
0100
0010
0001
,
1000
0010
0100
0001
1000
0100
1000
0010
0100
0001
0010
0100
1000
0001
0100
0001
,
1000
0100
0010
0001
1000
0010
1000
0100
0010
0001
0100
0001
0010
0100
1000
0001
,
0100
0001
1000
0100
0010
0001
1000
0010
0100
0001
1000
0100
0010
0001
1000
0000
,
0001
1000
0001
0100
0001
0010
0100
1000
0010
0100
0001
1000
0100
1000
0010
0100
,
0001
0010
0100
1000
0001
0100
0001
1000
0100
0010
0001
1000
0010
0100
0001
0010
,
0100
1000
0001
0100
0001
1000
0100
0010
0001
1000
0010
0100
0001
0100
0010
1000
,
0100
0010
0100
1000
0001
0100
0001
1000
0100
0010
0001
1000
0001
0010
0100
0000
,
1000
0001
0100
0001
1000
0010
0100
0001
0010
0100
1000
0001
0100
0001
1000
0100
,
0010
0001
1000
0010
1000
0100
0010
0001
1000
0001
0100
0001
0010
0100
1000
0001
,
0100
0001
1000
0100
0010
0001
1000
0010
0100
0001
0010
0100
1000
0001
0100
0001
,
1000
0100
1000
0010
0100
0001
1000
0100
0010
0001
1000
0010
0100
0001
0010
0000
,
0100
1000
0001
0100
0001
1000
0010
0100
,
0001
1000
0100
0010
0001
1000
0010
1000
,
0100
0010
0001
0100
0001
1000
0001
0100
,
0010
MMMM
0000
0000
0000
0000
0000
MMMM
,
0010
0001
1000
0010
0100
0001
1000
0100
0010
0100
1000
0010
,
0100
0001
1000
0001
0010
0100
1000
0001
0100
0001
1000
0100
,
0010
0001
1000
0010
0100
0001
1000
0001
0010
0100
1000
0001
,
0100
0010
1000
0100
0010
0001
1000
0010
0100
0001
1000
0001
0010
0100
1000
0001
,
1000
0100
0010
0001
1000
0010
0100
0001
1000
0001
0010
0100
,
1000
0001
0100
0001
1000
0100
0010
0001
1000
0010
0100
0001
,
1000
0100
0010
0100
1000
0010
0100
0001
1000
0100
0010
0001
,
1000
0001
0010
0001
1000
0001
0100
0001
1000
0001
1000
0100
1000
0100
0010
0001
,
1000
0100
0010
0001
1000
0001
0100
0001
0010
0100
1000
0010
,
0100
0001
1000
0100
0010
0100
1000
0010
0100
0010
1000
0100
,
0010
0001
1000
0001
0100
0001
0010
0100
1000
0001
0100
0001
,
1000
0100
0010
0001
1000
0010
0100
0001
1000
0100
0010
0001
1000
0010
0100
0001
,
0010
0100
1000
0001
0100
0001
1000
0010
0100
0001
0010
0100
,
1000
0001
0100
0001
1000
0010
1000
0010
0100
0001
1000
0001
,
0010
0100
1000
0001
0100
0001
1000
0010
0100
0001
0000
0000
,
1111
0000
1101
1101
,
1000
0100
0010
0001
1000
0001
0100
0001
1000
0010
0100
0001
1000
0001
0010
0001
,
1000
0010
0100
0001
1000
0100
1000
0001
0100
0010
1000
0100
0010
0001
1000
0001
,
0010
0001
1000
0100
0010
0001
1000
0001
0100
0001
0010
0100
1000
0001
0100
0001
,
1000
0010
1000
0100
1000
0010
0100
0001
1000
0100
0010
0001
1000
0010
0100
0001
,
1000
0100
0010
0001
1000
0001
0100
0001
0010
0100
1000
0010
0100
0001
1000
0100
,
1000
0001
0100
0010
1000
0100
0010
0001
1000
0001
0100
0001
0010
0100
1000
0010
,
0100
0010
1000
0100
0010
0001
1000
0010
1000
0100
0010
0001
1000
0001
0100
0001
,
0010
0100
1000
0001
0010
0100
1000
0001
0100
0001
1000
0100
0010
0001
1000
0010
,
0100
0001
1000
0100
1000
0010
0100
0001
0010
0100
1000
0001
0100
0001
1000
0100
,
0010
0001
1000
0010
0100
0001
1000
0010
0100
0001
1000
0100
1000
0010
0100
0001
,
0010
0100
1000
0001
0100
0001
1000
0100
0010
0001
1000
0010
0100
0001
0010
0100
,
1000
0001
0100
0001
1000
0100
0010
0001
1000
0010
1000
0100
0010
0001
1000
0001
,
0100
0010
1000
0100
0010
0001
1000
0010
1000
0001
0010
0100
1000
0001
0100
0001
,
1000
0100
0010
0001
1000
0010
0100
0001
1000
0100
1000
0001
0010
0100
1000
0010
,
0100
0001
1000
0100
0010
0001
1000
0010
1000
0100
0010
0001
1000
0001
0100
0001
,
0010
000M
M000
00M0
0M00
000M
M000
0M00
00M0
000M
M000
00M0
,
1001
0001
0101
0100
0110
0010
1010
1000
,
1100
0100
0110
0010
0011
0001
0101
0100
,
0101
0001
1001
1000
1010
0010
1010
1000
,
1100
0100
0110
0010
0110
0100
1100
1010
,
0110
0100
0001
0010
0110
0100
1000
0010
,
0110
0100
0001
1000
1100
0100
0010
0001
,
0011
0010
0100
1000
1001
0001
0100
0001
,
0110
0100
1000
0010
0101
0001
0010
0100
,
1100
1000
1010
0010
0110
0010
1010
1000
,
1100
0100
0011
0001
0101
0100
0110
0010
,
1010
0100
0101
0001
0011
0010
0110
0100
,
1100
1000
1010
0010
0110
0100
0101
0001
,
0011
0010
0100
1000
1010
0010
0100
0001
,
0101
0100
0010
1000
1100
0100
0010
0001
,
0011
0010
0110
0100
1100
1000
1010
0010
,
0110
0100
0001
0010
0110
0100
1000
0001
,
1001
0000
0000
0000
,
MMMM
0000
0000
0000
,
1111
0000
0000
0000
,
MMMM
0000
0000
0000
,
0001
0000
0000
1000
0000
0000
0010
0000
0000
0100
0000
0000
0001
0000
0010
0000
0100
0000
1000
0000
0001
0000
0100
0000
,
0001
0000
0000
0000
1000
0000
0000
0000
0010
0000
0000
0000
0100
0000
0000
0001
0000
0000
1000
0000
0000
0100
0000
0000
1000
0000
0000
0010
0000
0000
0100
0000
0000
0001
0000
0000
1000
0000
0000
0001
0000
0000
0010
0000
0000
0100
0000
0000
,
1000
0001
0100
0001
1000
0100
0010
0001
1000
0010
0100
0001
1000
0100
0010
0001
,
1000
0110
0000
0000
,
1000
0100
1000
0010
0100
0001
0010
0100
1000
0001
0100
0001
1000
0100
0010
0001
,
1000
0010
1000
0100
0010
0001
1000
0001
0100
0001
0010
0100
1000
0001
0100
0001
,
1000
0100
0010
0001
1000
0010
0100
0001
0010
0100
1000
0001
0100
0001
1000
0100
,
0010
0001
1000
0010
0100
0001
0010
0100
1000
0001
0100
0001
1000
0100
0010
0001
,
1000
0010
1000
0100
0010
0001
1000
0001
0100
0001
0010
0100
1000
0010
0100
0001
,
0010
0100
1000
0001
0100
0001
1000
0100
0010
0001
1000
0010
1000
0100
0010
0001
,
1000
0010
1000
0100
0010
0001
0100
0001
0010
0100
1000
0001
0100
0010
1000
0100
,
0010
0001
1000
0001
0010
0001
1000
0100
0010
0001
1000
0010
1000
0100
0010
0001
,
1000
0001
0100
0001
0010
0100
1000
0010
0100
0001
0010
0100
1000
0001
0100
0001
,
1000
0100
0010
0001
1000
0010
1000
0100
0010
0001
1000
0001
0100
0001
0010
0100
,
1000
0010
0100
0001
0010
0100
1000
0001
0100
0001
1000
0100
0010
0001
1000
0010
,
0100
0001
0010
0100
1000
0001
0100
0001
1000
0100
0010
0001
1000
0001
0100
0001
,
0200
0320
0230
0302
2003
3200
2300
3002
,
2003
3020
0230
0302
0203
0302
2003
3200
,
0320
0032
2003
3020
0430
0300
0400
0300
,
0400
0000
0000
0000
,
0301
0010
0001
1000
0010
1000
0100
0010
0001
1000
0001
0100
0001
1000
0010
0100
,
0001
1000
0001
1000
0100
0010
0001
0010
0001
1000
0010
0100
0001
1000
0001
0010
,
0100
1000
0100
0010
0001
1000
0001
0100
0001
1000
0010
0100
0001
1000
0001
0010
,
0100
0010
0001
1000
0100
1000
0010
0100
0001
1000
0001
1000
0100
0010
0001
1000
,
0001
1000
0010
0100
0001
1000
0001
1000
0100
0010
0001
0010
,
0001
1000
0010
0100
0001
1000
0001
0010
0001
0010
0100
1000
,
0001
0100
0001
1000
0010
0100
0001
1000
0001
1000
0100
0010
,
0001
1000
0001
0100
0001
0010
0100
1000
0100
1000
0010
0100
0001
1000
0001
0010
,
0001
0010
0100
1000
0001
0100
0001
0100
0010
1000
0100
0010
0001
1000
0001
0010
,
0100
1000
0010
0100
0001
1000
0100
0010
0001
1000
0010
0100
0001
1000
0001
0010
,
0100
1000
0001
0100
0001
1000
0100
0010
0001
1000
0010
1000
0100
0010
0001
1000
,
0001
0100
0001
0010
0100
1000
0001
0100
0001
1000
0100
0010
0001
1000
0001
0010
,
0100
0010
0001
1000
0001
0100
0001
0010
0100
1000
0100
1000
0010
0100
0001
1000
,
0001
1000
0100
0010
0001
0010
0001
1000
0010
0100
0001
1000
0001
0010
0100
1000
,
0001
0100
0010
1000
0100
0010
0001
1000
0010
0100
0001
1000
0001
0010
0100
1000
,
0002
2003
3020
0230
,
0301
0201
2310
3120
,
0231
0312
0123
1230
,
2301
3201
1302
2013
,
3120
0231
1302
1203
,
2301
3201
0312
0123
,
1230
2310
3210
1320
,
2130
3210
0321
0231
,
2301
3201
1302
2013
,
3120
0231
0312
0123
,
1230
2310
3120
0231
,
1302
1203
2301
3021
,
1032
1023
2031
3201
,
0312
0123
1230
2310
,
3220
0000
0000
0330
0220
0330
0110
0220
,
0000
0000
0000
0000
,
0330
0020
2030
3200
,
0310
0001
1000
0001
0100
0001
1000
0010
0100
0001
1000
0100
0010
0001
1000
0010
,
1000
0100
0010
0001
1000
0001
0100
0001
0010
0100
1000
0001
1000
0100
1000
0001
,
0100
0001
0010
0100
1000
0010
0100
0001
1000
0100
1000
0010
0100
0001
1000
0001
,
0010
0100
1000
0001
0100
0001
1000
0100
0010
0001
1000
0010
0100
0001
1000
0100
,
1000
0010
0100
0001
1000
0100
1000
0010
0100
0001
1000
0100
1000
0001
0100
0001
,
1000
0001
0100
0001
1000
0010
0100
0001
1000
0100
0010
0001
,
1000
0010
0100
0001
1000
0100
1000
0001
0010
0100
1000
0010
,
0100
0001
1000
0001
0100
0001
0010
0100
1000
0010
1000
0001
,
1000
0100
1000
0010
0100
0001
1000
0100
0010
0001
1000
0010
1000
0100
0010
0001
,
1000
0001
0100
0001
0010
0100
1000
0001
0100
0001
1000
0010
0100
0001
0010
0100
,
1000
0001
0100
0001
1000
0010
0100
0001
0010
0100
1000
0001
0100
0001
1000
0100
,
0010
0001
1000
0010
0100
0001
1000
0100
1000
0001
0010
0100
1000
0001
0100
0001
,
1000
0001
0010
0100
1000
0001
0100
0001
1000
0100
0010
0001
,
2000
0000
0000
0000
3200
0000
0310
0002
,
0000
0000
0000
0000
0000
0000
0000
0003
,
2000
3020
0230
0302
,
1003
0010
0100
0001
1000
0100
1000
0010
0100
0001
1000
0100
0010
0001
1000
0010
,
1000
0100
0010
0001
1000
0001
0100
0001
0010
0100
1000
0001
1000
0010
1000
0100
,
0010
0001
0100
0001
0010
0100
1000
0001
0100
0001
1000
0100
0010
0001
1000
0001
,
0100
0001
0010
0100
1000
0001
0100
0001
1000
0010
0100
0001
0010
0100
1000
0001
,
0100
0001
1000
0100
0010
0001
1000
0010
0100
0001
1000
0100
1000
0001
0010
0100
,
1000
0010
0100
0001
1000
0100
1000
0001
0010
0100
1000
0010
0100
0001
1000
0100
,
1000
0001
0010
0100
1000
0010
0100
0001
0010
0001
1000
0100
0010
0001
1000
0010
,
0100
0001
1000
0100
1000
0001
0010
0100
1000
0010
0100
0001
1000
0100
1000
0001
,
0010
0100
1000
0010
0100
0001
1000
0001
0010
0100
1000
0001
0100
0001
1000
0100
,
0010
0001
1000
0010
0100
0001
1000
0001
0010
0001
1000
0010
1000
0100
0010
0001
,
0100
0001
1000
0001
0010
0100
1000
0001
0100
0001
1000
0100
0010
0001
1000
0010
,
1000
0100
0010
0001
0100
0001
1000
0001
0010
0100
1000
0001
1000
0100
0010
0001
,
0020
0230
2300
3002
,
0203
0000
0000
0000
0320
0000
1030
2000
,
0000
0000
0000
0000
0000
0000
0000
3000
,
1111
MMMM
0000
0000
0000
0000
0000
MMMM
,
1000
0010
0100
0001
1000
0001
1000
0100
,
0010
0001
1000
0010
0110
0100
0101
0001
,
0110
1000
0001
0100
0001
1000
0010
0100
,
0001
1000
0100
1000
0010
0100
0001
0010
,
1100
1000
0001
0100
0001
1000
0010
0100
,
0001
1000
0100
0010
0011
0001
0101
0010
,
1100
1000
0001
0100
0001
1000
0010
0100
,
0001
0010
0100
1000
0001
0100
0001
0010
,
0110
0100
1000
0010
0100
0001
1000
0001
,
0010
0001
0010
0100
1100
1000
0110
0100
,
0101
0001
1000
0010
1000
0010
0100
0001
,
1000
0001
0010
0100
1000
0001
0100
0001
,
0110
1000
0010
0100
0001
1000
0001
0010
,
0100
1000
0100
1000
1010
0010
0110
0100
,
0101
0001
0010
0100
1100
1000
0001
0100
,
0101
0000
0001
0000
0110
0000
0100
0000
1000
0010
0100
0001
1000
0001
0010
0100
,
1000
0001
0100
0001
1000
0010
0100
0001
1000
0100
0010
0100
,
1000
0001
0100
0001
0010
0100
1000
0010
0100
0001
1000
0100
,
1000
0010
0100
0001
0010
0100
1000
0001
0100
0001
1000
0100
,
0010
0001
1000
0010
0100
0001
1000
0001
0010
0100
1000
0001
,
0100
0001
1000
0010
0100
0001
1000
0001
0010
0001
1000
0010
,
0100
0001
1000
0100
0010
0001
1000
0010
1000
0100
0010
0001
,
0100
0001
1000
0001
0010
0100
1000
0001
0100
0001
1000
0100
,
0010
0001
1000
0010
1000
0100
0010
0001
1000
0001
0100
0001
,
0010
0100
1000
0001
0100
0001
1000
0010
0100
0001
1000
0100
,
0010
0100
1000
0010
0100
0001
1000
0001
0010
0001
1000
0100
,
0010
0001
1000
0010
1000
0100
0010
0001
1000
0001
0100
0001
,
0010
0100
1000
0001
0100
0001
1000
0100
0010
0001
1000
0010
,
1000
0100
0010
0001
1000
0001
0100
0001
0010
0100
1000
0010
,
0100
0001
1000
0100
0010
0001
1000
0010
1000
0100
0010
0001
,
1000
0001
0100
0001
0010
0100
1000
0001
0100
0001
1000
0100
,
0020
0030
0110
0000
1100
1100
1010
0000
,
0100
0010
0001
1000
0010
0100
0001
1000
0001
1000
0010
0100
0001
1000
0001
0010
,
0100
1000
0100
1000
0010
0100
0001
1000
0001
0010
0001
0010
0100
1000
0001
0100
,
0001
1000
0100
1000
0010
0100
0001
1000
0001
0010
0100
1000
0001
0100
0001
1000
,
0100
0010
0001
1000
0010
1000
0010
0100
0001
1000
0001
0010
0100
1000
0001
0100
,
0001
0100
0010
1000
0100
1000
0100
0010
0001
0100
0001
0100
0010
1000
0100
0010
,
0001
1000
0100
1000
0010
0100
0001
1000
0001
0010
0001
0010
0100
1000
0001
0100
,
0010
1000
0100
0010
0001
1000
0001
0100
0001
0010
0100
1000
0010
0100
0001
0010
,
0100
1000
0001
0100
0001
1000
0100
0010
0001
1000
0010
1000
0100
0010
0001
1000
,
0001
0100
0001
0010
0100
1000
0010
0100
0001
0010
0100
1000
0001
0100
0001
1000
,
0100
0010
0001
1000
0010
1000
0100
0010
0001
1000
0001
0100
0001
0010
0100
1000
,
0010
0100
0001
0010
0001
1000
0100
0010
0001
1000
0010
1000
0100
0010
0001
1000
,
0001
0100
0001
0010
0100
1000
0010
0100
0001
1000
0100
1000
0001
0010
0001
1000
,
0100
0010
0001
1000
0010
1000
0100
0010
0001
1000
0001
0100
0001
0010
0100
1000
,
0001
0100
0001
1000
0100
0010
0001
1000
0010
0100
0001
0010
0100
1000
0001
0100
,
0001
1000
0100
1000
0001
0010
0100
0010
0001
1000
0010
0100
0001
1000
0100
1000
,
0002
0000
0203
0000
0310
0010
0020
0000
,
1030
0000
0110
0011
0000
0101
0110
0000
,
1000
0100
0010
0001
1000
0001
0100
0001
0010
0100
1000
0010
0100
0001
1000
0100
,
0010
0001
1000
0001
0100
0001
1000
0100
1000
0010
0100
0001
1000
0100
0010
0001
,
1000
0010
0100
0001
1000
0100
1000
0010
0100
0001
1000
0100
1000
0010
0100
0001
,
1000
0100
0010
0001
1000
0010
0100
0001
1000
0100
1000
0010
0100
0001
1000
0001
,
0010
0100
1000
0001
0100
0001
1000
0100
0010
0001
1000
0010
1000
0100
0010
0001
,
1000
0001
0100
0001
0010
0100
1000
0001
0100
0001
1000
0100
0010
0001
1000
0001
,
2000
3000
2000
3000
0200
0300
2000
3000
0002
0003
0200
0300
0002
0003
0020
0030
,
0200
0300
0000
0000
1100
0000
1010
0000
0000
0000
0110
0000
0101
0000
0000
0000
,
1000
0100
1000
0001
0100
0001
0010
0100
1000
0010
0100
0001
1000
0100
1000
0001
,
0100
0001
0010
0100
1000
0010
0100
0001
1000
0001
0010
0001
1000
0010
1000
0100
,
0010
0001
1000
0001
0100
0001
0010
0100
1000
0001
0100
0001
1000
0100
0010
0001
,
1000
0100
1000
0010
0100
0001
1000
0100
1000
0010
0100
0001
0010
0100
1000
0001
,
4000
0000
0000
0000
,
3100
0010
0001
1000
0001
0100
0001
0001
,
0200
0300
0002
0003
0200
0300
0002
0003
0020
0030
0200
0300
2000
3000
0020
0030
,
0100
0000
0101
0011
0000
0110
1100
0000
,
2000
3020
0030
0000
,
0101
0000
0011
0110
0000
1100
1001
0000
,
0020
0030
0200
0300
0020
0030
0200
0300
0020
0030
0200
0300
0020
0030
0200
0300
,
0020
0000
2030
0000
0000
0000
0000
3000
,
1000
0100
0010
0001
1000
0001
0100
0001
0010
0100
1000
0010
0100
0001
1000
0100
,
1000
0001
0100
0001
0010
0100
1000
0010
0100
0001
1000
0100
1000
0001
0100
0001
,
0010
0100
1000
0010
0100
0001
1000
0100
0010
0001
1000
0010
1000
0001
0100
0001
,
1000
0001
0100
0001
1000
0010
0100
0001
1000
0100
1000
0010
0100
0001
1000
0100
,
0010
0001
1000
0100
0010
0001
1000
0010
1000
0100
0010
0001
1000
0001
0100
0001
,
1000
0100
1000
0010
0100
0001
0010
0100
1000
0001
0100
0001
1000
0100
0010
0001
,
2000
3000
0200
0300
0020
0030
0002
0003
2000
3000
0020
0030
0200
0300
0002
0003
,
0020
0230
0000
0000
,
1300
0001
0100
0010
1000
0100
0010
0001
1000
0001
0100
0001
0010
0100
1000
0010
,
0100
0001
1000
0100
1000
0010
0100
0001
0010
0100
1000
0001
0100
0001
1000
0010
,
0100
0001
0010
0100
1000
0001
0100
0001
1000
0100
0010
0001
1000
0010
0100
0001
,
1000
0100
1000
0010
0100
0001
0010
0100
1000
0001
0100
0001
1000
0100
0010
0001
,
1000
0010
0100
0001
1000
0100
1000
0001
0010
0100
1000
0010
0100
0001
1000
0100
,
0010
0001
1000
0010
1000
0100
0010
0001
1000
0001
0100
0001
0010
0100
1000
0001
,
0200
0300
0020
0030
2000
3000
0200
0300
0020
0030
0002
0003
2000
3000
0002
0003
,
0020
0230
0000
0000
,
1300
0010
0100
0001
1000
0100
1000
0010
0100
0001
1000
0001
0010
0001
1000
0010
,
0100
0001
1000
0100
0010
0001
1000
0010
0100
0001
1000
0100
0010
0001
1000
0010
,
0100
0001
1000
0100
1000
0010
0100
0001
0010
0100
1000
0001
0100
0001
1000
0100
,
0010
0001
1000
0010
1000
0100
0010
0001
1000
0001
0100
0001
0010
0100
1000
0001
,
4000
0000
0000
0000
,
3001
1000
0001
0010
0100
1000
0010
0100
,
0002
0003
2000
3000
0020
0030
0200
0300
0002
0003
2000
3000
0200
0300
0020
0030
,
0002
2003
0000
0000
,
3001
1000
0001
0100
0001
0010
0100
1000
0010
0100
0001
1000
0100
1000
0010
0100
,
0001
1000
0100
0010
0001
1000
0010
1000
0100
0010
0001
1000
0001
0100
0001
1000
,
0004
0000
0000
0000
,
0000
0000
0000
0000
,
0000
0000
0000
0000
,
1003
0010
0100
0001
1000
0001
0010
0100
,
1000
0001
0100
0001
1000
0010
0100
0001
0010
0100
1000
0001
,
0100
0010
0100
0000
0010
1000
0010
0000
1000
0100
1000
0000
0100
0010
0100
0000
,
0010
0001
0010
0000
0001
1000
0001
0000
0100
0001
0100
0000
0010
1000
0010
0000
,
0100
0001
0100
0000
0001
0010
0001
0000
1000
0001
1000
0000
0100
1000
0100
0000
,
0010
0001
0010
0000
0001
1000
0001
0000
0100
0001
0100
0000
0010
1000
0010
0000
,
1000
0100
0010
0001
1000
0010
0100
0001
0100
0010
1000
0100
0010
0001
1000
0001
,
0010
0100
1000
0001
0100
0001
1000
0100
0010
0001
1000
0010
0100
0001
0010
0100
,
1000
0001
0100
0001
1000
0100
0010
0001
1000
0010
0100
0001
0010
0100
1000
0001
,
1000
0010
1000
0000
0010
0100
0010
0000
1000
0100
1000
0000
0001
0010
0001
0000
,
1000
0100
0010
0001
1000
0010
0100
0001
0010
0100
1000
0001
0100
0001
1000
0100
,
0010
0001
1000
0010
0100
0001
1000
0100
1000
0001
0010
0100
1000
0001
0100
0001
,
1000
0100
1000
0000
0001
0100
0001
0000
1000
0001
1000
0000
0001
0100
0001
0000
,
1000
0100
1000
0000
0001
0010
0001
0000
1000
0001
1000
0000
0001
0100
0001
0000
,
1000
0100
1000
0010
0100
0001
0010
0100
1000
0001
0100
0001
1000
0100
0010
0001
,
1000
0010
0100
0001
0010
0001
1000
0100
0010
0001
1000
0010
1000
0100
0010
0001
,
1000
0001
0100
0001
0010
0100
1000
0001
0100
0001
1000
0100
0010
0001
1000
0010
,
0100
0001
0010
0100
1000
0001
0100
0001
1000
0100
0010
0001
1000
0010
1000
0000
,
1000
0010
1000
0000
0001
0100
0001
0000
1000
0001
1000
0000
0001
0010
0001
0000
,
1000
0010
1000
0000
0001
1000
0001
0000
0100
0001
0100
0000
0010
1000
0010
0000
,
0100
0001
0100
0000
0001
1000
0001
0000
1000
0100
1000
0000
0001
0010
0001
0000
,
1000
0010
1000
0000
0001
0100
0001
0000
1000
0001
1000
0000
0100
0010
0100
0000
,
1000
0010
0100
0001
0010
0100
1000
0001
0100
0001
1000
0100
0010
0001
1000
0010
,
0100
0001
0010
0100
1000
0001
0100
0001
1000
0100
0010
0001
1000
0010
1000
0100
,
0010
0001
1000
0000
0010
0100
0010
0000
0100
0001
0100
0000
0001
1000
0001
0000
,
0100
0001
0100
0000
0001
0010
0001
0000
1000
0100
1000
0000
0001
0100
0001
0000
,
1000
0100
0010
0001
1000
0010
0100
0001
0010
0100
1000
0001
0100
0001
1000
0100
,
0010
0001
1000
0010
0100
0001
0010
0100
1000
0001
0100
0001
1000
0100
0010
0001
,
1000
0010
0100
0001
0010
0001
1000
0100
0010
0001
1000
0010
0100
0001
1000
0100
,
1000
0001
0010
0100
1000
0010
0100
0001
1000
0100
1000
0001
0010
0100
1000
0010
,
0100
0001
1000
0001
0100
0001
1000
0010
0100
0001
0010
0100
,
1000
0001
0100
0001
1000
0010
0100
0001
0010
0100
1000
0001
,
0100
0001
1000
0100
0010
0001
1000
0010
0100
0001
1000
0100
,
1000
0001
0100
0001
1000
0100
0010
0000
0000
0100
0010
0000
0000
0100
0010
0000
,
0002
0000
2000
0000
0023
0000
0200
0000
3000
0030
0002
0300
0000
0000
0020
0000
,
0003
0000
0200
0000
2030
0000
0320
3000
0200
0000
0032
0300
2000
0000
0203
0000
,
3020
0300
0002
0000
2000
0030
0023
0000
0000
0000
0200
0000
0000
0300
3032
0000
,
0000
0000
0020
0000
0200
0000
2003
0300
0002
3030
0200
0003
0002
0300
2000
0003
,
0200
0000
0020
0300
3002
0030
2000
0003
0000
0000
0020
0000
0000
3030
0200
0000
,
0002
0300
0020
0003
0200
0000
2000
0030
0002
3300
0200
0003
0002
0003
2300
0000
,
0200
0000
0020
3000
0002
0000
2300
0033
3000
0000
0020
0000
0000
0000
0200
0000
,
0000
0300
0032
0000
0020
0000
0200
0303
2000
0030
0002
3000
0200
0003
0002
0003
,
1300
0100
0010
0001
1000
0010
0100
0001
1000
0001
0010
0100
1000
0001
0100
0001
,
1000
0100
0010
0001
1000
0010
0100
0001
1000
0100
1000
0010
,
0100
0001
0010
0100
1000
0001
0100
0001
1000
0100
0010
0001
1000
0010
0100
0001
,
1000
0100
0010
0001
1000
0001
0100
0001
0010
0100
1000
0001
0100
0001
1000
0100
,
1000
0001
0100
0001
1000
0010
0100
0001
0010
0100
1000
0001
0100
0001
1000
0100
,
0010
0001
1000
0100
0010
0001
1000
0010
1000
0100
0010
0001
0100
0001
1000
0001
,
1000
0100
0010
0001
1000
0010
0100
0001
1000
0001
0010
0100
1000
0001
0100
0001
,
1000
0100
0010
0001
1000
0010
0100
0001
1000
0001
0010
0100
,
1000
0001
0100
0001
1000
0100
0010
0001
1000
0010
0100
0001
1000
0100
1000
0010
,
0100
0001
0010
0100
1000
0001
0100
0001
1000
0100
0010
0001
1000
0001
0010
0100
,
1000
0010
1000
0100
0010
0001
1000
0001
0010
0100
1000
0001
0100
0001
1000
0010
,
0100
0001
1000
0100
1000
0010
0100
0001
0010
0100
1000
0001
0100
0001
1000
0100
,
0010
0100
1000
0001
0100
0001
1000
0010
0100
0001
1000
0100
0010
0001
1000
0010
,
0100
0001
1000
0100
1000
0010
0100
0001
0010
0100
1000
0001
0100
0001
1000
0100
,
0010
0001
1000
0100
1000
0010
0100
0001
1000
0001
0010
0100
1000
0001
0100
0001
,
1000
0100
0010
0001
1000
0001
0100
0001
0010
0100
1000
0010
0100
0001
1000
0010
,
1000
0100
0010
0001
1000
0010
0100
0001
1000
0001
0010
0100
1000
0001
0100
0001
,
1000
0100
1000
0010
0100
0001
0010
0100
1000
0001
0100
0001
1000
0100
0010
0001
,
1000
0001
0100
0001
1000
0010
0100
0001
1000
0100
0010
0001
1000
0010
0100
0001
,
1000
0100
0010
0001
1000
0010
0100
0001
1000
0001
0010
0100
,
1000
0001
0100
0001
1000
0010
0100
0001
0010
0100
1000
0001
0100
0001
1000
0010
,
0100
0001
1000
0100
1000
0001
0100
0010
1000
0100
0010
0001
,
1000
0001
0010
0100
1000
0001
0100
0001
1000
0100
0010
0001
1000
0100
0010
0001
,
1000
0010
0100
0001
1000
0100
1000
0010
0100
0001
1000
0100
0010
0001
1000
0010
,
1000
0100
0010
0001
1000
0010
1000
0100
0010
0001
0100
0001
1000
0001
0010
0100
,
1000
0001
0100
0001
1000
0010
0100
0001
0010
0100
1000
0001
0100
0001
1000
0001
,
1000
0010
0100
0001
1000
0100
1000
0001
0100
0001
0010
0100
1000
0001
0010
0100
,
1000
0001
0100
0001
1000
0010
0100
0001
1000
0100
0010
0001
1000
0100
0010
0001
,
1000
0001
0100
0001
1000
0010
0100
0001
1000
0001
0010
0100
0010
0001
1000
0010
,
1000
0100
0010
0001
1000
0001
0100
0001
0010
0100
1000
0010
0100
0001
1000
0100
,
1000
0010
0100
0010
1000
0100
0010
0100
1000
0001
0100
0001
1000
0100
0010
0100
,
1000
0001
0100
0001
1000
0010
0100
0001
0010
0100
1000
0001
0100
0001
1000
0001
,
1000
0001
0100
0001
1000
0010
0100
0001
1000
0100
0010
0100
1000
0010
0100
0001
,
1000
0100
1000
0010
0100
0001
0010
0100
1000
0001
0100
0001
1000
0100
0010
0001
,
1000
0100
0010
0001
1000
0010
1000
0100
0010
0001
1000
0001
0100
0001
0010
0100
,
1000
0001
0100
0001
1000
0010
0100
0001
0010
0100
1000
0001
0100
0001
1000
0100
,
1000
0010
0100
0001
1000
0100
0010
0100
1000
0001
0100
0001
1000
0010
0100
0001
,
1000
0100
1000
0010
0100
0001
0010
0100
1000
0010
0100
0010
1000
0100
0010
0100
,
1000
0100
0010
0001
1000
0001
0100
0001
0010
0100
1000
0001
0100
0001
1000
0100
,
0010
0001
1000
0001
0100
0001
0010
0100
1000
0001
0100
0001
1000
0100
0010
0100
,
2000
3001
0100
0001
1000
0010
0100
0001
1000
0001
0010
0100
1000
0001
0100
0001
,
2000
3100
0010
0001
1000
0001
0100
0001
0010
0100
1000
0010
0100
0001
1000
0100
,
0020
0000
0000
0000
,
0000
0000
0000
0000
,
0000
0002
0000
0000
,
0000
0000
0000
0000
,
0000
0000
0000
2000
,
0000
0000
0000
0000
,
0000
0000
0000
0000
,
0000
0000
0200
0000
,
0000
0000
0000
0000
0000
3333
0000
0000
,
MMMM
0000
MMMM
0000
;

//---------------dance-single - Hard----------------
#NOTES:
     dance-single:
     Hard:
     Challenge:
     21:
     1.000,1.000,0.362,0.585,1.000,4972.000,147.000,238.000,111.000,79.000:
0000
0000
0000
0000
,
1000
0100
0010
0002
,
0000
0000
0000
0000
0103
0020
0000
0000
0000
0000
0000
0000
1030
0100
0000
0000
,
0010
0001
0000
0000
1000
0010
0000
0000
0100
0010
0000
0000
2000
0100
0000
0000
,
0000
0000
3001
1000
,
0100
0000
0000
0000
0010
0000
0000
0000
0001
0000
0000
0000
1000
0000
0000
0000
0000
0000
0000
0000
0000
0000
0000
0000
0010
0000
0000
0100
0000
0000
0000
0000
0000
0000
0000
0000
0001
0000
0000
0020
0000
0000
0000
0000
0000
0000
0000
0000
,
0000
0000
0000
0000
0130
2000
0000
0000
0000
0000
0000
0000
3010
0100
0000
0000
,
0001
0010
0000
0000
0100
1000
0000
0000
0010
0100
0000
0000
0200
0000
0000
0000
,
0000
0000
0000
0300
,
MMMM
0000
0000
0000
0000
0000
0000
0000
M000
0000
0MMM
0M00
MMMM
0000
0000
0000
MMMM
0000
MMMM
0000
MMMM
0000
MMMM
0000
0000
0000
MMMM
0000
M000
0000
MM00
0000
,
00M0
M000
0M00
00MM
000M
0000
M000
00M0
0M00
0M00
00M0
M000
0000
000M
00M0
0000
,
MM00
0000
0M00
0M00
0M00
00M0
0000
0000
000M
0000
0000
M000
0000
00M0
0000
0000
,
1M00
0010
1000
0010
0100
0001
1000
0001
,
1000
0100
1000
0010
0100
0001
0100
0001
,
0010
0100
1000
0001
0100
0001
1000
0010
,
1000
0000
0010
0000
0100
0000
0001
0000
1000
0100
0010
0000
0001
1000
0100
0000
,
0010
0001
1000
0001
0100
0001
1000
0010
,
1000
0010
0100
0010
0100
0001
1000
0001
,
0010
0100
1000
0100
1000
0001
0100
0001
,
1000
0000
0010
0000
0100
0000
0001
0000
0010
0100
1000
0000
0001
0100
0010
0000
,
1000
0001
0100
0001
1000
0010
1000
0010
,
0100
0001
0010
0100
1000
0100
1000
0001
,
0100
0001
0100
0001
1000
0010
0100
0001
,
1000
0000
0001
0000
0010
0000
0001
0000
0010
0100
1000
0000
0001
0100
0001
0000
,
1000
0001
0100
0001
1000
0010
1000
0010
,
0100
0001
1000
0001
0010
0001
0010
0100
,
1000
0001
0100
0001
1000
0100
1000
0100
,
0010
0000
0001
0000
1000
0000
0001
0000
0010
0100
1000
0000
0001
1000
0001
0000
,
1000
0001
0100
0001
1000
0001
1000
0100
,
1000
0010
0100
0001
0010
0100
1000
0001
,
0100
0001
1000
0010
0100
0001
1000
0100
,
0010
0000
0100
0000
1000
0000
0001
0000
0100
0001
0100
0000
0010
1000
0100
0000
,
0010
0100
1000
0001
0100
0001
1000
0010
,
1000
0000
0001
0000
1000
0100
0010
0001
1000
0100
0010
0001
1000
0010
0100
0001
,
1000
MMMM
0000
0000
0000
0000
0000
0000
,
0000
0000
0000
0000
0000
0000
0000
MMMM
,
1000
0100
0010
0001
1000
0001
0100
0001
0010
0100
1000
0001
1000
0100
1000
0010
,
0100
0001
1000
0001
0010
0001
1000
0010
0100
0001
1000
0100
1000
0001
0100
0001
,
1000
0010
0100
0001
1000
0001
0010
0001
1000
0010
0100
0001
1000
0100
1000
0010
,
0100
0001
1000
0001
0010
0001
1000
0010
0100
0001
1000
0100
0010
0001
1000
0001
,
0100
0001
1000
0010
0100
0001
0010
0100
1000
0010
0100
0010
1000
0100
0010
0001
,
1000
0001
0100
0001
0010
0100
1000
0010
0100
0001
0010
0001
1000
0100
0010
0001
,
1000
0010
1000
0100
0010
0001
1000
0001
0100
0010
0100
0001
0010
0100
1000
0010
,
0100
0001
0010
0100
0010
0001
1000
0010
1000
0100
0010
0001
1000
0001
0100
0001
,
0010
0100
1000
0010
0100
0001
1000
0100
1000
0010
0100
0001
0010
0100
1000
0001
,
0100
0001
1000
0100
1000
0010
0100
0001
0010
0100
1000
0001
0100
0001
1000
0100
,
0010
0001
1000
0010
1000
0100
0010
0001
0100
0001
0010
0100
1000
0010
0100
0001
,
0010
0100
1000
0001
0100
0001
1000
0010
0100
0001
0010
0100
1000
0001
0100
0001
,
1000
0100
0010
0001
1000
0010
1000
0100
0010
0001
1000
0001
0100
0001
0010
0100
,
1000
0010
0100
0001
0010
0100
1000
0001
0100
0001
1000
0100
0010
0001
1000
0010
,
0100
0001
0010
0100
1000
0001
0100
0001
1000
0100
1000
0010
0100
0001
1000
0000
,
1001
0001
1001
1000
1001
0001
1001
1000
,
0001
0010
0100
1000
0001
0100
0001
1000
0010
0100
0001
0010
0100
1000
0001
0100
,
0001
1000
0100
0010
0001
1000
0010
1000
0100
0010
0001
1000
0001
0100
0001
0010
,
0100
1000
0010
0100
0001
0010
0001
1000
0100
0010
0001
1000
0010
1000
0100
0010
,
0001
1000
0001
0100
0001
0010
0100
1000
0001
0100
0001
1000
0100
0010
0001
1000
,
0010
0100
0001
0010
0100
1000
0001
0100
0001
1000
0100
0010
0001
1000
0010
1000
,
0100
0010
0001
1000
0001
0100
0001
0010
0100
1000
0010
0100
0001
0010
0100
1000
,
0001
0100
0001
1000
0100
0010
0100
1000
0010
0100
0001
0010
0100
0010
0001
1000
,
0010
0100
0001
1000
0100
1000
0010
0100
0001
0010
0100
1000
0001
0100
0001
1000
,
0100
0010
0001
1000
0010
0100
0001
1000
0100
1000
0010
0100
0001
0010
0100
1000
,
0001
0100
0001
1000
0100
0010
0001
1000
0010
0100
0001
0010
0001
1000
0010
0100
,
0001
1000
0100
1000
0010
0100
0001
0010
0100
1000
0001
0100
0001
1000
0100
0010
,
0001
1000
0001
0100
0001
0010
0100
1000
0001
0100
0001
1000
0100
0010
0001
1000
,
0010
1000
0001
0100
0001
1000
0010
0100
,
0001
1000
0100
0010
0001
1000
0010
1000
,
0100
0010
0001
0100
0001
1000
0001
0100
,
0010
MMMM
0000
0000
0000
0000
0000
MMMM
,
1000
0100
0010
0001
1000
0001
0100
0001
0010
0100
1000
0010
0100
0001
1000
0100
,
1000
0001
0010
0100
1000
0010
0100
0001
0010
0001
1000
0100
0010
0001
1000
0010
,
0100
0001
1000
0100
1000
0001
0010
0100
1000
0010
0100
0001
1000
0100
0010
0001
,
0100
0010
1000
0100
0010
0001
1000
0010
0100
0001
1000
0001
0010
0100
1000
0001
,
1000
0100
1000
0010
0100
0001
0010
0100
1000
0001
0100
0001
1000
0010
0100
0001
,
0010
0100
1000
0001
0100
0001
1000
0100
0010
0001
1000
0010
0100
0001
0010
0001
,
1000
0100
0010
0001
1000
0001
0100
0001
0010
0100
1000
0001
0100
0001
1000
0100
,
0010
0001
1000
0001
0100
0010
1000
0100
1000
0001
0010
0100
1000
0010
0100
0001
,
0010
0001
1000
0100
0010
0001
1000
0010
0100
0001
1000
0100
1000
0001
0010
0100
,
1000
0010
0100
0001
1000
0100
1000
0001
0010
0100
1000
0010
0100
0001
1000
0100
,
1000
0010
0100
0001
0010
0001
1000
0100
0010
0001
1000
0010
0100
0001
1000
0010
,
1000
0100
0010
0001
1000
0010
0100
0001
1000
0100
0010
0001
1000
0010
0100
0001
,
1000
0010
0100
0001
1000
0100
1000
0010
0100
0001
0010
0100
1000
0001
0100
0001
,
1000
0100
0010
0001
1000
0010
0100
0001
1000
0100
1000
0001
0010
0100
1000
0010
,
0100
0001
1000
0100
1000
0001
0010
0100
1000
0001
0010
0100
1000
0010
0100
0001
,
2000
3000
1101
1101
,
1000
0100
0010
0001
1000
0001
0100
0001
1000
0010
0100
0001
1000
0001
0010
0001
,
1000
0010
0100
0001
1000
0100
1000
0001
0100
0010
1000
0100
0010
0001
1000
0001
,
0010
0001
1000
0100
0010
0001
1000
0001
0100
0001
0010
0100
1000
0001
0100
0001
,
1000
0010
1000
0100
1000
0010
0100
0001
1000
0100
0010
0001
1000
0010
0100
0001
,
1000
0100
0010
0001
1000
0001
0100
0001
0010
0100
1000
0010
0100
0001
1000
0100
,
1000
0001
0100
0010
1000
0100
0010
0001
1000
0001
0100
0001
0010
0100
1000
0010
,
0100
0010
1000
0100
0010
0001
1000
0010
1000
0100
0010
0001
1000
0001
0100
0001
,
0010
0100
1000
0001
0010
0100
1000
0001
0100
0001
1000
0100
0010
0001
1000
0010
,
0100
0001
1000
0100
1000
0010
0100
0001
0010
0100
1000
0001
0100
0001
1000
0100
,
0010
0001
1000
0010
0100
0001
1000
0010
0100
0001
1000
0100
1000
0010
0100
0001
,
0010
0100
1000
0001
0100
0001
1000
0100
0010
0001
1000
0010
0100
0001
0010
0100
,
1000
0001
0100
0001
1000
0100
0010
0001
1000
0010
1000
0100
0010
0001
1000
0001
,
0100
0010
1000
0100
0010
0001
1000
0010
1000
0001
0010
0100
1000
0001
0100
0001
,
1000
0100
0010
0001
1000
0010
0100
0001
1000
0100
1000
0001
0010
0100
1000
0010
,
0100
0001
1000
0100
0010
0001
1000
0010
1000
0100
0010
0001
1000
0001
0100
0001
,
0010
000M
M000
00M0
0M00
000M
M000
0M00
00M0
000M
M000
00M0
,
1001
0000
0001
0000
0102
0003
0100
0000
0210
0300
0010
0000
1020
0030
1000
0000
,
2100
3000
0100
0000
0210
0300
0010
0000
0021
0030
0001
0000
0102
0003
0100
0000
,
0201
0300
0001
0000
1002
0003
1000
0000
2010
3000
0010
0000
1020
0030
1000
0000
,
2100
3000
0100
0000
0210
0300
0010
0000
0120
0030
0100
0000
1200
0300
1010
0000
,
0120
0030
0100
0000
0001
0000
0010
0000
0110
0000
0100
0000
1000
0000
0010
0000
,
0110
0100
0001
1000
1100
0100
0010
0001
,
0011
0010
0100
1000
1001
0001
0100
0001
,
0110
0100
1000
0010
0101
0001
0010
0100
,
1200
0300
1000
0000
2010
3000
0010
0000
0210
0300
0010
0000
1020
0030
1000
0000
,
2100
3000
0100
0000
0021
0030
0001
0000
0102
0003
0100
0000
0210
0300
0010
0000
,
1020
0030
0100
0000
0201
0300
0001
0000
0012
0003
0010
0000
0120
0030
0100
0000
,
1200
0300
1000
0000
2010
3000
0010
0000
0120
0030
0100
0000
0201
0300
0001
0000
,
0012
0003
0010
0000
0100
0000
1000
0000
2010
3000
0010
0000
0100
0000
0001
0000
,
0101
0100
0010
1000
1100
0100
0010
0001
,
0012
0003
0010
0000
0120
0030
0100
0000
1200
0300
1000
0000
2010
3000
0010
0000
,
0120
0030
0100
0000
0001
0000
0010
0000
0110
0000
0100
0000
1000
0000
0001
0000
,
1001
0000
0000
0000
,
MMMM
0000
0000
0000
,
1111
0000
0000
0000
,
MMMM
0000
0000
0000
,
0001
1000
0010
0100
0001
1000
0100
0010
0001
1000
0001
0100
0001
1000
0100
0010
,
0001
1000
0010
0100
0001
1000
0100
1000
0010
0100
0001
0010
0100
1000
0001
0100
,
0001
1000
0100
0010
0001
1000
0010
0100
0001
0010
0100
1000
0001
0100
0010
1000
,
0100
0110
0000
0000
,
1000
0100
1000
0010
0100
0001
0010
0100
1000
0001
0100
0001
1000
0100
0010
0001
,
1000
0010
1000
0100
0010
0001
1000
0001
0100
0001
0010
0100
1000
0001
0100
0001
,
1000
0100
0010
0001
1000
0010
0100
0001
0010
0100
1000
0001
0100
0001
1000
0100
,
0010
0001
1000
0010
0100
0001
0010
0100
1000
0001
0100
0001
1000
0100
0010
0001
,
1000
0010
1000
0100
0010
0001
1000
0001
0100
0001
0010
0100
1000
0010
0100
0001
,
0010
0100
1000
0001
0100
0001
1000
0100
0010
0001
1000
0010
1000
0100
0010
0001
,
1000
0010
1000
0100
0010
0001
0100
0001
0010
0100
1000
0001
0100
0010
1000
0100
,
0010
0001
1000
0001
0010
0001
1000
0100
0010
0001
1000
0010
1000
0100
0010
0001
,
1000
0001
0100
0001
0010
0100
1000
0010
0100
0001
0010
0100
1000
0001
0100
0001
,
1000
0100
0010
0001
1000
0010
1000
0100
0010
0001
1000
0001
0100
0001
0010
0100
,
1000
0010
0100
0001
0010
0100
1000
0001
0100
0001
1000
0100
0010
0001
1000
0010
,
0100
0001
0010
0100
1000
0001
0100
0001
1000
0100
0010
0001
1000
0001
0100
0001
,
0200
0320
0230
0302
2003
3200
2300
3002
,
2003
3020
0230
0302
0203
0302
2003
3200
,
0320
0032
2003
3020
0430
0300
0400
0300
,
0400
0000
0000
0000
,
0301
0010
0001
1000
0010
1000
0100
0010
0001
1000
0001
0100
0001
1000
0010
0100
,
0001
1000
0001
1000
0100
0010
0001
0010
0001
1000
0010
0100
0001
1000
0001
0010
,
0100
1000
0100
0010
0001
1000
0001
0100
0001
1000
0010
0100
0001
1000
0001
0010
,
0100
0010
0001
1000
0100
1000
0010
0100
0001
1000
0001
1000
0100
0010
0001
1000
,
0001
0100
0010
1000
0100
0010
0001
1000
0010
1000
0100
0010
0001
1000
0001
0100
,
0001
0010
0100
1000
0010
0100
0001
0010
0001
1000
0100
0010
0001
1000
0010
0100
,
0001
1000
0100
1000
0001
0010
0100
1000
0010
0100
0001
1000
0100
1000
0010
0100
,
0001
1000
0001
0100
0001
0010
0100
1000
0100
1000
0010
0100
0001
1000
0001
0010
,
0001
0010
0100
1000
0001
0100
0001
0100
0010
1000
0100
0010
0001
1000
0001
0010
,
0100
1000
0010
0100
0001
1000
0100
0010
0001
1000
0010
0100
0001
1000
0001
0010
,
0100
1000
0001
0100
0001
1000
0100
0010
0001
1000
0010
1000
0100
0010
0001
1000
,
0001
0100
0001
0010
0100
1000
0001
0100
0001
1000
0100
0010
0001
1000
0001
0010
,
0100
0010
0001
1000
0001
0100
0001
0010
0100
1000
0100
1000
0010
0100
0001
1000
,
0001
1000
0100
0010
0001
0010
0001
1000
0010
0100
0001
1000
0001
0010
0100
1000
,
0001
0100
0010
1000
0100
0010
0001
1000
0010
0100
0001
1000
0001
0010
0100
1000
,
0002
2003
3020
0230
,
0301
0201
2310
3120
,
0231
0312
0123
1230
,
2301
3201
1302
2013
,
3120
0231
1302
1203
,
2301
3201
0312
0123
,
1230
2310
3210
1320
,
2130
3210
0321
0231
,
2301
3201
1302
2013
,
3120
0231
0312
0123
,
1230
2310
3120
0231
,
1302
1203
2301
3021
,
1032
1023
2031
3201
,
0312
0123
1230
2310
,
3220
0000
0000
0330
0220
0330
0110
0220
,
0000
0000
0000
0000
,
0330
0020
2030
3200
,
0310
0001
1000
0001
0100
0001
1000
0010
0100
0001
1000
0100
0010
0001
1000
0010
,
1000
0100
0010
0001
1000
0001
0100
0001
0010
0100
1000
0001
1000
0100
1000
0001
,
0100
0001
0010
0100
1000
0010
0100
0001
1000
0100
1000
0010
0100
0001
1000
0001
,
0010
0100
1000
0001
0100
0001
1000
0100
0010
0001
1000
0010
0100
0001
1000
0100
,
1000
0010
0100
0001
1000
0100
1000
0010
0100
0001
1000
0100
1000
0001
0100
0001
,
1000
0100
1000
0010
0100
0001
0010
0100
1000
0001
0100
0001
1000
0100
0010
0001
,
1000
0010
0100
0001
0010
0100
1000
0001
0100
0001
1000
0100
0010
0001
1000
0010
,
0100
0001
0010
0100
1000
0001
0100
0001
1000
0100
0010
0001
1000
0010
0100
0001
,
1000
0100
1000
0010
0100
0001
1000
0100
0010
0001
1000
0010
1000
0100
0010
0001
,
1000
0001
0100
0001
0010
0100
1000
0001
0100
0001
1000
0010
0100
0001
0010
0100
,
1000
0001
0100
0001
1000
0010
0100
0001
0010
0100
1000
0001
0100
0001
1000
0100
,
0010
0001
1000
0010
0100
0001
1000
0100
1000
0001
0010
0100
1000
0001
0100
0001
,
1000
0001
0100
0001
0010
0100
1000
0010
0100
0001
1000
0100
0010
0001
1000
0001
,
2000
0000
0000
0000
3200
0000
0320
0032
,
0000
0000
0000
0000
0000
0000
0000
0003
,
2000
3020
0230
0302
,
1003
0010
0100
0001
1000
0100
1000
0010
0100
0001
1000
0100
0010
0001
1000
0010
,
1000
0100
0010
0001
1000
0001
0100
0001
0010
0100
1000
0001
1000
0010
1000
0100
,
0010
0001
0100
0001
0010
0100
1000
0001
0100
0001
1000
0100
0010
0001
1000
0001
,
0100
0001
0010
0100
1000
0001
0100
0001
1000
0010
0100
0001
0010
0100
1000
0001
,
0100
0001
1000
0100
0010
0001
1000
0010
0100
0001
1000
0100
1000
0001
0010
0100
,
1000
0010
0100
0001
1000
0100
1000
0001
0010
0100
1000
0010
0100
0001
1000
0100
,
1000
0001
0010
0100
1000
0010
0100
0001
0010
0001
1000
0100
0010
0001
1000
0010
,
0100
0001
1000
0100
1000
0001
0010
0100
1000
0010
0100
0001
1000
0100
1000
0001
,
0010
0100
1000
0010
0100
0001
1000
0001
0010
0100
1000
0001
0100
0001
1000
0100
,
0010
0001
1000
0010
0100
0001
1000
0001
0010
0001
1000
0010
1000
0100
0010
0001
,
0100
0001
1000
0001
0010
0100
1000
0001
0100
0001
1000
0100
0010
0001
1000
0010
,
1000
0100
0010
0001
0100
0001
1000
0001
0010
0100
1000
0001
1000
0100
0010
0001
,
1000
0010
0100
0001
1000
0100
0010
0001
1000
0010
0100
0001
1000
0100
1000
0001
,
0010
0100
1000
0010
0100
0001
1000
0100
0010
0100
1000
0010
0100
0001
1000
0100
,
1000
0010
0100
0001
0010
0100
1000
0001
0100
0001
1000
0100
0010
0001
1000
0000
,
1111
MMMM
0000
0000
0000
0000
0000
MMMM
,
1000
0010
0100
0001
1000
0001
1000
0100
,
0010
0001
1000
0010
0110
0100
0101
0001
,
0110
1000
0001
0100
0001
1000
0010
0100
,
0001
1000
0100
1000
0010
0100
0001
0010
,
1100
1000
0001
0100
0001
1000
0010
0100
,
0001
1000
0100
0010
0011
0001
0101
0010
,
1100
1000
0001
0100
0001
1000
0010
0100
,
0001
0010
0100
1000
0001
0100
0001
0010
,
0110
0100
1000
0010
0100
0001
1000
0001
,
0010
0001
0010
0100
1100
1000
0110
0100
,
0101
0001
1000
0010
1000
0010
0100
0001
,
1000
0001
0010
0100
1000
0001
0100
0001
,
0110
1000
0010
0100
0001
1000
0001
0010
,
0100
1000
0100
1000
1010
0010
0110
0100
,
0101
0001
0010
0100
1100
1000
0001
0100
,
0101
0000
0001
0000
0110
0000
0100
0000
1000
0010
0100
0001
1000
0001
0010
0100
,
1000
0001
0100
0001
1000
0010
0100
0001
0010
0100
1000
0001
0100
0001
1000
0100
,
0010
0001
1000
0010
1000
0100
0010
0001
1000
0001
0100
0001
0010
0100
1000
0010
,
0100
0001
1000
0100
0010
0001
1000
0010
0100
0001
0010
0100
1000
0001
0100
0001
,
1000
0100
0010
0001
1000
0010
0100
0001
1000
0100
1000
0001
0010
0100
1000
0010
,
0100
0001
1000
0100
1000
0001
0010
0100
1000
0001
0010
0100
1000
0010
0100
0001
,
1000
0100
0010
0001
1000
0100
0010
0001
1000
0010
0100
0001
1000
0100
1000
0001
,
0010
0100
1000
0010
0100
0001
1000
0100
0010
0100
1000
0010
0100
0001
1000
0100
,
1000
0010
0100
0001
1000
0010
0100
0001
1000
0100
0010
0100
1000
0001
0100
0001
,
1000
0010
0100
0001
0010
0100
1000
0001
0100
0001
1000
0100
0010
0001
1000
0010
,
0100
0001
1000
0100
1000
0001
0010
0100
1000
0010
0100
0001
1000
0100
0010
0001
,
1000
0100
0010
0001
1000
0001
0100
0001
0010
0100
1000
0010
0100
0001
1000
0100
,
0010
0001
1000
0010
0100
0001
0010
0100
1000
0001
0100
0001
1000
0100
0010
0001
,
1000
0010
0100
0001
1000
0100
1000
0001
0010
0100
1000
0010
0100
0001
1000
0100
,
1000
0001
0010
0100
1000
0010
0100
0001
1000
0100
1000
0010
0100
0001
0010
0100
,
1000
0001
0100
0001
1000
0100
0010
0001
1000
0010
0100
0001
1000
0100
0010
0100
,
1000
0100
0010
0001
1000
0001
0100
0001
1000
0100
0010
0001
1000
0010
0100
0001
,
1000
0100
1000
0010
0100
0001
0010
0100
1000
0001
0100
0001
1000
0010
0100
0001
,
1000
0100
1000
0010
0100
0001
0010
0100
1000
0001
0100
0001
1000
0100
0010
0001
,
1000
0010
1000
0100
0010
0001
1000
0001
0100
0001
0010
0100
1000
0010
0100
0001
,
1000
0100
0010
0100
1000
0010
0100
0001
0010
0100
0010
0001
1000
0010
0100
0001
,
1000
0100
1000
0001
0010
0100
1000
0010
0100
0001
1000
0100
1000
0001
0010
0100
,
0010
0001
1000
0001
0100
0001
0010
0100
1000
0010
0100
0001
1000
0100
1000
0001
,
0010
0100
1000
0010
0100
0001
1000
0100
0010
0100
1000
0001
0100
0001
1000
0100
,
1000
0001
0100
0001
1000
0010
0100
0001
0010
0100
1000
0001
0100
0001
1000
0100
,
0010
0001
1000
0010
0100
0001
1000
0100
1000
0010
0100
0001
0010
0100
1000
0001
,
0100
0001
1000
0010
0100
0001
1000
0100
0010
0100
1000
0001
0100
0001
1000
0100
,
0010
0001
1000
0010
0100
0001
1000
0100
1000
0001
0010
0100
1000
0001
0100
0001
,
1000
0100
0010
0001
1000
0001
0100
0001
0010
0100
1000
0010
0100
0001
1000
0100
,
1000
0001
0010
0100
1000
0010
0100
0001
1000
0100
0010
0100
1000
0010
0100
0001
,
0010
0001
1000
0100
0010
0001
1000
0001
0100
0001
0010
0100
1000
0010
0100
0001
,
1000
0100
0010
0100
1000
0010
0100
0001
1000
0100
0010
0001
1000
0001
0100
0001
,
1000
0100
0010
0001
1000
0001
0100
0001
0010
0100
1000
0001
0100
0001
1000
0100
,
1000
0000
0110
0011
0000
0101
0110
0000
,
1000
0100
0010
0001
1000
0001
0100
0001
0010
0100
1000
0010
0100
0001
1000
0100
,
0010
0001
1000
0001
0100
0001
1000
0100
1000
0010
0100
0001
1000
0100
0010
0001
,
1000
0010
0100
0001
1000
0100
1000
0010
0100
0001
1000
0100
1000
0010
0100
0001
,
1000
0100
0010
0001
1000
0010
0100
0001
1000
0100
1000
0010
0100
0001
1000
0001
,
0010
0100
1000
0001
0100
0001
1000
0100
0010
0001
1000
0010
1000
0100
0010
0001
,
1000
0001
0100
0001
0010
0100
1000
0001
0100
0001
1000
0100
0010
0001
1000
0001
,
2000
3000
2000
3000
0200
0300
2000
3000
0002
0003
0200
0300
0002
0003
0020
0030
,
0200
0300
0000
0000
1100
0000
1010
0000
0000
0000
0110
0000
0101
0000
0000
0000
,
1000
0100
1000
0001
0100
0001
0010
0100
1000
0010
0100
0001
1000
0100
1000
0001
,
0100
0001
0010
0100
1000
0010
0100
0001
1000
0001
0010
0001
1000
0010
1000
0100
,
0010
0001
1000
0001
0100
0001
0010
0100
1000
0001
0100
0001
1000
0100
0010
0001
,
1000
0100
1000
0010
0100
0001
1000
0100
1000
0010
0100
0001
0010
0100
1000
0001
,
1000
0100
0010
0001
1000
0010
0100
0001
0010
0100
1000
0001
0100
0001
1000
0100
,
0010
0001
1000
0001
0100
0001
0010
0100
1000
0010
0100
0001
1000
0100
0010
0001
,
0200
0300
0002
0003
0200
0300
0002
0003
0020
0030
0200
0300
2000
3000
0020
0030
,
0100
0000
0101
0011
0000
0110
1100
0000
,
1000
0001
0100
0001
1000
0010
0100
0001
0010
0100
1000
0001
0100
0001
1000
0100
,
0010
0001
1000
0010
0100
0001
0010
0100
1000
0001
0100
0001
1000
0010
0100
0001
,
1000
0100
0010
0001
1000
0010
0100
0001
0010
0001
1000
0100
0010
0001
1000
0010
,
0100
0001
1000
0100
1000
0010
0100
0001
1000
0100
0010
0001
1000
0010
0100
0001
,
1000
0100
0010
0001
1000
0001
0100
0001
0010
0100
1000
0010
0100
0001
1000
0100
,
1000
0001
0100
0001
0010
0100
1000
0010
0100
0001
1000
0100
1000
0001
0100
0001
,
0010
0100
1000
0010
0100
0001
1000
0100
0010
0001
1000
0010
1000
0001
0100
0001
,
1000
0001
0100
0001
1000
0010
0100
0001
1000
0100
1000
0010
0100
0001
1000
0100
,
0010
0001
1000
0100
0010
0001
1000
0010
1000
0100
0010
0001
1000
0001
0100
0001
,
1000
0100
1000
0010
0100
0001
0010
0100
1000
0001
0100
0001
1000
0100
0010
0001
,
2000
3000
0200
0300
0020
0030
0002
0003
2000
3000
0020
0030
0200
0300
0002
0003
,
0010
0100
1000
0001
0100
0001
1000
0100
0010
0001
1000
0010
0100
0001
1000
0100
,
1000
0001
0100
0010
1000
0100
0010
0001
1000
0001
0100
0001
0010
0100
1000
0010
,
0100
0001
1000
0100
1000
0010
0100
0001
0010
0100
1000
0001
0100
0001
1000
0010
,
0100
0001
0010
0100
1000
0001
0100
0001
1000
0100
0010
0001
1000
0010
0100
0001
,
1000
0100
1000
0010
0100
0001
0010
0100
1000
0001
0100
0001
1000
0100
0010
0001
,
1000
0010
0100
0001
1000
0100
1000
0001
0010
0100
1000
0010
0100
0001
1000
0100
,
0010
0001
1000
0010
1000
0100
0010
0001
1000
0001
0100
0001
0010
0100
1000
0001
,
0200
0300
0020
0030
2000
3000
0200
0300
0020
0030
0002
0003
2000
3000
0002
0003
,
0010
0100
1000
0001
0100
0001
1000
0010
0100
0001
1000
0100
0010
0001
1000
0100
,
1000
0010
0100
0001
1000
0100
1000
0010
0100
0001
1000
0001
0010
0001
1000
0010
,
0100
0001
1000
0100
0010
0001
1000
0010
0100
0001
1000
0100
0010
0001
1000
0010
,
0100
0001
1000
0100
1000
0010
0100
0001
0010
0100
1000
0001
0100
0001
1000
0100
,
0010
0001
1000
0010
1000
0100
0010
0001
1000
0001
0100
0001
0010
0100
1000
0001
,
1000
0100
0010
0001
1000
0010
0100
0001
0010
0001
1000
0100
0010
0001
1000
0001
,
0100
0001
1000
0100
0010
0001
1000
0010
0100
0001
0010
0100
1000
0001
0100
0001
,
2000
3000
2000
3000
0020
0030
0200
0300
0002
0003
2000
3000
0200
0300
0020
0030
,
0001
1000
0010
0100
0001
1000
0100
1000
0010
0100
0001
1000
0100
0010
0001
1000
,
0001
0010
0001
0100
0001
0010
0100
1000
0010
0100
0001
1000
0100
1000
0010
0100
,
0001
1000
0100
0010
0001
1000
0010
1000
0100
0010
0001
1000
0001
0100
0001
1000
,
0001
0100
0010
1000
0100
0010
0001
1000
0010
0100
0001
0010
0100
1000
0001
0100
,
0001
1000
0100
0010
0001
1000
0010
0100
0001
1000
0100
1000
0001
0010
0100
1000
,
0010
0100
0001
1000
0100
0010
0001
1000
0010
0100
0001
0010
0100
1000
0001
0100
,
0010
1000
0100
0010
0100
1000
0010
0100
0001
0010
0100
1000
0001
0100
0001
1000
,
0100
0010
0001
1000
0010
0100
0001
0010
0001
1000
0100
0010
0001
1000
0010
0100
,
0001
1000
0100
1000
0010
0100
0001
0010
0100
1000
0001
0100
0001
1000
0100
0010
,
0001
1000
0010
0100
0001
0010
0100
1000
0001
0100
0001
1000
0010
0100
0010
1000
,
0100
0010
0100
1000
0001
0100
0001
1000
0100
1000
0010
0100
0001
0010
0100
1000
,
0010
0100
0001
0100
0010
1000
0100
0010
0100
1000
0001
0100
0001
1000
0100
0010
,
0001
1000
0100
1000
0010
0100
0001
0010
0100
1000
0001
0100
0001
1000
0100
0010
,
0001
1000
0010
0100
0001
0010
0001
1000
0100
0010
0001
1000
0010
0100
0001
1000
,
0100
1000
0010
0100
0001
0010
0100
0010
0001
1000
0010
1000
0100
0010
0001
1000
,
0001
0100
0001
0010
0100
1000
0001
0100
0001
1000
0100
0010
0100
1000
0010
0100
,
0001
0010
0001
1000
0100
0010
0100
1000
0001
0100
0001
1000
0100
0010
0100
1000
,
0010
0100
0010
1000
0100
0010
0001
1000
0001
0100
0001
0010
0100
1000
0001
0100
,
0001
1000
0100
0010
0001
1000
0010
1000
0100
0010
0001
1000
0001
0100
0001
0010
,
0100
1000
0010
0100
0001
1000
0100
1000
0010
0100
0001
0010
0100
0010
0001
1000
,
0100
0010
0100
1000
0010
0100
0001
1000
0100
1000
0010
0100
0001
1000
0100
1000
,
0001
0010
0100
1000
0010
0100
0001
1000
0100
1000
0010
0100
0001
0010
0100
0010
,
0001
1000
0001
0100
0010
1000
0100
1000
0001
0010
0100
1000
0010
0100
0001
1000
,
0010
1000
0100
0010
0001
1000
0001
0100
0001
0010
0100
1000
0001
0100
0001
1000
,
0010
0100
0001
1000
0100
0010
0100
1000
0010
0100
0001
0010
0001
1000
0100
0010
,
0001
1000
0010
1000
0100
0010
0001
1000
0001
0100
0001
0010
0100
1000
0010
0100
,
0001
1000
0100
1000
0010
0100
0001
0010
0100
1000
0001
0100
0001
1000
0010
0100
,
0001
1000
0100
0010
0001
1000
0010
0100
0001
1000
0100
1000
0001
0010
0100
1000
,
0010
0100
0001
1000
0100
1000
0010
0100
0001
0010
0100
1000
0001
0100
0001
1000
,
0010
0100
0001
1000
0100
0010
0001
1000
0010
0100
0001
1000
0100
1000
0001
0010
,
0100
1000
0010
0100
0001
1000
0010
0100
0001
0010
0001
1000
0100
0010
0001
1000
,
0010
0100
0001
1000
0100
1000
0010
0100
0001
0010
0100
1000
0001
0100
0001
1000
,
0010
0100
0001
1000
0100
0010
0001
1000
0010
0100
0001
0010
0001
1000
0100
0010
,
0001
1000
0010
0100
0001
1000
0100
1000
0001
0010
0100
1000
0010
0100
0001
1000
,
0100
1000
0010
0100
0001
1000
0100
0010
0001
1000
0010
0100
0001
1000
0001
0010
,
0001
1000
0100
0010
0001
1000
0001
0100
0001
1000
0010
1000
0001
1000
0100
0010
,
0001
1000
0001
0100
0001
0010
0100
1000
0010
0100
0001
1000
0100
0010
0001
1000
,
0001
0100
0001
0010
0100
1000
0010
0100
0001
1000
0100
0010
0001
1000
0010
0100
,
0001
1000
0100
1000
0001
0010
0100
1000
0010
0100
0001
1000
0100
0010
0001
1000
,
0100
0010
0001
1000
0001
0100
0010
1000
0100
0010
0001
1000
0001
0100
0001
0000
,
0002
0000
2000
0000
0023
0000
0200
0000
3000
0030
0002
0300
0000
0000
0020
0000
,
0003
0000
0200
0000
2030
0000
0320
3000
0200
0000
0032
0300
2000
0000
0203
0000
,
3020
0300
0002
0000
2000
0030
0023
0000
0000
0000
0200
0000
0000
0300
3032
0000
,
0000
0000
0020
0000
0200
0000
2003
0300
0002
3030
0200
0003
0002
0300
2000
0003
,
0200
0000
0020
0300
3002
0030
2000
0003
0000
0000
0020
0000
0000
3030
0200
0000
,
0002
0300
0020
0003
0200
0000
2000
0030
0002
3300
0200
0003
0002
0003
2300
0000
,
0200
0000
0020
3000
0002
0000
2300
0033
3000
0000
0020
0000
0000
0000
0200
0000
,
0000
0300
0032
0000
0020
0000
0200
0303
2000
0030
0002
3000
0200
0003
0002
0003
,
1300
0100
0010
0001
1000
0010
0100
0001
1000
0001
0010
0100
1000
0001
0100
0001
,
1000
0100
0010
0001
1000
0010
0100
0001
0010
0100
1000
0001
0100
0001
1000
0100
,
0010
0001
0010
0100
1000
0001
0100
0001
1000
0100
0010
0001
1000
0010
0100
0001
,
1000
0100
0010
0001
1000
0001
0100
0001
0010
0100
1000
0001
0100
0001
1000
0100
,
1000
0001
0100
0001
1000
0010
0100
0001
0010
0100
1000
0001
0100
0001
1000
0100
,
0010
0001
1000
0100
0010
0001
1000
0010
1000
0100
0010
0001
0100
0001
1000
0001
,
1000
0100
0010
0001
1000
0010
0100
0001
1000
0001
0010
0100
1000
0001
0100
0001
,
1000
0001
0100
0001
1000
0010
0100
0001
0010
0100
1000
0001
0100
0001
1000
0100
,
0010
0001
0100
0001
1000
0100
0010
0001
1000
0010
0100
0001
1000
0100
1000
0010
,
0100
0001
0010
0100
1000
0001
0100
0001
1000
0100
0010
0001
1000
0001
0010
0100
,
1000
0010
1000
0100
0010
0001
1000
0001
0010
0100
1000
0001
0100
0001
1000
0010
,
0100
0001
1000
0100
1000
0010
0100
0001
0010
0100
1000
0001
0100
0001
1000
0100
,
0010
0100
1000
0001
0100
0001
1000
0010
0100
0001
1000
0100
0010
0001
1000
0010
,
0100
0001
1000
0100
1000
0010
0100
0001
0010
0100
1000
0001
0100
0001
1000
0100
,
0010
0001
1000
0100
1000
0010
0100
0001
1000
0001
0010
0100
1000
0001
0100
0001
,
1000
0100
0010
0001
1000
0001
0100
0001
0010
0100
1000
0010
0100
0001
1000
0010
,
1000
0100
0010
0001
1000
0010
0100
0001
1000
0001
0010
0100
1000
0001
0100
0001
,
1000
0100
1000
0010
0100
0001
0010
0100
1000
0001
0100
0001
1000
0100
0010
0001
,
1000
0001
0100
0001
1000
0010
0100
0001
1000
0100
0010
0001
1000
0010
0100
0001
,
1000
0100
0010
0100
1000
0010
0100
0001
0010
0100
1000
0001
0100
0001
1000
0100
,
0010
0001
0100
0001
1000
0010
0100
0001
0010
0100
1000
0001
0100
0001
1000
0010
,
0100
0001
1000
0100
1000
0010
0100
0001
0010
0100
1000
0001
0100
0001
1000
0100
,
0010
0001
0010
0100
1000
0001
0100
0001
1000
0100
0010
0001
1000
0100
0010
0001
,
1000
0010
0100
0001
1000
0100
1000
0010
0100
0001
1000
0100
0010
0001
1000
0010
,
1000
0100
0010
0001
1000
0010
1000
0100
0010
0001
0100
0001
1000
0001
0010
0100
,
1000
0001
0100
0001
1000
0010
0100
0001
0010
0100
1000
0001
0100
0001
1000
0001
,
1000
0010
0100
0001
1000
0100
1000
0001
0100
0001
0010
0100
1000
0001
0010
0100
,
1000
0001
0100
0001
1000
0010
0100
0001
1000
0100
0010
0001
1000
0100
0010
0001
,
1000
0001
0100
0001
1000
0010
0100
0001
1000
0001
0010
0100
0010
0001
1000
0010
,
1000
0100
0010
0001
1000
0001
0100
0001
0010
0100
1000
0010
0100
0001
1000
0100
,
1000
0010
0100
0010
1000
0100
0010
0100
1000
0001
0100
0001
1000
0100
0010
0100
,
1000
0001
0100
0001
1000
0010
0100
0001
0010
0100
1000
0001
0100
0001
1000
0001
,
1000
0001
0100
0001
1000
0010
0100
0001
1000
0100
0010
0100
1000
0010
0100
0001
,
1000
0100
1000
0010
0100
0001
0010
0100
1000
0001
0100
0001
1000
0100
0010
0001
,
1000
0100
0010
0001
1000
0010
1000
0100
0010
0001
1000
0001
0100
0001
0010
0100
,
1000
0001
0100
0001
1000
0010
0100
0001
0010
0100
1000
0001
0100
0001
1000
0100
,
1000
0010
0100
0001
1000
0100
0010
0100
1000
0001
0100
0001
1000
0010
0100
0001
,
1000
0100
1000
0010
0100
0001
0010
0100
1000
0010
0100
0010
1000
0100
0010
0100
,
1000
0100
0010
0001
1000
0001
0100
0001
0010
0100
1000
0001
0100
0001
1000
0100
,
0010
0001
1000
0001
0100
0001
0010
0100
1000
0001
0100
0001
1000
0100
0010
0100
,
2000
3001
0100
0001
1000
0010
0100
0001
1000
0001
0010
0100
1000
0001
0100
0001
,
2000
3100
0010
0001
1000
0001
0100
0001
0010
0100
1000
0010
0100
0001
1000
0100
,
0020
0000
0000
0000
,
0000
0000
0000
0000
,
0000
0002
0000
0000
,
0000
0000
0000
0000
,
0000
0000
0000
2000
,
0000
0000
0000
0000
,
0000
0000
0000
0000
,
0000
0000
0200
0000
,
0000
0000
0000
0000
0000
3333
0000
0000
,
MMMM
0000
MMMM
0000
;
