#TITLE:Lost Souls In Endless Time;
#SUBTITLE:Inhuman Rampage (2006);
#ARTIST:DragonForce;
#TITLETRANSLIT:;
#SUBTITLETRANSLIT:;
#ARTISTTRANSLIT:;
#CREDIT:;
#BANNER:lsiet-bn.PNG;
#BACKGROUND:lsiet-bg.PNG;
#LYRICSPATH:;
#CDTITLE:omegaspike_cdtitle.PNG;
#MUSIC:DragonForce_-_Lost_Souls_In_Endless_Time.mp3;
#OFFSET:-0.273;
#SAMPLESTART:72.100;
#SAMPLELENGTH:14.420;
#SELECTABLE:YES;
#BPMS:0.000=200.000,1064.000=100.000,1078.000=200.000,1194.000=100.000,1210.000=200.000;
#STOPS:;
#BGCHANGES:;
// cache tags:
#FIRSTBEAT:0.000;
#LASTBEAT:1229.000;
#SONGFILENAME:Songs/Astronomic Metal Collection/(OMEGAspike)Lost Souls in Endless Time/DragonForce_-_Lost_Souls_In_Endless_Time.sm;
#HASMUSIC:1;
#HASBANNER:1;
#MUSICLENGTH:382.046;
// end cache tags

//---------------dance-single - ----------------
#NOTES:
     dance-single:
     :
     Hard:
     11:
     1.000,1.000,0.529,0.374,1.000,3294.000,202.000,143.000,0.000,0.000:
1001
0100
0010
0000
0010
0100
0000
1000
,
0100
0000
0001
0100
0001
1000
0010
0100
,
0001
0010
0100
0000
1000
0100
0000
0010
,
0001
0000
0100
0001
1000
0010
0100
0001
,
1000
0010
1000
0010
0001
0100
0001
0100
,
1000
0010
1000
0010
0001
0100
0001
0100
,
0010
0100
1000
0010
0100
0001
0100
0001
,
0010
0100
1001
0101
1001
1010
1001
0110
,
2020
0000
0000
0030
,
3002
0000
0000
0000
,
0000
0000
0023
0000
,
0230
0000
0000
0000
0000
0000
0000
0000
2300
0000
0000
0000
0000
0000
0000
3000
,
2002
0000
0003
3020
,
0230
0000
0000
0000
,
0010
0000
0000
0000
,
0000
0300
1100
1100
0110
0110
0011
0011
,
2200
0000
0300
3020
,
0032
0000
0000
0000
,
0100
0000
0000
0000
0000
0000
0000
0003
2000
0000
0000
0000
0000
0000
0000
0000
,
3200
0000
0000
0000
0000
0000
0000
0000
0320
0000
0000
0000
0000
0000
0032
0003
,
0220
0000
0000
0000
0030
0000
0302
2003
,
3200
0000
0000
0000
,
0000
0000
0000
0000
,
0300
0000
0000
0000
0020
0000
0000
0000
0032
0000
0000
0000
0203
0000
0000
0300
,
2002
0000
0000
0000
3000
0000
0023
0000
0000
0000
0000
0000
0230
0000
2300
3000
,
2002
0000
0000
0000
0000
0000
0000
3003
,
0220
0000
0000
0000
0030
0000
0320
0000
0000
0000
0000
0000
0230
0000
0000
0300
,
2002
0003
3200
0000
0320
0000
0000
0000
0000
0000
0000
0000
0000
0000
0000
0030
,
2002
0000
0000
0000
0000
0000
0003
3200
,
0320
0000
0000
0000
0000
0000
0032
0000
0000
0000
0000
0000
2003
0000
0000
3000
,
0202
0000
0000
0000
0000
0000
0000
0303
,
1000
0010
1000
0010
1000
0000
0000
0000
0001
1000
0001
1000
0001
0000
0000
0000
,
1000
0010
1000
0001
0100
0001
0010
0100
1000
0010
1000
0001
0100
0010
1000
0100
,
0010
0001
1000
0001
0100
0010
1000
0001
0100
0001
1000
0100
0010
0100
1000
0010
,
0100
0001
0010
0100
1000
0010
1000
0001
0100
0001
1000
0001
0010
0100
0010
0001
,
1000
0010
1000
0001
0100
0001
0100
0010
1000
0100
0010
0001
1000
0001
0010
0100
,
1000
0100
1000
0010
0100
0001
0100
0010
1000
0100
1000
0001
0010
0001
0100
0001
,
0010
0100
0010
0001
0010
0001
0100
0010
0100
0010
1000
0010
0100
0001
1000
0100
,
0010
0001
1000
0001
0010
0100
1000
0001
1000
0100
0010
0001
0100
0001
1000
0100
,
0010
0001
1000
0001
0010
0001
1000
0001
0010
0001
1000
0001
0010
0001
1000
0001
,
1000
0011
0100
1000
0011
0011
0100
1000
,
0011
0000
0011
0000
0100
0000
1000
0000
0010
0000
1000
0000
0020
0000
0000
0030
,
1100
1100
0010
0001
1100
1100
0010
0001
,
1100
0000
0000
0000
0110
0000
0000
0000
2002
0000
0000
0000
0000
0000
0000
3003
,
0010
0000
0100
0000
1000
0001
1000
0000
0100
0000
0010
0000
0001
1000
0001
0000
,
0010
0000
0100
0000
1000
0010
1000
0000
0100
0000
0010
0000
0001
0100
0001
0000
,
1000
0000
0001
0000
0100
0010
0100
0000
0001
0000
1000
0000
0010
0100
0010
0000
,
1000
0000
0100
0000
0010
0001
0010
0000
0100
0000
1000
0000
0001
0100
0001
0000
,
0100
0000
0010
0000
0100
0010
0100
0000
0010
0000
1000
0000
0010
1000
0010
0000
,
0100
0000
0001
0000
0100
0001
0100
0000
0001
0000
0010
0000
0001
0010
0001
0000
,
1000
0001
0100
0001
1000
0001
0100
0001
1000
0001
0100
0001
1000
0001
0100
0001
,
1000
0100
0010
0001
1000
0100
0010
0001
1000
0100
0010
0001
1000
0100
0010
0001
,
0110
0000
1000
0001
1000
0001
1000
0001
1000
0001
1000
0001
1000
0001
1000
0001
,
1000
0000
0001
0100
0001
0100
0010
0000
1000
0100
0010
0000
0100
0010
0001
0000
,
0110
0000
0001
1000
0001
1000
0001
1000
0001
1000
0001
1000
0001
1000
0001
1000
,
0001
0000
1000
0010
1000
0010
0100
0000
0001
0010
0100
0000
0010
0100
1000
0000
,
0011
0000
1000
0010
1000
0010
1000
0010
1000
0010
1000
0010
1000
0010
1000
0010
,
1000
0000
0001
0010
0001
0010
0100
0000
1000
0010
0100
0000
0010
0100
0001
0000
,
0011
0000
1000
0010
1000
0010
1000
0010
1000
0010
1000
0010
1000
0010
1000
0010
,
1000
0001
1000
0001
1000
0000
0010
0000
0100
0001
0100
0001
0100
0000
0010
0000
,
1010
1001
0101
1001
0110
1010
0110
0101
,
2001
0000
0001
0000
0001
3000
0100
0000
,
0011
0100
1000
0100
0011
0100
0001
0100
,
0011
0000
0101
0000
1010
0001
0001
0001
,
1000
0001
1000
0100
0010
0001
1000
0001
0010
0100
1000
0010
1000
0001
0010
0100
,
1000
0001
1000
0001
0010
0100
0010
0100
1000
0001
1000
0001
0010
0100
0010
0100
,
1000
1001
1010
1010
,
0110
0110
0101
0101
,
1001
0000
0010
0000
1000
0001
1000
0000
0001
0000
0010
0000
0100
1000
0001
0000
,
1001
0000
1000
0000
0001
0010
0100
0000
0010
0000
0100
0000
0010
0001
0100
0000
,
1010
0000
0100
0000
0001
1000
0001
0000
1000
0000
0001
0000
0010
0100
1000
0000
,
0011
0000
1000
0000
0010
0100
0001
0000
1000
0000
0001
0000
1000
0001
0100
0000
,
0011
0000
0100
0000
0001
1000
0010
0000
0100
0000
0001
0000
0010
0100
1000
0000
,
1010
0000
0100
0000
0001
1000
0001
0000
0010
0000
0100
0000
1000
0100
0010
0000
,
1001
0000
0100
0000
0001
0010
0100
0000
1000
0000
0010
0000
1000
0001
0100
0000
,
0001
1000
0010
1000
0001
1000
0010
1000
0001
1000
0010
1000
0001
1000
0010
1000
,
0001
0100
0010
1000
0001
0100
0001
1000
0100
0010
0001
1000
0010
0100
0001
0010
,
1100
0000
0101
1001
1010
1001
0101
1001
,
0100
0000
0010
0000
0001
0010
0100
0000
1000
0000
0010
0000
1000
0001
0100
0000
,
0001
0000
1000
0000
0001
0010
0100
0000
1000
0000
0010
0000
1000
0100
0010
0000
,
0001
0010
0100
1000
0010
1000
0001
0100
0001
1000
0100
0010
0001
1000
0001
0100
,
0010
1000
0001
1000
0100
0010
0001
1000
0001
0100
0001
1000
0010
0100
0010
1000
,
0100
0010
0001
0100
0010
1000
0001
0100
0001
1000
0100
0010
0100
1000
0010
1000
,
0001
0110
1100
0000
,
1000
0001
1000
0001
0100
0010
1000
0001
0100
0001
1000
0100
0010
0001
1000
0001
,
0100
0001
1000
0010
1000
0010
0100
0001
0010
0100
1000
0010
1000
0100
0010
0001
,
0100
0001
1000
0010
0100
0001
1000
0001
0010
0100
1000
0010
1000
0001
0100
0001
,
1000
0100
0010
0001
0100
0001
0010
0100
1000
0010
0100
0001
1000
0100
0010
0001
,
0010
0100
1000
0010
1000
0001
0100
0001
1000
0001
0010
0100
1000
0001
0100
0010
,
1000
0010
0100
0001
1000
0001
0010
0100
1000
0010
1000
0001
0100
0001
1000
0100
,
0010
0001
0100
0001
0010
0100
1000
0010
1000
0100
1000
0010
0100
0001
0010
0100
,
1000
0001
0100
0000
0001
0000
1000
0100
0010
0000
0001
0000
1000
0001
0100
0000
,
0001
1000
0001
1000
0010
0100
0001
1000
0010
1000
0001
0010
0100
1000
0001
1000
,
0010
1000
0001
0100
0001
0100
0010
1000
0100
0010
0001
0100
0001
0010
0100
1000
,
0010
1000
0001
0100
0010
1000
0001
1000
0100
0010
0001
0100
0001
1000
0010
1000
,
0001
0010
0100
1000
0010
1000
0100
0010
0001
0100
0010
1000
0001
0010
0100
1000
,
0100
0010
0001
0100
0001
1000
0010
1000
0001
1000
0100
0010
0001
1000
0010
0100
,
0001
0100
0010
1000
0001
1000
0100
0010
0001
0100
0001
1000
0010
1000
0001
0010
,
0100
1000
0010
1000
0100
0010
0001
0100
0001
0010
0001
0100
0010
1000
0100
0010
,
0001
1000
0010
0100
0001
1000
0010
0100
1001
0000
0000
0000
0000
0000
0000
0000
,
1000
0100
0010
0001
1000
0001
0100
0001
1000
0010
0100
0001
0010
0100
1000
0010
,
0100
0001
1000
0001
0100
0001
0010
0100
1000
0010
1000
0100
1000
0010
0100
0001
,
1000
0010
1000
0001
1000
0010
1000
0001
0100
0001
0100
0010
0100
0001
0100
0010
,
1000
0100
0010
0001
0010
0100
1000
0100
0010
0001
1000
0001
0100
0010
0100
0001
,
1000
0100
0011
0000
0101
0010
1000
0000
,
0100
0010
1001
0000
0100
0001
0010
0100
,
1000
1000
1010
0001
1000
1000
1010
0001
,
1000
0100
1000
0000
0100
0000
0010
0000
1001
0000
0000
0000
2020
0000
0000
3030
,
1001
0010
0100
1000
0011
0000
0100
0010
,
1000
0100
1000
0100
0010
0100
0010
0100
1000
0100
1000
0100
1000
0001
1000
0001
,
0010
0100
0010
0100
2000
0000
3020
0000
0130
0001
0100
0001
0200
0000
0320
0000
,
1030
0001
1000
0000
0100
0000
0010
0000
0001
0000
0000
0000
2000
0000
0000
0000
,
3100
0000
0010
0000
0001
1000
0001
0000
0010
0000
0100
0000
1000
0001
1000
0000
,
0100
0000
0010
0000
0001
0100
0001
0000
0010
0000
0100
0000
1000
0010
1000
0000
,
0001
0000
1000
0000
0010
0100
0010
0000
1000
0000
0001
0000
0100
0010
0100
0000
,
0001
0000
0010
0000
0100
1000
0100
0000
0010
0000
0001
0000
1000
0010
1000
0000
,
0010
0000
0100
0000
0010
0100
0010
0000
0100
0000
0001
0000
0100
0001
0100
0000
,
0010
0000
1000
0000
0010
1000
0010
0000
1000
0000
0100
0000
1000
0100
1000
0000
,
0001
1000
0010
1000
0001
1000
0010
1000
0001
1000
0010
1000
0001
1000
0010
1000
,
0001
0010
0100
1000
0001
0010
0100
1000
0001
0010
0100
1000
0001
0010
0100
1000
,
0110
0000
0001
1000
0001
1000
0001
1000
0001
1000
0001
1000
0001
1000
0001
1000
,
0001
0000
1000
0010
1000
0010
0100
0000
0001
0010
0100
0000
0010
0100
1000
0000
,
0110
0000
1000
0001
1000
0001
1000
0001
1000
0001
1000
0001
1000
0001
1000
0001
,
1000
0000
0001
0100
0001
0100
0010
0000
1000
0100
0010
0000
0100
0010
0001
0000
,
1100
0000
0001
0100
0001
0100
0001
0100
0001
0100
0001
0100
0001
0100
0001
0100
,
0001
0000
1000
0100
1000
0100
0010
0000
0001
0100
0010
0000
0100
0010
1000
0000
,
1100
0000
0001
0100
0001
0100
0001
0100
0001
0100
0001
0100
0001
0100
0001
0100
,
0001
1000
0010
0100
0001
1000
0010
0100
0001
1000
0010
0100
0001
1000
0010
1000
,
0101
1001
1010
1001
0110
0101
0110
1010
,
1002
1000
1000
1000
1000
1003
1000
1000
,
1100
0010
0001
0010
1100
0010
1000
0010
,
1100
0000
0000
0000
1010
0000
0000
0000
0101
0010
1000
0000
1000
0100
0010
0000
,
0001
1000
0001
0010
0100
1000
0001
1000
0100
0010
0001
0100
0001
1000
0100
0010
,
0001
1000
0001
1000
0100
0010
0100
0010
0001
1000
0001
1000
0100
0010
0100
0010
,
0001
1001
0101
0101
,
0110
0110
1010
1010
,
1001
0000
0100
0000
0001
1000
0001
0000
1000
0000
0100
0000
0010
0001
1000
0000
,
1001
0000
0001
0000
1000
0100
0010
0000
0100
0000
0010
0000
0100
1000
0010
0000
,
0101
0000
0010
0000
1000
0001
1000
0000
0001
0000
1000
0000
0100
0010
0001
0000
,
1100
0000
0001
0000
0100
0010
1000
0000
0001
0000
1000
0000
0001
1000
0010
0000
,
1100
0000
0010
0000
1000
0001
0100
0000
0010
0000
1000
0000
0100
0010
0001
0000
,
0101
0000
0010
0000
1000
0001
1000
0000
0100
0000
0010
0000
0001
0010
0100
0000
,
1001
0000
0010
0000
1000
0100
0010
0000
0001
0000
0100
0000
0001
1000
0010
0000
,
1000
0001
0100
0001
1000
0001
0100
0001
1000
0001
0100
0001
1000
0001
0100
0001
,
1000
0010
0100
0001
1000
0010
1000
0001
0010
0100
1000
0001
0100
0010
1000
0100
,
0011
0000
1010
1001
0101
1001
1010
1001
,
0010
0000
0100
0000
1000
0100
0010
0000
0001
0000
0100
0000
0001
1000
0010
0000
,
1000
0000
0001
0000
1000
0100
0010
0000
0001
0000
0100
0000
0001
0010
0100
0000
,
1000
0100
0010
0001
0100
0001
1000
0010
1000
0001
0010
0100
1000
0001
1000
0010
,
0100
0001
1000
0001
0010
0100
1000
0001
1000
0010
1000
0001
0100
0010
0100
0001
,
0010
0100
1000
0010
0100
0001
1000
0010
1000
0001
0010
0100
0010
0001
0100
0001
,
1000
0110
0011
0000
,
0001
1000
0001
1000
0010
0100
0001
1000
0010
1000
0001
0010
0100
1000
0001
1000
,
0010
1000
0001
0100
0001
0100
0010
1000
0100
0010
0001
0100
0001
0010
0100
1000
,
0010
1000
0001
0100
0010
1000
0001
1000
0100
0010
0001
0100
0001
1000
0010
1000
,
0001
0010
0100
1000
0010
1000
0100
0010
0001
0100
0010
1000
0001
0010
0100
1000
,
0100
0010
0001
0100
0001
1000
0010
1000
0001
1000
0100
0010
0001
1000
0010
0100
,
0001
0100
0010
1000
0001
1000
0100
0010
0001
0100
0001
1000
0010
1000
0001
0010
,
0100
1000
0010
1000
0100
0010
0001
0100
0001
0010
0001
0100
0010
1000
0100
0010
,
0001
1000
0010
0100
0001
1000
0010
0100
0001
1000
0010
0100
0001
1000
0010
0100
,
0001
1000
0001
1000
0010
0100
0001
1000
0010
1000
0001
0010
0100
1000
0001
1000
,
0010
1000
0001
0100
0001
0100
0010
1000
0100
0010
0001
0100
0001
0010
0100
1000
,
0010
1000
0001
0100
0010
1000
0001
1000
0100
0010
0001
0100
0001
1000
0010
1000
,
0001
0010
0100
1000
0010
1000
0100
0010
0001
0100
0010
1000
0001
0010
0100
1000
,
0100
0010
0001
0100
0001
1000
0010
1000
0001
1000
0100
0010
0001
1000
0010
0100
,
0001
0100
0010
1000
0001
1000
0100
0010
0001
0100
0001
1000
0010
1000
0001
0010
,
0100
1000
0010
1000
0100
0010
0001
0100
0001
0010
0001
0100
0010
1000
0100
0010
,
0001
1000
0010
0100
0001
1000
0010
0100
1001
0000
0000
0000
0000
0000
0000
0000
,
1000
0100
0010
0001
1000
0001
0100
0001
1000
0010
0100
0001
0010
0100
1000
0010
,
0100
0001
1000
0001
0100
0001
0010
0100
1000
0010
1000
0100
1000
0010
0100
0001
,
1000
0010
1000
0001
1000
0010
1000
0001
0100
0001
0100
0010
0100
0001
0100
0010
,
1000
0100
0010
0001
0010
0100
1000
0100
0010
0001
1000
0001
0100
0010
0100
0001
,
1000
0000
0100
0000
0010
0000
0001
0000
0010
0100
1000
0001
0010
0100
1000
0001
,
0010
0100
1000
0010
0002
0000
0000
0003
,
1010
0100
0001
1000
0101
0010
1000
0001
,
1010
0100
0001
1000
0101
0010
1000
0001
,
1000
0000
0000
0100
0000
0000
0010
0000
0000
0100
0000
0000
0010
0000
0000
0001
0000
0000
1000
0000
0000
0001
0000
0000
1000
0000
0000
0000
0010
0000
0000
0000
0100
0000
0000
0000
0002
0000
0000
0000
0000
0000
0003
0000
0000
0000
0000
0000
,
1100
0100
0110
0010
0011
0010
0110
0100
,
0100
1000
0100
0010
0100
1000
0100
0010
0001
0010
0100
0010
0001
0010
0100
0010
,
0100
1000
0001
0100
0020
0230
0320
0230
,
0301
1000
0001
0100
0010
1000
0001
0100
0001
1000
0001
0100
0010
1000
0001
1000
,
0110
0010
0011
0010
0110
0100
1100
0100
,
0110
0011
0110
1100
0110
0011
0110
1100
,
0010
0100
1000
0100
0010
0001
0010
0001
0010
0100
0010
0100
1000
0010
1000
0010
,
1000
0001
1000
0001
1000
0100
0010
0001
1000
0001
1000
0001
1000
0100
0010
0001
,
0110
0100
1100
0100
0110
0100
1100
0100
,
0011
0101
0110
1010
0011
0101
0110
1010
,
0001
0000
0000
1000
0000
0000
0010
0000
0000
0100
0000
0000
0001
0000
0100
0000
0010
0000
1000
0000
0100
0000
0010
0000
,
0001
0100
0010
1000
0010
1000
0100
0010
0001
1000
0100
0010
0001
0010
0100
0010
,
0001
0100
0001
0100
0001
1000
0001
1000
0010
1000
0010
1000
0001
1000
0001
1000
,
0100
0010
0001
1000
0001
0100
0010
1000
0001
0100
0001
1000
,
0100
0010
0001
0100
0010
1000
0010
0100
0001
1000
0100
1000
,
0010
0100
0001
1000
0001
0010
0100
0010
0001
1000
0010
0100
,
0010
1000
0001
0100
0010
1000
0001
0100
0001
1000
0100
0010
,
0001
1000
0001
0100
0001
0010
0100
0010
0100
1000
0010
0100
,
0010
0100
0001
1000
0001
0100
0010
1000
0100
0010
0001
1000
,
0001
0100
0001
1000
0010
1000
0001
0010
0001
1000
0100
1000
,
0010
0100
0001
1000
0010
0100
0001
0010
0001
0010
0100
0010
,
1001
0100
1000
0001
1000
0010
0100
0001
1000
0010
1000
0001
,
0010
0100
1000
0010
0100
0001
0100
0010
1000
0001
0010
0001
,
0100
0010
1000
0001
1000
0100
0010
0100
1000
0001
0100
0010
,
0100
0001
1000
0010
0100
0001
1000
0010
1000
0001
0010
0100
,
1000
0001
1000
0010
1000
0100
0010
0100
0010
0001
0100
0010
,
0100
0010
1000
0001
1000
0010
0100
0001
0010
0100
1000
0001
,
1000
0010
1000
0001
0100
0001
1000
0100
1000
0001
0010
0001
,
0220
0000
0000
0000
0000
0000
0000
0300
0200
0000
0000
0000
0000
0000
0000
0330
,
1001
0000
0000
0000
0000
0000
0001
0000
0000
0000
0000
0000
1000
0000
0000
0001
0000
0000
1000
0000
0000
0000
0000
0000
0001
0000
0000
0000
0100
0000
0000
0000
0010
0000
0000
0000
1000
0000
0000
0000
0100
0000
0000
0000
0010
0000
0000
0000
,
0001
0000
0000
0000
0000
0000
0001
0000
0000
0000
0000
0000
0010
0000
0000
0001
0000
0000
0010
0000
0000
0000
0000
0000
0100
0000
0000
0000
1000
0000
0000
0000
0100
0000
0000
0000
0010
0000
0000
0100
0000
0000
0010
0000
0000
0000
0000
0000
,
0001
0001
0000
0100
0010
0000
1000
0000
,
0200
0000
0000
0000
0000
0000
0000
0300
,
1000
0100
1000
0100
0010
0100
0010
0100
1000
0100
1000
0100
0010
0001
0010
0001
,
1000
0100
0010
0100
0010
0001
0100
0010
1000
0100
0010
0100
0010
0001
0100
0010
,
1000
0100
0010
0100
0001
0010
0100
0010
,
1000
0100
0010
0100
0010
0001
0010
0100
1000
0100
0010
0100
0010
0001
0010
0100
,
1000
0100
0000
0020
0000
0000
0032
0000
,
0103
0010
0000
2000
0000
0000
3200
0000
,
0320
0000
0000
0032
0000
0000
0023
0000
,
0130
0000
1000
0020
0000
0000
0000
0000
,
1030
0001
1000
0001
0010
0100
1000
0001
1000
0001
0010
0100
1000
0001
1000
0001
,
1000
0001
1000
0001
0010
0100
1000
0001
1000
0001
0010
0100
1000
0001
1000
0001
,
1000
0100
1000
0100
1000
0100
1000
0100
0010
0001
1000
0001
0100
0010
1000
0100
,
0020
0000
0000
0000
0002
0030
0020
0003
0002
0030
0020
0003
0002
0030
0020
0003
,
0230
0000
0000
0000
0000
0000
0300
0000
0200
0000
0000
0000
0000
0300
1000
0000
,
0100
0010
0100
0001
0100
0010
2000
0000
,
3100
0000
0000
0000
0010
0000
0000
0000
0001
0000
0000
0000
0100
0000
0000
0000
0010
0000
0000
0000
1000
0000
0000
0000
0100
0000
0000
0000
0010
0000
0000
0000
0001
0000
0000
0000
0010
0000
0000
0100
0000
0000
1000
0000
0000
0001
0000
0000
,
1000
0000
0010
0000
1000
0000
0000
0000
0100
0000
0000
0000
0010
0000
0000
0000
0002
0000
0000
0000
0000
0000
0000
0000
0013
0002
0000
0000
0000
0000
0000
0000
,
2003
0000
0000
0000
0000
0000
0000
3000
0200
0000
0000
0000
0000
0300
0010
0001
,
0020
0000
0000
0000
0000
0000
1030
0100
,
1000
0001
0100
0010
1000
0100
0010
0100
0010
0001
0100
0010
1000
0001
0100
0010
,
1000
0100
1000
0100
0010
0001
0100
0001
1000
0100
0010
0100
0010
0001
0100
0001
,
1000
0000
0001
0000
0100
0000
0001
0000
1000
0100
0010
0100
0010
0001
0020
0000
,
0000
0000
0130
1000
0100
0010
0200
0000
0000
0000
0000
0000
0000
0000
0300
0000
,
1001
0010
0100
1000
0010
1000
0100
0010
0001
0100
0010
1000
0001
0000
0010
0000
,
0100
0000
0000
0000
1000
0000
0000
0000
0100
0000
0000
0000
0010
0000
0000
0000
0000
0000
0000
0000
0100
0000
0000
0000
0010
0002
0000
0000
0000
0000
0000
0000
,
1003
0100
0010
0000
0001
0000
0100
0010
1000
0001
0100
0001
1000
0010
0100
0001
,
1000
0100
0010
0100
0010
0001
1000
0001
0010
0000
0100
0000
1000
0000
0000
0000
,
1001
0000
0100
0001
0100
0010
1000
0010
0200
0000
0320
0000
0230
0000
1300
0100
,
0010
0000
0000
0001
0000
0000
0020
0000
0000
0000
0000
0000
0000
0000
0030
0000
,
0100
0000
0001
0000
0100
0000
1000
0000
0100
0000
0001
0000
0010
0100
1000
0100
,
0010
0000
0001
0000
1000
0000
0001
0000
0100
0010
1000
0010
0100
0001
1000
0001
,
1000
0100
0010
0100
0010
0001
0100
0010
,
1000
0000
0000
0010
0000
0000
0100
0000
0002
0000
0000
0000
0000
0000
0000
0003
,
1001
0100
0010
0001
1000
0001
0100
0001
1000
0100
0010
0001
0010
0100
0010
0100
,
1000
0001
0100
0001
1000
0001
0100
0010
1000
0010
0100
0010
0200
0000
0000
0000
,
0310
0001
1000
1000
0010
0001
1000
1000
,
0010
0001
1000
0100
0010
0001
1000
0100
0020
0000
0000
0000
0230
0000
0000
0000
,
2300
3010
0100
0002
0013
0100
2000
3100
,
0020
0032
0013
0100
2000
3100
0200
0310
,
0002
0103
0010
2000
3100
0010
0000
0000
,
0002
0000
0023
0000
0000
0000
0000
0030
,
0100
1000
0010
0200
0000
0310
1000
0001
,
2000
3200
2300
3200
0320
0230
0302
0000
,
0013
0000
0100
0000
1000
0000
0010
0000
0100
0000
0001
0000
0010
0000
0000
0100
0000
0000
0010
0000
0000
1000
0000
0000
,
0010
0001
0100
1000
0020
0000
0000
0000
,
1030
0000
0100
0010
0001
0010
0100
1000
0010
0100
0001
0010
0100
0010
0100
1000
,
0100
0000
0010
0000
0100
0000
0010
0000
0001
0010
0100
0010
0002
0000
0003
0000
,
0010
0100
1000
0020
0032
0023
0030
0000
,
1000
0000
0100
0010
0200
0000
0000
0300
,
0020
0031
0100
0020
0031
0100
0020
2030
,
3100
0010
0100
0001
0100
0010
0100
1000
,
0100
0010
0100
0010
0100
0010
0100
0000
0001
0010
0001
0010
0001
0010
0001
0000
,
0100
0010
0100
0010
0100
0010
0100
0000
1000
0010
1000
0010
1000
0010
1000
0000
,
0001
0010
1000
0001
0100
1000
0010
0100
,
0001
0000
0010
0000
0100
0000
1000
0100
0010
0100
1000
0000
0001
0000
0000
0000
,
1000
0010
0100
0001
1000
0010
0100
0001
1000
0100
0010
0100
1000
0001
0010
0100
,
1000
0100
0010
0000
0100
0010
0001
0000
0200
0000
0000
0000
0320
0000
0000
0030
,
1010
0000
0000
0000
,
0000
0000
0000
0000
,
0000
0000
0000
0000
,
0000
0000
0000
0000
0000
0000
0000
0000
1000
0001
1000
0010
1000
0001
1000
0010
,
1000
0001
0100
0010
1000
0001
0100
0010
1000
0001
1000
0001
0100
0010
1000
0001
,
0100
0001
1000
0100
0010
0001
1000
0001
0100
0001
1000
0010
1000
0010
0100
0001
,
0010
0100
1000
0010
1000
0100
0010
0001
0100
0001
1000
0010
0100
0001
1000
0001
,
0010
0100
1000
0010
1000
0001
0100
0001
1000
0100
0010
0001
0100
0001
0010
0100
,
1000
0010
0100
0001
1000
0100
0010
0001
0010
0100
1000
0010
1000
0001
0100
0001
,
1000
0001
0010
0100
1000
0001
0100
0010
1000
0010
0100
0001
1000
0001
0010
0100
,
1000
0010
1000
0001
0100
0001
1000
0100
0010
0001
0100
0001
0010
0100
1000
0010
,
1000
0100
1000
0010
0100
0001
0010
0100
1000
0000
0001
0000
0100
0000
0100
0000
,
0001
0000
1000
0000
0010
0000
0010
0000
1000
0001
1000
0001
0100
0010
1000
0001
,
0100
0001
1000
0100
0010
0001
1000
0001
0100
0001
1000
0010
1000
0010
0100
0001
,
0010
0100
1000
0010
1000
0100
0010
0001
0100
0001
1000
0010
0100
0001
1000
0001
,
0010
0100
1000
0010
1000
0001
0100
0001
1000
0100
0010
0001
0100
0001
0010
0100
,
1000
0010
0100
0001
1000
0100
0010
0001
0010
0100
1000
0010
1000
0001
0100
0001
,
1000
0001
0010
0100
1000
0001
0100
0010
1000
0010
0100
0001
1000
0001
0010
0100
,
1000
0010
1000
0001
0100
0001
1000
0100
0010
0001
0100
0001
0010
0100
1000
0010
,
1000
0100
1000
0010
0100
0001
0010
0100
1000
0100
0010
0001
1000
0100
0010
0001
,
1000
0100
0010
0001
0020
0000
0000
0000
0031
1000
0001
1000
0010
0100
0001
1000
,
0010
1000
0001
0010
0100
1000
0001
1000
0010
1000
0001
0100
0001
0100
0010
1000
,
0100
0010
0001
0100
0001
0010
0100
1000
0010
1000
0001
0100
0010
1000
0001
1000
,
0100
0010
0001
0100
0001
1000
0010
1000
0001
0010
0100
1000
0010
1000
0100
0010
,
0001
0100
0010
1000
0001
0010
0100
1000
0100
0010
0001
0100
0001
1000
0010
1000
,
0001
1000
0100
0010
0001
1000
0010
0100
0001
0100
0010
1000
0001
1000
0100
0010
,
0001
0100
0001
1000
0010
1000
0001
0010
0100
1000
0100
0000
0010
0000
0001
0100
,
0001
0000
1000
0000
0010
1000
0001
0000
0100
0010
1000
0001
0100
0010
1000
0001
,
0110
0000
0000
0000
0000
0000
0000
0000
1000
0100
0010
0001
1000
0001
0100
0001
,
1000
0010
0100
0001
0010
0100
1000
0010
0100
0001
1000
0001
0100
0001
0010
0100
,
1000
0010
1000
0100
1000
0010
0100
0001
1000
0010
1000
0001
1000
0010
1000
0001
,
0100
0001
0100
0010
0100
0001
0100
0010
1001
0000
0100
0001
1000
0001
0100
0010
,
1000
0100
0010
0001
0010
0100
1000
0100
0020
0000
0000
0000
0000
0000
0000
0000
,
0000
0000
0000
0000
0030
0002
0000
0000
0000
0000
0000
0000
0000
0000
0000
0000
,
0000
0003
0200
0000
0000
0000
0000
0000
0000
0000
0000
0000
0000
0000
0300
0020
,
0000
0000
0000
0000
0000
0000
0030
0000
0000
1000
0001
0100
0001
1000
0010
0100
0010
1000
0100
0010
0001
1000
0001
0010
,
0100
1000
0010
0100
0010
0000
0000
0000
0000
0000
0000
0000
1010
0000
0000
1001
0000
0000
0101
0000
0000
1001
0000
0000
,
0110
1010
0110
0101
1001
0011
0110
1100
,
0110
0011
0101
1001
0110
1010
1001
0101
,
0110
1010
1100
0110
0110
1010
1001
0101
,
0110
1010
1100
0110
2002
0000
0000
0000
,
0000
0003
3000
0000
0000
0000
0000
0000
;

//---------------dance-single - ----------------
#NOTES:
     dance-single:
     :
     Challenge:
     14:
     1.000,1.000,1.000,0.393,1.000,3376.000,597.000,150.000,0.000,38.000:
1001
0100
0010
0000
0010
0100
0000
1000
,
0100
0000
0001
0100
0001
1000
0010
0100
,
0001
0010
0100
0000
1000
0100
0000
0010
,
0001
0000
0100
0001
1000
0010
0100
0001
,
1000
0010
1000
0010
0001
0100
0001
0100
,
1000
0010
1000
0010
0001
0100
0001
0100
,
0010
0100
1000
0010
0100
0001
0100
0001
,
0010
0100
1001
0101
1001
1010
1001
0110
,
2020
0000
0000
0000
,
3032
0000
0000
0000
,
0000
0000
0023
0000
,
0230
0000
0000
0000
0000
0000
0000
0000
0000
0000
0000
0000
0000
0000
0000
0000
0000
0000
0000
0000
0000
0000
0000
0000
0000
0000
0000
0000
0000
0000
0000
0000
2300
0000
0000
0000
0000
0000
0000
0000
0000
0000
0000
0000
0000
0000
0000
0000
0000
0000
0000
0000
0000
0000
0000
0000
0000
0000
0000
0000
0000
0000
0000
3000
,
2002
0000
0000
3023
,
0230
0000
0000
0000
,
0010
0000
0000
0000
,
0000
0000
0000
0000
0000
0000
0000
0000
0000
0000
0000
0000
0000
0000
0000
0300
1100
0000
0000
0000
0000
0000
0000
0000
1100
0000
0000
0000
0000
0000
0000
0000
0110
0000
0000
0000
0000
0000
0000
0000
0110
0000
0000
0000
0000
0000
0000
0000
0011
0000
0000
0000
0000
0000
0000
0000
0011
0000
0000
0000
0000
0000
0000
0000
,
2200
0000
0000
3320
,
0032
0000
0000
0000
,
0100
0000
2003
0000
,
3200
0000
0000
0000
0320
0000
0000
0032
,
0223
0000
0000
0000
0000
0000
0332
2003
,
3200
0000
0000
0000
,
0000
0000
0000
0000
,
0300
0020
0032
0203
,
2302
0000
0000
0000
0000
0000
0000
0000
0000
0000
0000
0000
0000
0000
0000
0000
3000
0000
0000
0000
0000
0000
0000
0000
0023
0000
0000
0000
0000
0000
0000
0000
0000
0000
0000
0000
0000
0000
0000
0000
0000
0000
0000
0000
0000
0000
0000
0000
0230
0000
0000
0000
0000
0000
0000
0000
2300
0000
0000
0000
0000
0000
0000
3000
,
2002
0000
0000
0000
0000
0000
0000
3003
,
0202
0000
0000
0323
0000
0000
0230
0000
,
2302
0003
3200
0000
0320
0000
0000
0000
0000
0000
0000
0000
0000
0000
0000
0030
,
2002
0000
0000
0000
0000
0000
0003
3200
,
0320
0000
0000
0032
0000
0000
2003
0000
,
3202
0000
0000
0000
0000
0000
0000
0303
,
1100
0010
1000
0010
1100
0000
0000
0000
0011
1000
0001
1000
0011
0000
0000
0000
,
1001
0010
0100
1000
0010
0100
0011
0100
0010
1000
0100
0010
1001
0100
0001
1000
,
0110
0001
0100
0010
1000
0100
0010
0001
1100
0010
0100
0001
1100
0010
0100
0001
,
1010
0100
0011
0100
0010
1000
0011
0100
0010
1000
0101
0010
1000
0001
0110
1000
,
0010
0100
0001
1000
0001
0100
0001
1000
0100
0010
0001
1000
0001
0010
0100
1000
,
0011
1000
0001
1000
0011
0100
0010
1000
0100
0010
1001
0010
0100
1000
0010
0100
,
1010
0100
0010
0100
1010
0100
0001
0010
0100
1000
0011
0100
0001
1000
0011
0100
,
1010
0100
0001
1000
0011
0100
0010
1000
0110
0001
0100
1000
0110
0001
1000
0001
,
1100
0010
0100
0001
1100
0010
0100
0001
1100
0010
0100
0001
1100
0010
0100
0001
,
1100
0011
0100
1000
0011
0011
0100
1000
,
0011
0011
0100
1000
0010
1000
0020
0000
,
1130
1100
0010
0001
1100
1100
0010
0001
,
1100
0010
0001
0000
0110
1000
0001
0000
2002
0000
0000
0000
0000
0000
0000
0000
,
3013
0000
1100
0000
0010
0100
0011
0000
1000
0000
0101
0000
1000
0001
1100
0000
,
0010
0000
1100
0000
0010
0100
0011
0000
0100
0000
1001
0000
0100
0001
1010
0000
,
0100
0000
1001
0000
0010
0100
0011
0000
0100
0000
1010
0000
0100
0010
1001
0000
,
0100
0000
1010
0000
1000
0001
0110
0000
1000
0000
0011
0000
0100
0001
1100
0000
,
0100
0000
0011
0000
0100
0010
1100
0000
0001
0000
1010
0000
0001
1000
0011
0000
,
0100
0000
0011
0000
0100
0010
1100
0000
0010
0000
1001
0000
0010
1000
0101
0000
,
1100
0010
0100
0001
0110
1000
0001
0010
1100
0010
0100
0001
0110
1000
0001
0100
,
0001
0010
0100
1000
0001
0010
0100
1000
0001
0010
0100
1000
0001
0010
0100
1000
,
0110
0000
1000
0001
1000
0001
1000
0001
1000
0001
1000
0001
1000
0001
1000
0001
,
1100
0000
0001
0100
0001
0100
0011
0000
1000
0100
0010
0001
0110
0001
1000
0001
,
0110
0000
0001
1000
0001
1000
0001
1000
0001
1000
0001
1000
0001
1000
0001
1000
,
0011
0000
1000
0010
1000
0010
1100
0000
0001
0010
0100
1000
0110
1000
0001
1000
,
0011
0000
1000
0010
1000
0010
1000
0010
1000
0010
1000
0010
1000
0010
1000
0010
,
1100
0000
0001
0010
0001
0010
1100
0000
1000
0010
0100
0001
1100
0001
1000
0000
,
0011
0000
1000
0010
1000
0010
1000
0010
1000
0010
1000
0010
1000
0010
1000
0010
,
1100
0001
1000
0001
1000
0000
0010
0000
0110
0001
0100
0001
0100
0000
0010
0000
,
1010
1001
0101
1001
0110
1010
0110
0101
,
2001
0000
0011
0000
0110
3000
1001
0000
,
1011
0100
1000
0100
1011
0100
0001
0100
,
1011
0000
1110
0000
1010
0011
0011
0011
,
1100
0010
1100
0001
1100
0010
1100
0001
1100
0010
1100
0001
1100
0010
1100
0001
,
1010
0100
0001
0010
1100
0010
0100
0001
0110
1000
0010
0100
0011
0100
1000
0001
,
0110
1001
1010
1010
,
0110
0110
0101
0101
,
1001
0000
0110
0000
1000
0001
1100
0000
0010
0000
0110
0000
0001
1000
0011
0000
,
1001
0000
0101
0000
1000
0010
1100
0000
0010
0000
0101
0000
1000
0100
0011
0000
,
1001
0000
0011
0000
0010
0100
1010
0000
0100
0000
1001
0000
0100
0001
1100
0000
,
1001
0000
0110
0000
1000
0001
1100
0000
0010
0000
1001
0000
0100
0001
1100
0000
,
1001
0000
0011
0000
0100
0010
1001
0000
0100
0000
0011
0000
0100
0001
1100
0000
,
1001
0000
0110
0000
1000
0001
1100
0000
0010
0000
1001
0000
0100
0001
1100
0000
,
1001
0000
0110
0000
1000
0001
0110
0000
1000
0000
0011
0000
1000
0001
1100
0000
,
0011
1000
0001
1000
0011
1000
0001
1000
0011
1000
0001
1000
0011
1000
0001
1000
,
0110
0001
0010
1000
0001
0100
0001
1000
0100
0010
0001
1000
0010
0100
0001
0010
,
1100
0000
0101
1001
1010
1001
0101
1001
,
0100
0000
1010
0000
0001
0010
0101
0000
1000
0000
0110
0000
1000
0001
0110
0000
,
0001
0000
1100
0000
0001
0010
0101
0000
1000
0000
0011
0000
1000
0100
1010
0000
,
1001
0010
0100
1000
0010
1000
0001
0100
0001
1000
0100
0010
0001
1000
0001
0100
,
0011
1000
0001
1000
0100
0010
0001
1000
0001
0100
0001
1000
0010
0100
0010
1000
,
0110
1000
0001
0100
0010
1000
0001
0100
0001
1000
0100
0010
0100
1000
0010
1000
,
0011
0000
0000
0000
0000
0000
0000
0000
0000
0000
0000
0000
0000
0000
0000
0000
0110
0000
1000
0000
0000
0000
0000
0000
0000
0000
0000
0000
0000
0000
0000
0000
1100
0000
0010
0001
0000
0000
0000
0000
0000
0000
0000
0000
0000
0000
0000
0000
0000
0000
0000
0000
0000
0000
0000
0000
0000
0000
0000
0000
0000
0000
0000
0000
,
1100
0001
1000
0001
0100
0010
1000
0001
0100
0001
1000
0100
0010
0001
1000
0001
,
0110
0001
1000
0010
1000
0010
0100
0001
0010
0100
1000
0010
1000
0100
0010
0001
,
1100
0001
1000
0010
0100
0001
1000
0001
0010
0100
1000
0010
1000
0001
0100
0001
,
1010
0001
1000
0010
0100
0001
0010
0100
1000
0010
0100
0001
1000
0100
0010
0001
,
1010
0100
1000
0010
1000
0001
0100
0001
1000
0001
0010
0100
1000
0001
0100
0010
,
1100
0010
0100
0001
1000
0001
0010
0100
1000
0010
1000
0001
0100
0001
1000
0100
,
1010
0001
0100
0001
0010
0100
1000
0010
1000
0100
1000
0010
0100
0001
0010
0100
,
1000
0001
0110
0000
1001
0000
0010
0100
0011
0000
1001
0000
1000
0001
0110
0000
,
0011
1000
0001
1000
0010
0100
0001
1000
0010
1000
0001
0010
0100
1000
0001
1000
,
0110
1000
0001
0100
0001
0100
0010
1000
0100
0010
0001
0100
0001
0010
0100
1000
,
0011
1000
0001
0100
0010
1000
0001
1000
0100
0010
0001
0100
0001
1000
0010
1000
,
0101
1000
0001
0100
0010
1000
0100
0010
0001
0100
0010
1000
0001
0010
0100
1000
,
0101
0010
0001
0100
0001
1000
0010
1000
0001
1000
0100
0010
0001
1000
0010
0100
,
0011
0100
0010
1000
0001
1000
0100
0010
0001
0100
0001
1000
0010
1000
0001
0100
,
0011
1000
0010
1000
0100
0010
0001
0100
0001
0010
0001
0100
0010
1000
0100
0010
,
0101
1000
0010
0100
0001
1000
0010
0100
1001
0000
0000
0000
0000
0000
0000
0000
,
1001
0100
0010
0001
1000
0001
0100
0001
1000
0010
0100
0001
0010
0100
1000
0010
,
1100
0001
1000
0001
0100
0001
0010
0100
1000
0010
1000
0100
1000
0010
0100
0001
,
1100
0010
1000
0001
1000
0010
1000
0001
0110
0001
0100
0010
0100
0001
0100
0010
,
1001
0100
0010
0001
0010
0100
1000
0100
0010
0001
1000
0001
0100
0010
0100
0001
,
1010
0100
0011
1000
0101
0010
1100
0000
,
0001
0001
0001
0000
1001
0000
0000
0000
0100
0000
0001
0000
0010
0000
0100
0000
,
1000
1000
1000
0000
1010
0000
0001
0000
1000
1000
1000
0000
1010
0000
0001
0000
,
1000
1000
1000
0000
0100
0000
0010
0000
1001
0000
0000
0000
2020
0000
0000
3030
,
1001
0010
0100
1000
0011
0000
0100
0010
,
1000
1000
1000
1000
0100
0100
0100
0100
0010
0010
0010
0010
0100
0100
0100
0100
,
0010
0001
0010
0001
2000
0000
3020
0000
0130
0001
0100
0001
0200
0000
0320
0000
,
1030
1000
1000
0000
0100
0000
0010
0000
0001
0000
0000
0000
2000
0000
0000
0000
,
3100
0000
0011
0000
0100
0010
1100
0000
0001
0000
1010
0000
0001
1000
0011
0000
,
0100
0000
0011
0000
0100
0010
1100
0000
0010
0000
1001
0000
0010
1000
0101
0000
,
0010
0000
1001
0000
0100
0010
1100
0000
0010
0000
0101
0000
0010
0100
1001
0000
,
0010
0000
0101
0000
0001
1000
0110
0000
0001
0000
1100
0000
0010
1000
0011
0000
,
0010
0000
1100
0000
0010
0100
0011
0000
1000
0000
0101
0000
1000
0001
1100
0000
,
0010
0000
1100
0000
0010
0100
0011
0000
0100
0000
1001
0000
0100
0001
1010
0000
,
0001
0010
0100
0010
1000
0010
0100
0001
1000
0001
0010
0100
0010
0100
1000
0001
,
1000
0100
0010
0001
1000
0100
0010
0001
1000
0100
0010
0001
1000
0100
0010
0001
,
0110
0000
0001
1000
0001
1000
0001
1000
0001
1000
0001
1000
0001
1000
0001
1000
,
0011
0000
1000
0010
1000
0010
1100
0000
0001
0010
0100
1000
0110
1000
0001
1000
,
0110
0000
1000
0001
1000
0001
1000
0001
1000
0001
1000
0001
1000
0001
1000
0001
,
1100
0000
0001
0100
0001
0100
0011
0000
1000
0100
0010
0001
0110
0001
1000
0001
,
1100
0000
0001
0100
0001
0100
0001
0100
0001
0100
0001
0100
0001
0100
0001
0100
,
0011
0000
1000
0100
1000
0100
0011
0000
0001
0100
0010
1000
0011
1000
0001
0000
,
1100
0000
0001
0100
0001
0100
0001
0100
0001
0100
0001
0100
0001
0100
0001
0100
,
0011
1000
0001
0100
0010
1000
0001
0100
0011
1000
0001
0100
0010
1000
0001
0100
,
1001
0110
1010
1001
0110
0101
0110
1010
,
1002
1100
0110
1010
0110
1013
1001
0101
,
1101
0010
0001
0010
1101
0010
1000
0010
,
1101
0000
0000
0000
0111
0000
0000
0000
0101
0010
1000
0000
0010
0100
1000
0000
,
0011
0100
0011
1000
0011
0100
0011
1000
0011
0100
0011
1000
0011
0100
0011
1000
,
0101
0010
1000
0100
0011
0100
0010
1000
0110
0001
0100
0010
1100
0010
0001
1000
,
0110
1001
0101
0101
,
0110
0110
1010
1010
,
1001
0000
0110
0000
0001
1000
0011
0000
0100
0000
0110
0000
1000
0001
1100
0000
,
1001
0000
1010
0000
0001
0100
0011
0000
0100
0000
1010
0000
0001
0010
1100
0000
,
1001
0000
1100
0000
0100
0010
0101
0000
0010
0000
1001
0000
0010
1000
0011
0000
,
1001
0000
0110
0000
0001
1000
0011
0000
0100
0000
1001
0000
0010
1000
0011
0000
,
1001
0000
1100
0000
0010
0100
1001
0000
0010
0000
1100
0000
0010
1000
0011
0000
,
1001
0000
0110
0000
0001
1000
0011
0000
0100
0000
1001
0000
0010
1000
0011
0000
,
1001
0000
0110
0000
0001
1000
0110
0000
0001
0000
1100
0000
0001
1000
0011
0000
,
1100
0001
1000
0001
1100
0001
1000
0001
1100
0001
1000
0001
1100
0001
1000
0001
,
0110
1000
0100
0001
1000
0010
1000
0001
0010
0100
1000
0001
0100
0010
1000
0100
,
0011
0000
1010
1001
0101
1001
1010
1001
,
0010
0000
0101
0000
1000
0100
1010
0000
0001
0000
0110
0000
0001
1000
0110
0000
,
1000
0000
0011
0000
1000
0100
1010
0000
0001
0000
1100
0000
0001
0010
0101
0000
,
1001
0100
0010
0001
0100
0001
1000
0010
1000
0001
0010
0100
1000
0001
1000
0010
,
1100
0001
1000
0001
0010
0100
1000
0001
1000
0010
1000
0001
0100
0010
0100
0001
,
0110
0001
1000
0010
0100
0001
1000
0010
1000
0001
0010
0100
0010
0001
0100
0001
,
1100
0110
0011
0000
,
0011
1000
0001
1000
0010
0100
0001
1000
0010
1000
0001
0010
0100
1000
0001
1000
,
0110
1000
0001
0100
0001
0100
0010
1000
0100
0010
0001
0100
0001
0010
0100
1000
,
0011
1000
0001
0100
0010
1000
0001
1000
0100
0010
0001
0100
0001
1000
0010
1000
,
0101
1000
0001
0100
0010
1000
0100
0010
0001
0100
0010
1000
0001
0010
0100
1000
,
0101
0010
0001
0100
0001
1000
0010
1000
0001
1000
0100
0010
0001
1000
0010
0100
,
0011
0100
0010
1000
0001
1000
0100
0010
0001
0100
0001
1000
0010
1000
0001
0010
,
0101
1000
0010
1000
0100
0010
0001
0100
0001
0010
0001
0100
0010
1000
0001
1000
,
0110
1000
0001
0010
1100
0010
0001
1000
0110
0001
1000
0010
1100
0010
0001
1000
,
0110
0001
1000
0001
0100
0010
1000
0001
0100
0001
1000
0100
0010
0001
1000
0001
,
0110
0001
1000
0010
1000
0010
0100
0001
0010
0100
1000
0010
1000
0100
0010
0001
,
1100
0001
1000
0010
0100
0001
1000
0001
0010
0100
1000
0010
1000
0001
0100
0001
,
1010
0001
1000
0010
0100
0001
0010
0100
1000
0010
0100
0001
1000
0100
0010
0001
,
1010
0100
1000
0010
1000
0001
0100
0001
1000
0001
0010
0100
1000
0001
0100
0010
,
1100
0010
0100
0001
1000
0001
0010
0100
1000
0010
1000
0001
0100
0001
1000
0010
,
1100
0001
0100
0001
0010
0100
1000
0010
1000
0100
1000
0010
0100
0001
0010
0100
,
1010
0001
0100
0010
1000
0001
0100
0010
1001
0000
0000
0000
0000
0000
0000
0000
,
1001
0010
0100
1000
0001
1000
0010
1000
0001
0100
0010
1000
0100
0010
0001
0100
,
0011
1000
0001
1000
0010
1000
0100
0010
0001
0100
0001
0010
0001
0100
0010
1000
,
0011
0100
0001
1000
0001
0100
0001
1000
0110
1000
0010
0100
0010
1000
0010
0100
,
1001
0010
0100
1000
0100
0010
0001
0010
0100
1000
0001
1000
0010
0100
0010
1000
,
0101
0000
0100
0000
0010
0000
0001
0000
0010
0100
1000
0001
0010
0100
1000
0001
,
0110
1000
0100
0010
0002
0000
0000
0003
,
1010
0100
0001
1000
0101
0010
1000
0001
,
1010
0100
0001
1000
0101
0010
1000
0001
,
1001
0000
0000
0100
0000
0000
0010
0000
0000
0100
0000
0000
0010
0000
0000
0001
0000
0000
1000
0000
0000
0001
0000
0000
1000
0000
0000
0000
0010
0000
0000
0000
0100
0000
0000
0000
0002
0000
0000
0000
0000
0000
0003
0000
0000
0000
0000
0000
,
1100
0100
0110
0010
0011
0010
0110
0100
,
0110
1000
0100
0010
0100
1000
0100
0010
1001
0010
0100
0010
0001
0010
0100
0010
,
1100
0010
0001
0100
0022
0230
0320
0230
,
0313
1000
0001
0100
0010
1000
0001
0100
0001
1000
0001
0100
0010
1000
0001
1000
,
0110
0010
0011
0010
0110
0100
1100
0100
,
0110
0011
0110
1100
0110
0011
0110
1100
,
0010
0100
1000
0100
0010
0001
0010
0001
0010
0100
0010
0100
1000
0010
1000
0010
,
1100
0001
1000
0001
1000
0100
0010
0001
1000
0001
1000
0001
1000
0100
0010
0001
,
0110
0100
1100
0100
0110
0100
1100
0100
,
0011
0101
0110
1010
0011
0101
0110
1010
,
0001
0000
0000
1000
0000
0000
0010
0000
0000
0100
0000
0000
0001
0000
0100
0000
0010
0000
1000
0000
0100
0000
0010
0000
,
0001
0100
0010
1000
0010
1000
0100
0010
0001
1000
0100
0010
0001
0010
0100
0010
,
0001
0100
0001
0100
0001
1000
0001
1000
0010
1000
0010
1000
0001
1000
0001
1000
,
0101
0010
0001
1100
0001
0100
0010
1000
0001
0110
0001
1000
,
0100
0010
0001
1100
0010
1000
0010
0100
0010
1001
0100
1000
,
0010
0100
0001
1100
0001
0010
0100
0010
0001
1100
0010
0100
,
0010
1000
0001
0110
0001
1000
0001
0100
0001
1010
0100
0010
,
0001
1000
0001
1100
0001
0010
0100
0010
0100
1001
0010
0100
,
0010
0100
0001
1100
0001
0100
0010
1000
0001
0110
0001
1000
,
0001
0100
0001
1100
0010
1000
0001
0010
0001
1010
0001
1000
,
0010
0100
0001
1100
0010
0100
0001
0010
0001
0110
1000
0010
,
1001
0100
1000
0011
1000
0010
1100
0001
1000
0110
1000
0001
,
0110
0001
1000
0011
0100
0001
1100
0010
1000
0101
0010
0001
,
1100
0010
1000
0011
1000
0001
1100
0001
1000
0011
0100
0010
,
1100
0001
1000
0110
0001
0010
1100
0010
1000
0101
0010
0100
,
1010
0001
1000
0011
1000
0100
1010
0001
1000
0011
0100
0010
,
1100
0010
1000
0101
1000
0001
0110
1000
0001
0110
1000
0001
,
1100
0010
1000
0011
0100
0001
1010
0001
1000
0101
1000
0001
,
0220
0000
0000
0000
0000
0000
0000
0300
0200
0000
0000
0000
0000
0000
0000
0330
,
1001
0000
0000
0000
0000
0000
0001
0000
0000
0000
0000
0000
1000
0000
0000
0001
0000
0000
1000
0000
0000
0000
0000
0000
0001
0000
0000
0000
0100
0000
0000
0000
0010
0000
0000
0000
1000
0000
0000
0100
0000
0000
0010
0000
0000
0100
0000
0000
,
0001
0000
0000
0000
0000
0000
0001
0000
0000
0000
0000
0000
0010
0000
0000
0001
0000
0000
0010
0000
0000
0000
0000
0000
0100
0000
0000
0000
1000
0000
0000
0000
0100
0000
0000
0000
0010
0000
0000
0100
0000
0000
0020
0000
0000
0000
0000
0000
,
0031
0001
0000
0100
0010
0000
1000
0000
,
0200
0000
0000
0000
0000
0000
0000
0300
,
1000
0100
1000
0100
0010
0100
0010
0100
1000
0100
1000
0100
0010
0001
0010
0001
,
1000
0100
0010
0100
0010
0001
0100
0010
1000
0100
0010
0100
0010
0001
0100
0010
,
1000
1000
0100
0100
0010
0010
0100
0100
0001
0001
0010
0010
0100
0100
0010
0010
,
1000
0100
0010
0100
0010
0001
0010
0100
1000
0100
0010
0100
0010
0001
0010
0100
,
1000
0100
0000
0020
0000
0000
0032
0000
,
0103
0010
0000
2000
0000
0000
3200
0000
,
0320
0000
0000
0032
0000
0000
0023
0000
,
0130
0000
1000
0020
0000
0000
0000
0000
,
1030
0001
1000
0001
0010
0100
1000
0001
1000
0001
0010
0100
1000
0001
1000
0001
,
1000
0001
1000
0001
0010
0100
1000
0001
1000
0001
0010
0100
1000
0001
1000
0001
,
0010
0100
0010
0100
0010
0100
0010
0100
0010
0001
1000
0001
0100
0010
1000
0100
,
0020
0000
0000
0000
0002
0030
0020
0003
0002
0030
0020
0003
0002
0030
0020
0003
,
2230
0000
0000
0000
0000
0000
0000
0300
0200
0000
0000
0000
0000
3000
1300
0000
,
0100
0010
0100
0001
0100
0010
2000
0000
,
3100
0000
0000
0000
0010
0000
0000
0000
0001
0000
0000
0000
0100
0000
0000
0000
0010
0000
0000
0000
1000
0000
0000
0000
0100
0000
0000
0000
0010
0000
0000
0000
0001
0000
0000
0000
0010
0000
0000
0100
0000
0000
1000
0000
0000
0001
0000
0000
,
1000
0000
0010
0000
1000
0000
0000
0000
0100
0000
0000
0000
0010
0000
0000
0000
0002
0000
0000
0000
0000
0000
0000
0000
0013
0002
0000
0000
0000
0000
0000
0000
,
2003
0000
0000
0000
0000
0000
0000
3000
0200
0000
0000
0000
0000
0300
0010
0001
,
0020
0000
0000
0000
0000
0000
1030
0100
,
1000
0001
0100
0010
1000
0100
0010
0100
0010
0001
0100
0010
1000
0001
0100
0010
,
1000
0100
1000
0100
0010
0001
0100
0001
1000
0100
0010
0100
0010
0001
0100
0001
,
1100
0000
0001
0000
0100
0000
0001
0000
1000
0100
0010
0100
0011
0100
2020
0000
,
0000
0000
3130
0001
0100
0010
0200
0000
0000
0000
0000
0000
0000
0000
0300
0000
,
1001
0010
0100
1000
0010
1000
0100
0010
0001
0100
0010
1000
0011
0000
1000
0000
,
0100
0000
0000
0000
1000
0000
0000
0000
0100
0000
0000
0000
0010
0000
0000
0000
0000
0000
0000
0000
0100
0000
0000
0000
0010
0002
0000
0000
0000
0000
0000
0000
,
1103
0010
0100
0000
1001
0000
0100
0010
1000
0001
0100
0001
1100
0010
1100
0001
,
1000
0000
0000
0000
0100
0000
0000
0000
0010
0000
0000
0000
0100
0000
0000
0000
0010
0000
0000
0000
0001
0000
0000
0000
1000
0000
0000
0000
0001
0000
0000
0000
0020
0000
0000
0000
0000
0000
0000
0000
0230
0000
0000
0000
0000
0000
0000
0000
2300
0000
0000
0000
0000
0000
0000
0000
0000
0000
0000
0000
0000
0000
0000
3000
,
1001
0000
0100
0001
0100
0010
1000
0010
0200
0000
0320
0000
2130
0000
3001
0010
,
1000
0001
0010
1000
0001
0010
1000
0001
0010
0001
0100
0010
0001
0100
0010
0001
,
0100
0100
0001
0001
0100
0100
1000
1000
0100
0100
0001
0001
0010
0100
1000
0100
,
0010
0001
0000
0000
1000
0001
0000
0000
0010
0100
0000
0000
1000
0001
0000
0000
0100
0000
0010
0000
1000
0000
0010
0000
0100
0000
0001
0000
1000
0000
0001
0000
,
1000
1000
0100
0100
0010
0010
0100
0100
0010
0010
0001
0001
0100
0100
0010
0010
,
1100
0000
0000
0110
0000
0000
0101
0000
0002
0000
0000
0000
0000
0000
0000
0003
,
1001
0100
0010
0001
1000
0001
0100
0001
1000
0100
0010
0001
1010
0100
0011
0100
,
1000
0001
0100
0001
1000
0001
0100
0010
1000
0010
0100
0010
0200
0000
0000
0000
,
1301
0000
0010
0000
1000
1000
1000
0000
0010
0000
0001
0000
1000
1000
1000
0000
,
0001
1000
0010
0100
0001
1000
0001
0010
0100
1000
0001
0100
0020
0000
0000
0000
0000
0000
0230
0000
0000
0000
0000
0000
,
2301
3010
0100
1002
0013
0100
2001
3100
,
1020
0132
0013
0100
2001
3100
1200
0310
,
1002
0103
0010
2001
3100
0012
1003
0100
,
0002
0010
0023
1000
0001
0100
1000
0031
,
0100
1000
0010
0200
0000
0310
1000
0001
,
2000
3200
2300
3200
0320
0230
0302
0000
,
0013
0000
0100
0000
1000
0000
0010
0000
0100
0000
0001
0000
0010
0000
0000
0100
0000
0000
0010
0000
0000
1000
0000
0000
,
0010
0001
0100
1000
0020
0000
0000
0000
,
1030
0000
0100
0010
0001
0010
0100
1000
0010
0100
0001
0010
0100
0010
0100
1000
,
0100
0000
0010
0000
0100
0000
0010
0000
0001
0010
0100
0010
0002
0000
0003
0000
,
0010
0100
1000
0020
0032
0023
0030
0000
,
1000
0000
0100
0010
0200
0000
0000
0300
,
0020
0031
0100
0020
0031
0100
0020
2030
,
3100
0010
0100
0001
0100
0010
0100
1000
,
0100
0010
0100
0010
0100
0010
0100
0000
0001
0010
0001
0010
0001
0010
0001
0000
,
0100
0010
0100
0010
0100
0010
0100
0000
1000
0010
1000
0010
1000
0010
1000
0000
,
0001
0010
1000
0001
0100
1000
0010
0100
,
0001
0000
0010
0000
0100
0000
1000
0100
0010
0100
1000
0000
0001
0000
0000
0000
,
1000
0010
0100
0001
1000
0010
0100
0001
1000
0100
0010
0100
1000
0001
0010
0100
,
1000
0000
0000
0000
0100
0000
0000
0000
0010
0000
0000
0000
0000
0000
0000
0000
0100
0000
0000
0000
0010
0000
0000
0000
0001
0000
0000
0000
0000
0000
0000
0000
0200
0000
0000
0000
0000
0000
0000
0000
0000
0000
0000
0000
0000
0000
0000
0000
0320
0000
0000
0000
0000
0000
0000
0000
0000
0000
0000
0000
0000
0000
0000
0030
,
1010
0000
0000
0000
,
0000
0000
0000
0000
,
0000
0000
0000
0000
,
0000
0000
0000
0000
0000
0000
0000
0000
1100
0001
1000
0010
1100
0001
1000
0010
,
1100
0001
0100
0010
1000
0001
0100
0010
1100
0001
1000
0001
0100
0010
1000
0001
,
0100
0001
1000
0100
0010
0001
1000
0001
0110
0001
1000
0010
1000
0010
0100
0001
,
0010
0100
1000
0010
1000
0100
0010
0001
1100
0001
1000
0010
0100
0001
1000
0001
,
0010
0100
1000
0010
1000
0001
0100
0001
1010
0001
1000
0010
0100
0001
0010
0100
,
1000
0010
0100
0001
1000
0100
0010
0001
1010
0100
1000
0010
1000
0001
0100
0001
,
1000
0001
0010
0100
1000
0001
0100
0010
1100
0010
0100
0001
1000
0001
0010
0100
,
1000
0010
1000
0001
0100
0001
1000
0010
1100
0001
0100
0001
0010
0100
1000
0010
,
1000
0100
1000
0010
0100
0001
0010
0100
1000
1000
1000
0000
0100
0000
0010
0000
,
0001
0001
0001
0000
0010
0000
0100
0000
1100
0001
1000
0001
0100
0010
1000
0001
,
0100
0001
1000
0100
0010
0001
1000
0001
0110
0001
1000
0010
1000
0010
0100
0001
,
0010
0100
1000
0010
1000
0100
0010
0001
1100
0001
1000
0010
0100
0001
1000
0001
,
0010
0100
1000
0010
1000
0001
0100
0001
1010
0001
1000
0010
0100
0001
0010
0100
,
1000
0010
0100
0001
1000
0100
0010
0001
1010
0100
1000
0010
1000
0001
0100
0001
,
1000
0001
0010
0100
1000
0001
0100
0010
1100
0010
0100
0001
1000
0001
0010
0100
,
1000
0010
1000
0001
0100
0001
1000
0100
1010
0001
0100
0001
0010
0100
1000
0010
,
1000
0100
1000
0010
0100
0001
0010
0100
1001
0100
0001
1000
0110
1000
0001
0010
,
1001
0100
1000
0010
0200
0000
0000
0000
0311
1000
0001
1000
0010
0100
0001
1000
,
0010
1000
0001
0010
0100
1000
0001
1000
0110
1000
0001
0100
0001
0100
0010
1000
,
0100
0010
0001
0100
0001
0010
0100
1000
0011
1000
0001
0100
0010
1000
0001
1000
,
0100
0010
0001
0100
0001
1000
0010
1000
0101
1000
0001
0100
0010
1000
0100
0010
,
0001
0100
0010
1000
0001
0010
0100
1000
0101
0010
0001
0100
0001
1000
0010
1000
,
0001
1000
0100
0010
0001
1000
0010
0100
0011
0100
0010
1000
0001
1000
0100
0010
,
0001
0100
0001
1000
0010
1000
0001
0100
0011
1000
0010
1000
0100
0010
0001
0100
,
0001
0010
0001
0100
0010
1000
0100
0010
0101
1000
0010
0100
0001
1000
0010
0100
,
1001
0000
0000
0000
0000
0000
0000
0000
1001
0100
0010
0001
1000
0001
0100
0001
,
1000
0010
0100
0001
0010
0100
1000
0010
1100
0001
1000
0001
0100
0001
0010
0100
,
1000
0010
1000
0100
1000
0010
0100
0001
1100
0010
1000
0001
1000
0010
1000
0001
,
0110
0001
0100
0010
0100
0001
0100
0010
1001
0000
0010
1000
0001
0100
0001
1000
,
0100
0010
0001
1000
0001
0010
0100
1000
0020
0000
0000
0000
0000
0000
0000
0000
,
0000
0000
0000
0000
0030
0002
0000
0000
0000
0000
0000
0000
0000
0000
0000
0000
,
0000
0003
0200
0000
0000
0000
0000
0000
0000
0000
0000
0000
0000
0000
0300
0020
,
0000
0000
0000
0000
0000
0000
0030
0000
0000
1000
0001
0100
0001
1000
0010
0100
0010
1000
0100
0010
0001
1000
0001
0010
,
0100
1000
0010
0100
0010
0000
0000
0000
0000
0000
0000
0000
1010
0000
0000
1001
0000
0000
0101
0000
0000
1001
0000
0000
,
0110
1010
0110
0101
1001
0011
0110
1100
,
0110
0011
0101
1001
0110
1010
1001
0101
,
0110
1010
1100
0110
0110
1010
1001
0101
,
0110
1010
1100
0110
2002
0000
0000
0000
,
0000
0003
3000
0000
0000
0000
0000
0000
;
