#TITLE:Pulse;
#SUBTITLE:;
#ARTIST:Amara;
#TITLETRANSLIT:;
#SUBTITLETRANSLIT:;
#ARTISTTRANSLIT:;
#CREDIT:;
#BANNER:pulse.png;
#BACKGROUND:pulse-bg.png;
#LYRICSPATH:;
#CDTITLE:;
#MUSIC:pulse.mp3;
#OFFSET:0.209;
#SAMPLESTART:243.170;
#SAMPLELENGTH:12.000;
#SELECTABLE:YES;
#BPMS:0.000=143.000;
#STOPS:;
#BGCHANGES:;
// cache tags:
#FIRSTBEAT:4.000;
#LASTBEAT:1479.000;
#SONGFILENAME:Songs/IzzySM Keyboard Mega Pack/Pulse/pulse.sm;
#HASMUSIC:1;
#HASBANNER:1;
#MUSICLENGTH:621.871;
// end cache tags

//---------------dance-single - ----------------
#NOTES:
     dance-single:
     :
     Easy:
     4:
     0.363,0.476,0.191,0.178,0.149,1349.000,119.000,111.000,0.000,0.000:  // measure 1
0000
0000
0000
0000
,  // measure 2
1000
0000
1000
0000
,  // measure 3
0001
0000
0001
0000
,  // measure 4
0010
0000
0010
0000
,  // measure 5
0100
0000
0100
0000
,  // measure 6
1000
0100
0001
0000
,  // measure 7
1000
0010
0001
0000
,  // measure 8
0100
1000
0010
0000
,  // measure 9
0100
1000
0010
0000
,  // measure 10
1000
0010
0100
0000
,  // measure 11
0001
0010
0100
0000
,  // measure 12
1000
0010
0100
0000
,  // measure 13
0001
0010
0100
0000
,  // measure 14
0100
1000
0001
0000
,  // measure 15
0010
0001
1000
0000
,  // measure 16
0100
1000
0001
0000
,  // measure 17
0010
0001
1000
0000
,  // measure 18
1001
0100
0001
0110
,  // measure 19
1001
0010
1000
0110
,  // measure 20
1001
0100
0001
0110
,  // measure 21
1001
0010
1000
0110
,  // measure 22
1100
0010
1000
0011
,  // measure 23
1100
0001
1000
0011
,  // measure 24
1100
0010
1000
0011
,  // measure 25
1100
0001
1000
0011
,  // measure 26
1100
0100
0011
1000
,  // measure 27
0101
0100
1010
0001
,  // measure 28
1100
0100
0011
1000
,  // measure 29
0101
1100
1010
0011
,  // measure 30
1001
0100
0010
1100
,  // measure 31
1001
0010
0100
0101
,  // measure 32
1001
0000
0000
0000
0110
0000
0000
0000
1000
0000
0000
0001
0000
0000
0000
0000
,  // measure 33
0010
0010
0010
0000
,  // measure 34
2000
0001
3002
0100
,  // measure 35
0203
0010
0320
1000
,  // measure 36
2030
0001
3002
0100
,  // measure 37
0203
0010
0320
1030
,  // measure 38
2001
3010
0100
0001
,  // measure 39
1002
0013
0100
0001
,  // measure 40
2001
3010
0100
0001
,  // measure 41
1002
0013
0100
0001
,  // measure 42
2010
0100
3002
1000
,  // measure 43
0100
0010
2003
0001
,  // measure 44
0010
0100
3002
1000
,  // measure 45
0100
0010
2003
3001
,  // measure 46
0200
0000
2300
0000
3002
0000
0000
0003
,  // measure 47
0020
0000
0032
0000
2003
0000
0000
3000
,  // measure 48
0200
0000
2300
0000
3002
0000
0000
0003
,  // measure 49
0020
0000
0032
0000
2003
0000
0000
3000
,  // measure 50
0010
0101
0010
1100
,  // measure 51
0100
0011
0100
1010
,  // measure 52
0010
0101
0010
1100
,  // measure 53
0100
0000
0011
0000
0100
0000
1010
0001
,  // measure 54
0100
1001
0010
1001
,  // measure 55
1000
0110
0001
0110
,  // measure 56
0100
1001
0010
1001
,  // measure 57
1000
0110
0001
0110
,  // measure 58
1000
0011
0001
1010
,  // measure 59
1000
0101
0001
1100
,  // measure 60
1000
0011
0001
1010
,  // measure 61
1000
0101
0001
1100
,  // measure 62
1000
0110
0100
1001
,  // measure 63
1000
0110
0100
1001
,  // measure 64
0000
0001
0000
0001
,  // measure 65
0000
1000
0000
1000
,  // measure 66
0001
0010
0000
0010
,  // measure 67
0000
0010
0000
0010
,  // measure 68
0000
0010
0000
0010
,  // measure 69
1000
0010
0000
0010
,  // measure 70
1000
0100
0000
0010
,  // measure 71
0000
0100
0000
1000
,  // measure 72
1000
0100
0000
0010
,  // measure 73
0000
0100
0000
1000
,  // measure 74
0001
0010
0000
0100
,  // measure 75
0000
0010
0000
0001
,  // measure 76
0001
0010
0001
0100
,  // measure 77
0000
0010
0000
0001
,  // measure 78
0000
1000
0000
0001
,  // measure 79
0000
1000
0000
0001
,  // measure 80
0000
1000
0000
0001
,  // measure 81
0000
1000
1000
0001
,  // measure 82
0001
0100
0000
0100
,  // measure 83
0000
0010
0000
0010
,  // measure 84
0000
0100
0000
0100
,  // measure 85
0000
0010
0000
0010
,  // measure 86
1000
0010
0000
0010
,  // measure 87
0000
0100
0000
0100
,  // measure 88
0000
0010
0000
0010
,  // measure 89
0000
0100
0000
0100
,  // measure 90
0001
0100
0000
0100
,  // measure 91
0000
0010
0000
0010
,  // measure 92
0000
0100
0000
0100
,  // measure 93
0000
0010
0000
0010
,  // measure 94
0010
0010
0000
0001
,  // measure 95
0000
0100
0000
0001
,  // measure 96
0000
0010
0000
0001
,  // measure 97
0001
0100
0001
0001
,  // measure 98
2002
0000
0000
3003
,  // measure 99
0020
0000
0000
0000
0000
0000
0000
0000
0000
0000
0000
0000
0000
0030
0000
0000
,  // measure 100
0200
0000
0000
0000
0000
0000
0000
0000
0000
0000
0000
0000
0000
0300
0000
0000
,  // measure 101
0002
0000
0000
0000
0000
0000
0000
0000
0000
0000
0000
0000
0000
0003
0000
0000
,  // measure 102
1000
2000
0000
0000
,  // measure 103
3100
0200
0000
0000
,  // measure 104
0310
0020
0000
0000
,  // measure 105
0031
0002
0000
0000
,  // measure 106
1003
1000
2000
0000
0000
0000
0000
0000
,  // measure 107
3100
0100
0200
0000
0000
0000
0000
0000
,  // measure 108
0310
0010
0020
0000
0000
0000
0000
0000
,  // measure 109
0031
0001
0002
0000
0000
0000
0000
0000
,  // measure 110
1003
0100
2000
0000
0000
0000
0000
0000
,  // measure 111
3100
0001
0200
0000
0000
0000
0000
0000
,  // measure 112
0300
1000
0021
0000
0000
0000
0000
0000
,  // measure 113
0030
0100
0012
0000
0000
0000
0000
0000
,  // measure 114
1003
0001
0100
0001
,  // measure 115
0110
0010
1000
0010
,  // measure 116
1001
0001
0100
0001
,  // measure 117
0110
0010
1000
0010
,  // measure 118
1000
0010
0001
0010
,  // measure 119
0001
0010
1000
0100
,  // measure 120
1000
0010
0001
0010
,  // measure 121
0001
0010
1000
0100
,  // measure 122
1000
0001
0100
0001
,  // measure 123
1000
0010
0100
0010
,  // measure 124
1000
0001
0100
0001
,  // measure 125
1000
0010
0100
0010
,  // measure 126
1000
1000
1000
0100
,  // measure 127
1000
1000
1000
0010
,  // measure 128
1000
1000
0100
0010
,  // measure 129
1000
1000
1000
0010
,  // measure 130
0001
0100
1000
0010
,  // measure 131
0001
0100
1000
0010
,  // measure 132
0001
0100
1000
0010
,  // measure 133
1000
0010
0001
0100
,  // measure 134
1000
0010
0001
0100
,  // measure 135
1000
0010
0001
0100
,  // measure 136
0001
0010
1000
0100
,  // measure 137
0001
0010
1000
0100
,  // measure 138
1000
0001
0000
0000
0001
0000
0000
1000
0000
0001
0000
0000
0001
0000
0000
0100
,  // measure 139
0000
0000
0010
0000
0010
0000
0000
0100
0000
0010
0000
0000
0010
0000
0000
1000
,  // measure 140
0000
0001
0000
0000
0001
0000
0000
1000
0000
0001
0000
0000
0001
0000
0000
0100
,  // measure 141
0000
0010
0000
0000
0010
0000
0000
0100
0000
0010
0000
0000
0010
0000
0100
0001
,  // measure 142
1000
0010
0000
0000
0010
0000
0000
1000
0000
0010
0000
0000
0010
0000
0000
1000
,  // measure 143
0000
0100
0000
0000
0100
0000
0000
1000
0000
0100
0000
0000
0100
0000
0000
1000
,  // measure 144
0000
0001
0000
0000
0001
0000
0000
1000
0000
0001
0000
0000
0001
0000
0000
0100
,  // measure 145
0000
0010
0000
0000
0010
0000
0000
0100
0000
0010
0000
0000
0010
0000
0000
0000
,  // measure 146
0001
1000
0000
0000
1000
0000
0000
0001
0000
1000
0000
0000
1000
0000
0000
0010
,  // measure 147
0000
0000
0100
0000
0100
0000
0000
0010
0000
0100
0000
0000
0100
0000
0000
0001
,  // measure 148
0000
1000
0000
0000
1000
0000
0000
0001
0000
1000
0000
0000
1000
0000
0000
0010
,  // measure 149
0000
0100
0000
0000
0100
0000
0000
0010
0000
0100
0000
0000
0100
0000
0010
1000
,  // measure 150
0001
0100
0000
0000
0100
0000
0000
0001
0000
0100
0000
0000
0100
0000
0000
0001
,  // measure 151
0000
0010
0000
0000
0010
0000
0000
0001
0000
0010
0000
0000
0010
0000
0000
0001
,  // measure 152
0000
1000
0000
0000
1000
0000
0000
0001
0000
1000
0000
0000
1000
0000
0000
0010
,  // measure 153
0000
0100
0000
0000
0100
0000
0000
0010
0000
0100
0000
0000
0100
0000
0000
0000
,  // measure 154
1000
1001
0000
1001
,  // measure 155
0000
0110
0000
0110
,  // measure 156
0000
1001
0000
1001
,  // measure 157
0000
0110
0000
0110
,  // measure 158
1000
0110
0000
0110
,  // measure 159
0000
0011
0000
0011
,  // measure 160
0000
0101
0000
0101
,  // measure 161
0000
1010
0000
1010
,  // measure 162
0001
1100
0000
1100
,  // measure 163
0000
0101
0000
0101
,  // measure 164
0000
1010
0000
1010
,  // measure 165
0000
1100
0000
1100
,  // measure 166
0001
0110
0000
0110
,  // measure 167
0000
1010
0000
1010
,  // measure 168
0001
0000
0000
0000
1000
0000
0000
0001
0000
1000
0000
0000
1000
0000
0000
0010
,  // measure 169
0000
0100
0000
0000
0100
0000
0000
0010
0000
0100
0000
0000
1000
0000
0001
0000
,  // measure 170
1000
0001
0000
0000
1000
0000
0000
1000
0000
0001
0000
0000
1000
0000
0000
0100
,  // measure 171
0000
0000
0100
0000
0100
0000
0000
0100
0000
0010
0000
0000
0100
0000
0000
1000
,  // measure 172
0000
0001
0000
0000
1000
0000
0000
1000
0000
0001
0000
0000
1000
0000
0000
0100
,  // measure 173
0000
0010
0000
0000
0100
0000
0000
0100
0000
0010
0000
0000
0100
0000
0010
0000
,  // measure 174
1000
0010
0000
0000
1000
0000
0000
1000
0000
0010
0000
0000
1000
0000
0000
1000
,  // measure 175
0000
0100
0000
0000
1000
0000
0000
1000
0000
0100
0000
0000
1000
0000
0000
1000
,  // measure 176
0000
0001
0000
0000
0001
0000
0000
1000
0000
0001
0000
0000
0001
0000
0000
0100
,  // measure 177
0000
0010
0000
0000
0010
0000
0000
0100
0000
0010
0000
0000
0010
0000
0000
0000
,  // measure 178
0001
1000
0000
0000
0001
0000
0000
0001
0000
1000
0000
0000
0001
0000
0000
0010
,  // measure 179
0000
0000
0010
0000
0010
0000
0000
0010
0000
0100
0000
0000
0010
0000
0000
0001
,  // measure 180
0000
1000
0000
0000
0001
0000
0000
0001
0000
1000
0000
0000
0001
0000
0000
0010
,  // measure 181
0000
0100
0000
0000
0010
0000
0000
0010
0000
0100
0000
0000
0010
0000
0100
0000
,  // measure 182
0001
0100
0000
0000
0001
0000
0000
0001
0000
0100
0000
0000
0001
0000
0000
0001
,  // measure 183
0000
0010
0000
0000
0001
0000
0000
0001
0000
0010
0000
0000
0001
0000
0000
0001
,  // measure 184
0000
1000
0000
0000
1000
0000
0000
0001
0000
1000
0000
0000
1000
0000
0000
0010
,  // measure 185
0000
0100
0000
0000
0100
0000
0000
0010
0000
0100
0000
0000
0100
0000
1000
0000
,  // measure 186
1000
0010
0010
1000
,  // measure 187
0000
0010
0000
0010
,  // measure 188
0000
0100
0000
0010
,  // measure 189
0000
0100
0000
0100
,  // measure 190
0000
0010
0000
1000
,  // measure 191
0000
0100
0000
0100
,  // measure 192
0000
0100
0000
0100
,  // measure 193
0000
0100
0000
0100
,  // measure 194
0001
0100
0000
0001
,  // measure 195
0000
0100
0000
0100
,  // measure 196
0000
0010
0000
0100
,  // measure 197
0000
0010
0000
0010
,  // measure 198
0000
0100
0000
0001
,  // measure 199
0000
0010
0000
0010
,  // measure 200
0000
0010
0000
0010
,  // measure 201
0000
0010
0000
0010
,  // measure 202
2000
0000
0001
0000
0000
0000
0000
3200
,  // measure 203
0000
0000
0010
0000
0000
0000
0001
0320
,  // measure 204
0000
0000
0100
0000
0000
0000
1000
0032
,  // measure 205
0000
0000
1000
0000
0000
0000
0010
0023
,  // measure 206
0000
0000
1000
0000
0000
0000
0100
0230
,  // measure 207
0000
0001
0000
0010
,  // measure 208
1300
2000
3100
0200
,  // measure 209
0310
0020
0031
0001
,  // measure 210
0002
0000
1000
0000
0000
0000
0000
0023
,  // measure 211
0000
0000
0100
0000
0000
0000
1000
0230
,  // measure 212
0000
0000
0010
0000
0000
0000
0001
2300
,  // measure 213
0000
0000
0001
0000
0000
0000
0100
3200
,  // measure 214
0000
0000
0001
0000
0000
0000
0010
0320
,  // measure 215
0000
1000
0000
0100
,  // measure 216
0031
0002
0013
0020
,  // measure 217
0130
0200
1300
1000
,  // measure 218
2000
0100
3200
0010
,  // measure 219
0320
0001
0032
0010
,  // measure 220
0023
0100
0230
1000
,  // measure 221
2300
0010
3020
0100
,  // measure 222
0230
0001
0302
0100
,  // measure 223
0203
0010
0320
0100
,  // measure 224
1030
2000
3100
0200
,  // measure 225
0310
0020
0031
0001
,  // measure 226
0002
0000
0000
0000
0010
0000
0000
0003
0020
0000
0000
0000
0100
0000
0000
0000
,  // measure 227
0230
1000
2300
0100
,  // measure 228
3200
0010
0320
0001
,  // measure 229
0032
0100
0203
0010
,  // measure 230
0320
1000
2030
0010
,  // measure 231
3020
0100
0230
0010
,  // measure 232
0301
0002
0013
0020
,  // measure 233
0130
0200
1300
1000
,  // measure 234
1001
0001
0000
0001
,  // measure 235
0000
0010
0000
0010
,  // measure 236
0000
0001
0000
0001
,  // measure 237
0000
0010
0000
0010
,  // measure 238
1000
0010
0000
0010
,  // measure 239
0000
0100
0000
0100
,  // measure 240
0000
0001
0000
0001
,  // measure 241
0010
0000
0100
0000
0010
0000
0000
0010
,  // measure 242
1001
1000
1000
1000
,  // measure 243
1000
1000
1000
1000
,  // measure 244
1000
0100
1000
1000
,  // measure 245
0010
0010
0100
1000
,  // measure 246
0110
0001
0010
0001
,  // measure 247
0001
0001
0001
0001
,  // measure 248
0110
0001
0001
0010
,  // measure 249
0100
0001
0100
0001
,  // measure 250
1000
0001
0000
0000
1000
0000
0000
1000
0000
0001
0000
0000
1000
0000
0000
0010
,  // measure 251
0000
0000
0010
0000
0010
0000
0000
0010
0000
0100
0000
0000
0010
0000
0000
1000
,  // measure 252
0000
0001
0000
0000
1000
0000
0000
1000
0000
0001
0000
0000
1000
0000
0000
0010
,  // measure 253
0000
0100
0000
0000
0010
0000
0000
0010
0000
0100
0000
0000
0010
0000
0100
0000
,  // measure 254
1000
0100
0000
0000
1000
0000
0000
1000
0000
0100
0000
0000
1000
0000
0000
1000
,  // measure 255
0000
0010
0000
0000
1000
0000
0000
1000
0000
0010
0000
0000
1000
0000
0000
1000
,  // measure 256
0000
0001
0000
0000
0001
0000
0000
1000
0000
0001
0000
0000
0001
0000
0000
0100
,  // measure 257
0000
0010
0000
0000
0010
0000
0000
0100
0000
0010
0000
0000
0010
0000
0000
0001
,  // measure 258
0000
1000
0000
0000
0001
0000
0000
0001
0000
1000
0000
0000
0001
0000
0000
0100
,  // measure 259
0000
0000
0100
0000
0100
0000
0000
0100
0000
0010
0000
0000
0100
0000
0000
0001
,  // measure 260
0000
1000
0000
0000
0001
0000
0000
0001
0000
1000
0000
0000
0001
0000
0000
0100
,  // measure 261
0000
0010
0000
0000
0100
0000
0000
0100
0000
0010
0000
0000
0100
0000
0010
0000
,  // measure 262
0001
0010
0000
0000
0001
0000
0000
0001
0000
0010
0000
0000
0001
0000
0000
0001
,  // measure 263
0000
0100
0000
0000
0001
0000
0000
0001
0000
0100
0000
0000
0001
0000
0000
0001
,  // measure 264
0000
1000
0000
0000
1000
0000
0000
0001
0000
1000
0000
0000
1000
0000
0000
0010
,  // measure 265
0000
0100
0000
0000
0100
0000
0000
0010
0000
0100
0000
0000
0100
0000
0000
0010
,  // measure 266
0000
0010
0000
1000
,  // measure 267
0000
0010
0000
0010
,  // measure 268
0000
0100
0000
0010
,  // measure 269
0000
0100
0000
0100
,  // measure 270
0000
0010
0000
1000
,  // measure 271
0000
0100
0000
0100
,  // measure 272
0000
0100
0000
0100
,  // measure 273
0000
0100
0000
0100
,  // measure 274
0001
0100
0000
0001
,  // measure 275
0000
0100
0000
0100
,  // measure 276
0000
0010
0000
0100
,  // measure 277
0000
0010
0000
0010
,  // measure 278
0000
0100
0000
0001
,  // measure 279
0000
0010
0000
0010
,  // measure 280
1000
1000
1000
1000
,  // measure 281
1000
0100
0001
0010
,  // measure 282
1000
1000
1000
1000
,  // measure 283
1000
0010
0010
0100
,  // measure 284
1000
1000
1000
1000
,  // measure 285
1000
0010
0010
0100
,  // measure 286
1000
0010
0010
1000
,  // measure 287
0010
1000
0100
0100
,  // measure 288
1000
0010
0010
1000
,  // measure 289
0010
1000
0100
0100
,  // measure 290
1000
0001
1000
0001
,  // measure 291
0100
0001
0100
0001
,  // measure 292
1000
0001
1000
0001
,  // measure 293
0100
0001
0100
0001
,  // measure 294
1000
0001
1000
0001
,  // measure 295
1000
1000
1000
0010
,  // measure 296
1000
0001
1000
0001
,  // measure 297
1000
0100
1000
0010
,  // measure 298
0001
1000
0001
1000
,  // measure 299
0010
1000
0010
1000
,  // measure 300
0001
1000
0001
1000
,  // measure 301
0010
1000
0010
1000
,  // measure 302
0001
1000
0001
1000
,  // measure 303
0001
0010
0001
0100
,  // measure 304
0001
1000
0001
1000
,  // measure 305
0010
0000
0100
0000
0000
0000
0000
0010
,  // measure 306
1001
0001
0100
0001
,  // measure 307
0110
0010
1000
0010
,  // measure 308
1001
0001
0100
0001
,  // measure 309
0110
0010
1000
0010
,  // measure 310
1001
1000
0010
1000
,  // measure 311
0110
0100
0001
0100
,  // measure 312
1001
1000
0010
1000
,  // measure 313
0110
0010
0001
0010
,  // measure 314
1000
0010
0001
0010
,  // measure 315
0001
0010
1000
0100
,  // measure 316
1000
0010
0001
0010
,  // measure 317
0001
0010
1000
0100
,  // measure 318
0001
0100
1000
0100
,  // measure 319
1000
0100
0001
0010
,  // measure 320
0001
0100
1000
0100
,  // measure 321
1000
0100
0001
0010
,  // measure 322
1000
0001
0100
0001
,  // measure 323
1000
0010
0100
0010
,  // measure 324
1000
0001
0100
0001
,  // measure 325
1000
0010
0100
0010
,  // measure 326
0001
1000
0010
1000
,  // measure 327
0001
0100
0010
0100
,  // measure 328
0001
1000
0010
1000
,  // measure 329
0001
0100
0010
0100
,  // measure 330
1001
1000
0010
1000
,  // measure 331
0110
0100
0001
0100
,  // measure 332
1001
1000
0010
1000
,  // measure 333
0110
0100
0001
0100
,  // measure 334
1001
0001
0100
0001
,  // measure 335
0110
0010
1000
0010
,  // measure 336
1001
0001
0100
0001
,  // measure 337
0110
0100
1000
0100
,  // measure 338
0001
0100
1000
0100
,  // measure 339
1000
0100
0001
0010
,  // measure 340
0001
0100
1000
0100
,  // measure 341
1000
0100
0001
0010
,  // measure 342
1000
0010
0001
0010
,  // measure 343
0001
0010
1000
0100
,  // measure 344
1000
0010
0001
0010
,  // measure 345
0001
0010
1000
0100
,  // measure 346
0001
1000
0010
1000
,  // measure 347
0001
0100
0010
0100
,  // measure 348
0001
1000
0010
1000
,  // measure 349
0001
0100
0010
0100
,  // measure 350
1000
0001
0100
0001
,  // measure 351
1000
0010
0100
0010
,  // measure 352
1000
0001
0100
0001
,  // measure 353
1000
0010
0100
0010
,  // measure 354
1000
0010
2000
0000
,  // measure 355
3100
0010
0200
0000
,  // measure 356
0310
0001
0020
0000
,  // measure 357
0031
0010
0002
0000
,  // measure 358
1003
0010
2000
0000
,  // measure 359
3100
0010
0200
0000
,  // measure 360
0310
0001
0020
0000
,  // measure 361
0031
0010
0002
0000
,  // measure 362
1003
2000
0000
0000
,  // measure 363
3100
0200
0000
0000
,  // measure 364
0310
0020
0000
0000
,  // measure 365
0031
0002
0000
0000
,  // measure 366
1003
1000
2000
0000
0000
0000
0000
0000
,  // measure 367
3100
0100
0200
0000
0000
0000
0000
0000
,  // measure 368
0310
0010
0020
0000
0000
0000
0000
0000
,  // measure 369
0031
0001
0002
0000
0010
0000
0000
0000
,  // measure 370
2000
0000
0000
3003
;

//---------------dance-single - ----------------
#NOTES:
     dance-single:
     :
     Medium:
     8:
     0.511,0.565,0.207,0.178,0.217,1984.000,129.000,111.000,0.000,0.000:  // measure 1
0000
0000
0000
0000
,  // measure 2
1000
1000
1000
1000
,  // measure 3
0001
0001
0001
0001
,  // measure 4
0010
0010
0010
0010
,  // measure 5
0100
0100
0100
0100
,  // measure 6
1000
0001
0100
0000
0001
1000
0100
0000
,  // measure 7
1000
0001
0010
0000
0001
1000
0010
0000
,  // measure 8
0100
0010
1000
0000
0010
0100
0001
0000
,  // measure 9
0100
0010
1000
0000
0010
0100
0001
0000
,  // measure 10
1000
0001
0010
0000
0100
0100
1000
0000
,  // measure 11
0001
1000
0010
0000
0100
0100
0001
0000
,  // measure 12
1000
0001
0010
0000
0100
0100
1000
0000
,  // measure 13
0001
1000
0010
0000
0100
0100
0001
0000
,  // measure 14
0100
0010
1000
0000
0001
0001
0100
0000
,  // measure 15
0010
0100
0001
0000
1000
1000
0010
0000
,  // measure 16
0100
0010
1000
0000
0001
0001
0100
0000
,  // measure 17
0010
0100
0001
0000
1000
1000
0010
0000
,  // measure 18
1001
0000
0100
0000
0001
0001
0110
0000
,  // measure 19
1001
0000
0010
0000
1000
1000
0110
0000
,  // measure 20
1001
0000
0100
0000
0001
0001
0110
0000
,  // measure 21
1001
0000
0010
0000
1000
1000
0110
0000
,  // measure 22
1100
0000
0010
0000
1000
1000
0011
0000
,  // measure 23
1100
0000
0001
0000
1000
1000
0011
0000
,  // measure 24
1100
0000
0010
0000
1000
1000
0011
0000
,  // measure 25
1100
0000
0001
0000
1000
1000
0011
0000
,  // measure 26
1100
0101
0011
1010
,  // measure 27
0101
1100
1010
0011
,  // measure 28
1100
0101
0011
1010
,  // measure 29
0101
1100
1010
0011
,  // measure 30
1001
0010
0100
0001
0010
0001
1100
0000
,  // measure 31
1001
0100
0010
1000
0100
1000
0101
0000
,  // measure 32
1001
0000
0000
0000
0110
0000
0000
0000
1000
0000
0000
0001
0000
0000
0100
0000
,  // measure 33
0010
0100
0010
0100
0010
0000
0000
0010
,  // measure 34
2001
0001
3002
0100
,  // measure 35
0203
0010
0320
1000
,  // measure 36
2030
0001
3002
0100
,  // measure 37
0203
0010
0320
1030
,  // measure 38
2001
0000
3010
0000
0100
0100
0001
0000
,  // measure 39
1002
0000
0013
0000
0100
0100
0001
0000
,  // measure 40
2001
0000
3010
0000
0100
0100
0001
0000
,  // measure 41
1002
0000
0013
0000
0100
0100
0001
0000
,  // measure 42
2010
0000
0100
0000
3001
0002
1000
0000
,  // measure 43
0100
0000
0010
0000
1003
2000
0001
0000
,  // measure 44
0010
0000
0100
0000
3001
0002
1000
0000
,  // measure 45
0100
0000
0010
0000
1003
2000
0001
3000
,  // measure 46
0200
0000
2300
0000
3001
0002
0000
1003
,  // measure 47
0020
0000
0032
0000
1003
2000
0000
3001
,  // measure 48
0200
0000
2300
0000
3001
0002
0000
1003
,  // measure 49
0020
0000
0032
0000
1003
2000
0000
3001
,  // measure 50
0010
0101
0010
1100
,  // measure 51
0100
0011
0100
1010
,  // measure 52
0010
0101
0010
1100
,  // measure 53
0100
0000
0011
0000
0100
0000
1010
0001
,  // measure 54
0100
1001
0010
1001
,  // measure 55
1000
0110
0001
0110
,  // measure 56
0100
1001
0010
1001
,  // measure 57
1000
0110
0001
0110
,  // measure 58
1000
1000
0011
0000
0001
0001
1010
0000
,  // measure 59
1000
1000
0101
0000
0001
0001
1100
0000
,  // measure 60
1000
1000
0011
0000
0001
0001
1010
0000
,  // measure 61
1000
1000
0101
0000
0001
0001
1100
0000
,  // measure 62
1000
1000
0110
1000
0100
0100
1001
0100
,  // measure 63
1000
1000
0110
1000
0100
0100
1001
0100
,  // measure 64
0000
1000
0001
1000
0000
1000
0001
1000
,  // measure 65
0000
0001
1000
0001
0000
0001
1000
0001
,  // measure 66
0001
0001
0010
0010
0000
0001
0010
0010
,  // measure 67
0000
1000
0010
0010
0000
1000
0010
0010
,  // measure 68
0000
0001
0010
0010
0000
0001
0010
0010
,  // measure 69
1000
0100
0010
0010
0000
0100
0010
0010
,  // measure 70
1000
1000
0100
0100
0000
1000
0010
1000
,  // measure 71
0000
0001
0100
0100
0000
0010
1000
0010
,  // measure 72
1000
1000
0100
0100
0000
1000
0010
1000
,  // measure 73
0000
0001
0100
0100
0000
0010
1000
0010
,  // measure 74
0001
0001
0010
0010
0000
0001
0100
0001
,  // measure 75
0000
1000
0010
0010
0000
0100
0001
0100
,  // measure 76
0001
0001
0010
0010
0001
0001
0100
0001
,  // measure 77
0000
1000
0010
0010
0000
0100
0001
0100
,  // measure 78
0000
0010
1000
0010
0000
0100
0001
0100
,  // measure 79
0000
0100
1000
0010
0000
0010
0001
0100
,  // measure 80
0000
0010
1000
0010
0000
0100
0001
0100
,  // measure 81
0000
0100
1000
0010
1000
0010
0001
0100
,  // measure 82
0001
0100
0100
0100
0000
0100
0100
0010
,  // measure 83
0000
0010
0010
0100
0000
0010
0010
0010
,  // measure 84
0000
0100
0100
0100
0000
0100
0100
0010
,  // measure 85
0000
0010
0010
0100
0000
0010
0010
0010
,  // measure 86
1000
0010
0010
0010
0000
0010
0010
0100
,  // measure 87
0000
0100
0100
0010
0000
0100
0100
0100
,  // measure 88
0000
0010
0010
0010
0000
0010
0010
0100
,  // measure 89
0000
0100
0100
0010
0000
0100
0100
0100
,  // measure 90
0001
0100
0100
0100
0000
0100
0100
0100
,  // measure 91
0000
0010
0010
0010
0000
0010
0010
0010
,  // measure 92
0000
0100
0100
0100
0000
0100
0100
0100
,  // measure 93
0000
0010
0010
0010
0000
0010
0010
0010
,  // measure 94
0010
1000
0010
1000
0000
0100
0001
0100
,  // measure 95
0000
1000
0100
0010
0000
0100
0001
0010
,  // measure 96
0000
1000
0010
1000
0000
0100
0001
0100
,  // measure 97
0001
0100
0100
0100
0001
1000
0001
0000
,  // measure 98
2002
0000
0000
3003
,  // measure 99
0020
0000
0000
0000
0000
0000
0000
0000
0000
0000
0000
0000
0000
0030
0000
0000
,  // measure 100
0200
0000
0000
0000
0000
0000
0000
0000
0000
0000
0000
0000
0000
0300
0000
0000
,  // measure 101
0002
0000
0000
0000
0000
0000
0000
0000
0000
0000
0000
0000
0000
0003
0000
0000
,  // measure 102
1000
2000
0000
0000
,  // measure 103
3100
0200
0000
0000
,  // measure 104
0310
0020
0000
0000
,  // measure 105
0031
0002
0000
0000
,  // measure 106
1003
1000
2000
0000
0000
0000
0000
0000
,  // measure 107
3100
0100
0200
0000
0000
0000
0000
0000
,  // measure 108
0310
0010
0020
0000
0000
0000
0000
0000
,  // measure 109
0031
0001
0002
0000
0000
0000
0000
0000
,  // measure 110
1003
0100
2010
0000
0000
0000
0000
0000
,  // measure 111
3100
0001
0210
0000
0000
0000
0000
0000
,  // measure 112
0310
0100
0021
0000
0000
0000
0000
0000
,  // measure 113
0031
0100
0012
0000
0000
0000
0000
0000
,  // measure 114
1003
0100
0001
0000
0100
0100
0001
0000
,  // measure 115
0110
1000
0010
0000
1000
1000
0010
0000
,  // measure 116
1001
0100
0001
0000
0100
0100
0001
0000
,  // measure 117
0110
1000
0010
0000
1000
1000
0010
0000
,  // measure 118
1000
0100
0010
0000
0001
1000
0010
0000
,  // measure 119
0001
1000
0010
0000
1000
0001
0100
0000
,  // measure 120
1000
0100
0010
0000
0001
1000
0010
0000
,  // measure 121
0001
1000
0010
0000
1000
0001
0100
0000
,  // measure 122
1000
1000
0001
0000
0100
0100
0001
0000
,  // measure 123
1000
1000
0010
0000
0100
0100
0010
0000
,  // measure 124
1000
1000
0001
0000
0100
0100
0001
0000
,  // measure 125
1000
1000
0010
0000
0100
0100
0010
0000
,  // measure 126
1000
1000
1000
1000
1000
0100
0100
0100
,  // measure 127
1000
1000
1000
1000
1000
0010
0010
0010
,  // measure 128
1001
0000
1000
0010
0100
0100
0010
1000
,  // measure 129
1000
0010
1000
0001
1000
0010
0010
1000
,  // measure 130
0001
0100
1000
0010
,  // measure 131
0001
0100
1000
0010
,  // measure 132
0001
0100
1000
0010
,  // measure 133
1000
0010
0001
0100
,  // measure 134
1000
0010
0001
0100
,  // measure 135
1000
0010
0001
0100
,  // measure 136
0001
0010
1000
0100
,  // measure 137
0001
1000
0010
0000
1000
0010
0100
0000
,  // measure 138
1000
0001
0000
0000
0001
0000
0000
1000
0000
0001
0000
0000
0001
0000
0000
0100
,  // measure 139
0000
0000
0010
0000
0010
0000
0000
0100
0000
0010
0000
0000
0010
0000
0000
1000
,  // measure 140
0000
0001
0000
0000
0001
0000
0000
1000
0000
0001
0000
0000
0001
0000
0000
0100
,  // measure 141
0000
0010
0000
0000
0010
0000
0000
0100
0000
0010
0000
0000
0010
0000
0100
0001
,  // measure 142
1000
0010
0000
0000
0010
0000
0000
1000
0000
0010
0000
0000
0010
0000
0000
1000
,  // measure 143
0000
0100
0000
0000
0100
0000
0000
1000
0000
0100
0000
0000
0100
0000
0000
1000
,  // measure 144
0000
0001
0000
0000
0001
0000
0000
1000
0000
0001
0000
0000
0001
0000
0000
0100
,  // measure 145
0000
0010
0000
0000
0010
0000
0000
0100
0000
0010
0000
0000
0010
0000
0000
0000
,  // measure 146
0001
1000
0000
0000
1000
0000
0000
0001
0000
1000
0000
0000
1000
0000
0000
0010
,  // measure 147
0000
0000
0100
0000
0100
0000
0000
0010
0000
0100
0000
0000
0100
0000
0000
0001
,  // measure 148
0000
1000
0000
0000
1000
0000
0000
0001
0000
1000
0000
0000
1000
0000
0000
0010
,  // measure 149
0000
0100
0000
0000
0100
0000
0000
0010
0000
0100
0000
0000
0100
0000
0010
1000
,  // measure 150
0001
0100
0000
0000
0100
0000
0000
0001
0000
0100
0000
0000
0100
0000
0000
0001
,  // measure 151
0000
0010
0000
0000
0010
0000
0000
0001
0000
0010
0000
0000
0010
0000
0000
0001
,  // measure 152
0000
1000
0000
0000
1000
0000
0000
0001
0000
1000
0000
0000
1000
0000
0000
0010
,  // measure 153
0000
0100
0000
0000
0100
0000
0000
0010
0000
0100
0000
0000
0100
0000
0000
0000
,  // measure 154
1000
0001
0000
0000
1001
0000
0000
1000
0000
0001
0000
0000
1001
0000
0000
0100
,  // measure 155
0000
0000
0010
0000
0110
0000
0000
0100
0000
0010
0000
0000
0110
0000
0000
1000
,  // measure 156
0000
0001
0000
0000
1001
0000
0000
1000
0000
0001
0000
0000
1001
0000
0000
0100
,  // measure 157
0000
0010
0000
0000
0110
0000
0000
0100
0000
0010
0000
0000
0110
0000
0100
0001
,  // measure 158
1000
0010
0000
0000
0110
0000
0000
1000
0000
0010
0000
0000
0110
0000
0000
1000
,  // measure 159
0000
0010
0000
0000
0011
0000
0000
1000
0000
0010
0000
0000
0011
0000
0000
1000
,  // measure 160
0000
0001
0000
0000
0101
0000
0000
1000
0000
0001
0000
0000
0101
0000
0000
0100
,  // measure 161
0000
0010
0000
0000
1010
0000
0000
0100
0000
0010
0000
0000
1010
0000
0000
0100
,  // measure 162
0001
1000
0000
0000
1100
0000
0000
0001
0000
1000
0000
0000
1100
0000
0000
0010
,  // measure 163
0000
0000
0100
0000
0101
0000
0000
0010
0000
0100
0000
0000
0101
0000
0000
0001
,  // measure 164
0000
1000
0000
0000
1010
0000
0000
0001
0000
1000
0000
0000
1010
0000
0000
0010
,  // measure 165
0000
0100
0000
0000
1100
0000
0000
0010
0000
0100
0000
0000
1100
0000
0010
1000
,  // measure 166
0001
0100
0000
0000
0110
0000
0000
0001
0000
0100
0000
0000
0110
0000
0000
0001
,  // measure 167
0000
0010
0000
0000
1010
0000
0000
0001
0000
0010
0000
0000
1010
0000
0000
0001
,  // measure 168
0000
1000
0000
0000
1000
0000
0000
0001
0000
1000
0000
0000
1000
0000
0000
0010
,  // measure 169
0000
0100
0000
0000
0100
0000
0000
0010
0000
0100
0000
0000
1000
0000
0001
0000
,  // measure 170
1000
0001
0000
0000
1000
0000
0000
1000
0000
0001
0000
0000
1000
0000
0000
0100
,  // measure 171
0000
0000
0100
0000
0100
0000
0000
0100
0000
0010
0000
0000
0100
0000
0000
1000
,  // measure 172
0000
0001
0000
0000
1000
0000
0000
1000
0000
0001
0000
0000
1000
0000
0000
0100
,  // measure 173
0000
0010
0000
0000
0100
0000
0000
0100
0000
0010
0000
0000
0100
0000
0010
0000
,  // measure 174
1000
0010
0000
0000
1000
0000
0000
1000
0000
0010
0000
0000
1000
0000
0000
1000
,  // measure 175
0000
0100
0000
0000
1000
0000
0000
1000
0000
0100
0000
0000
1000
0000
0000
1000
,  // measure 176
0000
0001
0000
0000
0001
0000
0000
1000
0000
0001
0000
0000
0001
0000
0000
0100
,  // measure 177
0000
0010
0000
0000
0010
0000
0000
0100
0000
0010
0000
0000
0010
0000
0000
0000
,  // measure 178
0001
1000
0000
0000
0001
0000
0000
0001
0000
1000
0000
0000
0001
0000
0000
0010
,  // measure 179
0000
0000
0010
0000
0010
0000
0000
0010
0000
0100
0000
0000
0010
0000
0000
0001
,  // measure 180
0000
1000
0000
0000
0001
0000
0000
0001
0000
1000
0000
0000
0001
0000
0000
0010
,  // measure 181
0000
0100
0000
0000
0010
0000
0000
0010
0000
0100
0000
0000
0010
0000
0100
0000
,  // measure 182
0001
0100
0000
0000
0001
0000
0000
0001
0000
0100
0000
0000
0001
0000
0000
0001
,  // measure 183
0000
0010
0000
0000
0001
0000
0000
0001
0000
0010
0000
0000
0001
0000
0000
0001
,  // measure 184
0000
1000
0000
0000
1000
0000
0000
0001
0000
1000
0000
0000
1000
0000
0000
0010
,  // measure 185
0000
0100
0000
0000
0100
0000
0000
0010
0000
0100
0000
0000
0100
0000
1000
0000
,  // measure 186
1000
0000
0010
1000
0010
0000
1000
0010
,  // measure 187
0000
0000
0010
1000
0000
0000
0010
0100
,  // measure 188
0000
0000
0100
1000
0000
0000
0010
0100
,  // measure 189
0000
0000
0100
0100
0000
0000
0100
0100
,  // measure 190
0000
0000
0010
0010
0000
0000
1000
0001
,  // measure 191
0000
0000
0100
0100
0000
0000
0100
0100
,  // measure 192
0000
0000
0100
0001
0000
0000
0100
0001
,  // measure 193
0000
0000
0100
1000
0000
0000
0100
0001
,  // measure 194
0001
0000
0100
0001
0000
0000
0001
0100
,  // measure 195
0000
0000
0100
0001
0000
0000
0100
0010
,  // measure 196
0000
0000
0010
0001
0000
0000
0100
0010
,  // measure 197
0000
0000
0010
0010
0000
0000
0010
0010
,  // measure 198
0000
0000
0100
0100
0000
0000
0001
1000
,  // measure 199
0000
0000
0010
0010
0000
0000
0010
0010
,  // measure 200
0000
0000
0010
1000
0000
0000
0010
1000
,  // measure 201
0000
0000
0010
0001
0000
0000
0010
1000
,  // measure 202
2000
0000
0001
0000
0000
0000
0010
3200
,  // measure 203
0000
0010
0010
0000
0000
0000
0001
0320
,  // measure 204
0000
0000
0100
0000
0000
0000
1000
0032
,  // measure 205
0000
0000
1000
0000
0000
0000
0010
0023
,  // measure 206
0000
0000
1000
0000
0000
0000
0100
0230
,  // measure 207
0000
0001
0000
0010
,  // measure 208
1300
2000
3100
0200
,  // measure 209
0310
0000
0020
0000
0031
0000
0001
0100
,  // measure 210
0002
0000
1000
0000
0000
0000
0100
0023
,  // measure 211
0000
0100
0100
0000
0000
0000
1000
0230
,  // measure 212
0000
0000
0010
0000
0000
0000
0001
2300
,  // measure 213
0000
0000
0001
0000
0000
0000
0100
3200
,  // measure 214
0000
0000
0001
0000
0000
0000
0010
0320
,  // measure 215
0000
1000
0000
0100
,  // measure 216
0031
0002
0013
0020
,  // measure 217
0130
0000
0200
0000
1300
0000
1000
0010
,  // measure 218
2000
0100
3200
0010
,  // measure 219
0320
0001
0001
0000
0032
0000
0010
0000
,  // measure 220
0023
0100
0230
1000
,  // measure 221
2300
0010
3020
0100
,  // measure 222
0230
0001
0302
0100
,  // measure 223
0203
0010
0320
0100
,  // measure 224
1030
2000
3100
0200
,  // measure 225
0310
0000
0020
0000
0031
0000
0001
0100
,  // measure 226
0002
0000
0000
0000
0010
0000
0000
0003
0020
0000
0000
0000
0100
0000
0000
0000
,  // measure 227
0230
1000
1000
0000
2300
0000
0100
0000
,  // measure 228
3200
0010
0320
0001
,  // measure 229
0032
0100
0203
0010
,  // measure 230
0320
1000
2030
0010
,  // measure 231
3020
0100
0230
0010
,  // measure 232
0301
0002
0013
0020
,  // measure 233
0130
0000
0200
0000
1300
0000
1000
0010
,  // measure 234
1001
0000
0000
0000
0001
0000
0000
1000
0000
0001
0000
0000
0001
0000
0000
0100
,  // measure 235
0000
0000
0010
0000
0010
0000
0000
0100
0000
0010
0000
0000
0010
0000
0000
1000
,  // measure 236
0000
0001
0000
0000
0001
0000
0000
1000
0000
0001
0000
0000
0001
0000
0000
0100
,  // measure 237
0000
0010
0000
0000
0010
0000
0000
0100
0000
0010
0000
0000
0010
0000
0100
0000
,  // measure 238
1000
0010
0000
0000
0010
0000
0000
1000
0000
0010
0000
0000
0010
0000
0000
1000
,  // measure 239
0000
0100
0000
0000
0100
0000
0000
1000
0000
0100
0000
0000
0100
0000
0000
1000
,  // measure 240
0000
0001
0000
0000
0001
0000
0000
1000
0000
0001
0000
0000
0001
0000
0000
0000
,  // measure 241
0010
0000
0100
0000
0010
0000
0000
0010
,  // measure 242
1001
0000
1000
0000
1000
0000
1000
0000
1000
0000
1000
0000
1000
0000
1000
0001
,  // measure 243
1000
0000
1000
0000
1000
0000
1000
0000
1000
0000
1000
0000
1000
0000
1000
0001
,  // measure 244
1000
0000
0100
0000
0100
0000
0100
0000
1000
0000
1000
0000
1000
0000
1000
0001
,  // measure 245
0010
0010
0010
0010
0100
0100
1000
1000
,  // measure 246
0110
0000
0100
0000
0001
0000
0001
0000
0010
0000
0010
0000
0001
0000
0001
1000
,  // measure 247
0001
0001
0001
0001
0001
0001
0001
0001
,  // measure 248
0110
0100
0001
0010
0001
0100
0010
0001
,  // measure 249
0100
1000
0001
1000
0100
0010
0001
0010
,  // measure 250
1000
0001
0000
0000
1000
0000
0000
1000
0000
0001
0000
0000
1000
0000
0000
0010
,  // measure 251
0000
0000
0010
0000
0010
0000
0000
0010
0000
0100
0000
0000
0010
0000
0000
1000
,  // measure 252
0000
0001
0000
0000
1000
0000
0000
1000
0000
0001
0000
0000
1000
0000
0000
0010
,  // measure 253
0000
0100
0000
0000
0010
0000
0000
0010
0000
0100
0000
0000
0010
0000
0100
0000
,  // measure 254
1000
0100
0000
0000
1000
0000
0000
1000
0000
0100
0000
0000
1000
0000
0000
1000
,  // measure 255
0000
0010
0000
0000
1000
0000
0000
1000
0000
0010
0000
0000
1000
0000
0000
1000
,  // measure 256
0000
0001
0000
0000
0001
0000
0000
1000
0000
0001
0000
0000
0001
0000
0000
0100
,  // measure 257
0000
0010
0000
0000
0010
0000
0000
0100
0000
0010
0000
0000
0010
0000
0000
0001
,  // measure 258
0000
1000
0000
0000
0001
0000
0000
0001
0000
1000
0000
0000
0001
0000
0000
0100
,  // measure 259
0000
0000
0100
0000
0100
0000
0000
0100
0000
0010
0000
0000
0100
0000
0000
0001
,  // measure 260
0000
1000
0000
0000
0001
0000
0000
0001
0000
1000
0000
0000
0001
0000
0000
0100
,  // measure 261
0000
0010
0000
0000
0100
0000
0000
0100
0000
0010
0000
0000
0100
0000
0010
0000
,  // measure 262
0001
0010
0000
0000
0001
0000
0000
0001
0000
0010
0000
0000
0001
0000
0000
0001
,  // measure 263
0000
0100
0000
0000
0001
0000
0000
0001
0000
0100
0000
0000
0001
0000
0000
0001
,  // measure 264
0000
1000
0000
0000
1000
0000
0000
0001
0000
1000
0000
0000
1000
0000
0000
0010
,  // measure 265
0000
0100
0000
0000
0100
0000
0000
0010
0000
0100
0000
0000
0100
0000
0000
0010
,  // measure 266
0000
0000
0010
1000
0000
0000
1000
0010
,  // measure 267
0000
0000
0010
1000
0000
0000
0010
0100
,  // measure 268
0000
0000
0100
1000
0000
0000
0010
0100
,  // measure 269
0000
0000
0100
0100
0000
0000
0100
0100
,  // measure 270
0000
0000
0010
0010
0000
0000
1000
0001
,  // measure 271
0000
0000
0100
0100
0000
0000
0100
0100
,  // measure 272
0000
0000
0100
0001
0000
0000
0100
0001
,  // measure 273
0000
0000
0100
1000
0000
0000
0100
0001
,  // measure 274
0001
0000
0100
0001
0000
0000
0001
0100
,  // measure 275
0000
0000
0100
0001
0000
0000
0100
0010
,  // measure 276
0000
0000
0010
0001
0000
0000
0100
0010
,  // measure 277
0000
0000
0010
0010
0000
0000
0010
0010
,  // measure 278
0000
0000
0100
0100
0000
0000
0001
1000
,  // measure 279
0000
0000
0010
0010
0000
0000
0010
0010
,  // measure 280
1000
0000
1000
0000
1000
0000
1000
0000
1000
0000
1000
0000
1000
0000
1000
0001
,  // measure 281
1000
0000
0010
0000
0100
0000
1000
0000
0001
0000
1000
0000
0010
0000
0010
0100
,  // measure 282
1000
1000
1000
0000
1000
1000
1000
0000
,  // measure 283
1000
0100
0010
0000
0010
1000
0100
0000
,  // measure 284
1000
1000
1000
0000
1000
1000
1000
0000
,  // measure 285
1000
0100
0010
0000
0010
1000
0100
0000
,  // measure 286
1000
0010
0010
0000
0010
0010
1000
0000
,  // measure 287
0010
0100
1000
0000
0100
1000
0100
0000
,  // measure 288
1000
0010
0010
0000
0010
0010
1000
0000
,  // measure 289
0010
0100
1000
0000
0100
1000
0100
0000
,  // measure 290
1000
1000
0001
0000
1000
1000
0001
0000
,  // measure 291
0100
0100
0001
0000
0100
0100
0001
0000
,  // measure 292
1000
1000
0001
0000
1000
1000
0001
0000
,  // measure 293
0100
0100
0001
0000
0100
0100
0001
0000
,  // measure 294
1000
0010
0001
0000
1000
0100
0001
0000
,  // measure 295
1000
0001
1000
0000
1000
0001
0010
0000
,  // measure 296
1000
0010
0001
0000
1000
0100
0001
0000
,  // measure 297
1000
0001
0100
0000
1000
0001
0010
0100
,  // measure 298
0001
0001
1000
0000
0001
0001
1000
0000
,  // measure 299
0010
0010
1000
0000
0010
0010
1000
0000
,  // measure 300
0001
0001
1000
0000
0001
0001
1000
0000
,  // measure 301
0010
0010
1000
0000
0010
0010
1000
0000
,  // measure 302
0001
0100
1000
0000
0001
0010
1000
0000
,  // measure 303
0001
1000
0010
0000
0001
1000
0100
0000
,  // measure 304
0001
0100
1000
0000
0001
0010
1000
0000
,  // measure 305
0010
0000
0100
0000
0000
0000
0000
0010
,  // measure 306
1001
0100
0001
0000
0100
0100
0001
0000
,  // measure 307
0110
1000
0010
0000
1000
1000
0010
0000
,  // measure 308
1001
0100
0001
0000
0100
0100
0001
0000
,  // measure 309
0110
1000
0010
0000
1000
1000
0010
0000
,  // measure 310
1001
0010
1000
0000
0010
0010
1000
0000
,  // measure 311
0110
0001
0100
0000
0001
0001
0100
0000
,  // measure 312
1001
0010
1000
0000
0010
0010
1000
0000
,  // measure 313
0110
0100
0010
0000
0001
0100
0010
0010
,  // measure 314
1000
0100
0010
0000
0001
1000
0010
0000
,  // measure 315
0001
1000
0010
0000
1000
0001
0100
0000
,  // measure 316
1000
0100
0010
0000
0001
1000
0010
0000
,  // measure 317
0001
1000
0010
0000
1000
0001
0100
0100
,  // measure 318
0001
0010
0100
0000
1000
0001
0100
0000
,  // measure 319
1000
0001
0100
0000
0001
1000
0010
0000
,  // measure 320
0001
0010
0100
0000
1000
0001
0100
0000
,  // measure 321
1000
0001
0100
0000
0001
1000
0010
0010
,  // measure 322
1000
1000
0001
0000
0100
0100
0001
0000
,  // measure 323
1000
1000
0010
0000
0100
0100
0010
0000
,  // measure 324
1000
1000
0001
0000
0100
0100
0001
0000
,  // measure 325
1000
1000
0010
0000
0100
0100
0010
0100
,  // measure 326
0001
0001
1000
0000
0010
0010
1000
0000
,  // measure 327
0001
0001
0100
0000
0010
0010
0100
0000
,  // measure 328
0001
0001
1000
0000
0010
0010
1000
0000
,  // measure 329
0001
0001
0100
0000
0010
0010
0100
0000
,  // measure 330
1001
0010
1000
0000
0010
0010
1000
0000
,  // measure 331
0110
0001
0100
0000
0001
0001
0100
0000
,  // measure 332
1001
0010
1000
0000
0010
0010
1000
0000
,  // measure 333
0110
0001
0100
0000
0001
0001
0100
0000
,  // measure 334
1001
0100
0001
0000
0100
0100
0001
0000
,  // measure 335
0110
1000
0010
0000
1000
1000
0010
0000
,  // measure 336
1001
0100
0001
0000
0100
0100
0001
0000
,  // measure 337
0110
0010
0100
0000
1000
0010
0100
0100
,  // measure 338
0001
0010
0100
0000
1000
0001
0100
0000
,  // measure 339
1000
0001
0100
0000
0001
1000
0010
0000
,  // measure 340
0001
0010
0100
0000
1000
0001
0100
0000
,  // measure 341
1000
0001
0100
0000
0001
1000
0010
0010
,  // measure 342
1000
0100
0010
0000
0001
1000
0010
0000
,  // measure 343
0001
1000
0010
0000
1000
0001
0100
0000
,  // measure 344
1000
0100
0010
0000
0001
1000
0010
0000
,  // measure 345
0001
1000
0010
0000
1000
0001
0100
0100
,  // measure 346
0001
0001
1000
0000
0010
0010
1000
0000
,  // measure 347
0001
0001
0100
0000
0010
0010
0100
0000
,  // measure 348
0001
0001
1000
0000
0010
0010
1000
0000
,  // measure 349
0001
0001
0100
0000
0010
0010
0100
0010
,  // measure 350
1000
1000
0001
0000
0100
0100
0001
0000
,  // measure 351
1000
1000
0010
0000
0100
0100
0010
0000
,  // measure 352
1000
1000
0001
0000
0100
0100
0001
0000
,  // measure 353
1000
1000
0010
0000
0100
0100
0010
0000
,  // measure 354
1000
0100
0010
0000
2000
0000
0000
0000
,  // measure 355
3100
0001
0010
0000
0200
0000
0000
0000
,  // measure 356
0310
0100
0001
0000
0020
0000
0000
0000
,  // measure 357
0031
0100
0010
0000
0002
0000
0000
0000
,  // measure 358
1003
0100
0010
0000
2000
0000
0000
0000
,  // measure 359
3100
0001
0010
0000
0200
0000
0000
0000
,  // measure 360
0310
0100
0001
0000
0020
0000
0000
0000
,  // measure 361
0031
0100
0010
0000
0002
0000
0000
0000
,  // measure 362
1003
1000
2000
0000
0000
0000
0000
0000
,  // measure 363
3100
0100
0200
0000
0000
0000
0000
0000
,  // measure 364
0310
0010
0020
0000
0000
0000
0000
0000
,  // measure 365
0031
0001
0002
0000
0000
0000
0000
0000
,  // measure 366
1003
1000
2000
0000
0000
0000
0000
0000
,  // measure 367
3100
0100
0200
0000
0000
0000
0000
0000
,  // measure 368
0310
0010
0020
0000
0000
0000
0000
0000
,  // measure 369
0031
0001
0002
0000
0010
0000
0000
0000
,  // measure 370
2000
0000
0000
3003
;

//---------------dance-single - ----------------
#NOTES:
     dance-single:
     :
     Hard:
     10:
     0.840,0.981,0.251,0.178,1.000,3389.000,156.000,111.000,0.000,0.000:  // measure 1
0000
0000
0000
0000
,  // measure 2
1000
1000
1000
1000
,  // measure 3
0001
0001
0001
0001
,  // measure 4
0010
0010
0010
0010
,  // measure 5
0100
0100
0100
0100
,  // measure 6
1000
0001
0110
0000
0001
1000
0110
0000
,  // measure 7
1000
0001
0110
0000
0001
1000
0110
0000
,  // measure 8
0100
0010
1001
0000
0010
0100
1001
0000
,  // measure 9
0100
0010
1001
0000
0010
0100
1001
0000
,  // measure 10
1000
0000
0001
0000
0010
0000
0000
0000
0100
0010
0100
0000
1000
0000
0000
0000
,  // measure 11
0001
0000
1000
0000
0010
0000
0000
0000
0100
0010
0100
0000
0001
0000
0000
0000
,  // measure 12
1000
0000
0001
0000
0010
0000
0000
0000
0100
0010
0100
0000
1000
0000
0000
0000
,  // measure 13
0001
0000
1000
0000
0010
0000
0000
0000
0100
0010
0100
0000
0001
0000
0000
0000
,  // measure 14
0100
0000
0010
0000
1000
0000
0000
0000
0001
1000
0001
0000
0100
0000
0000
0000
,  // measure 15
0010
0000
0100
0000
0001
0000
0000
0000
1000
0001
1000
0000
0010
0000
0000
0000
,  // measure 16
0100
0000
0010
0000
1000
0000
0000
0000
0001
1000
0001
0000
0100
0000
0000
0000
,  // measure 17
0010
0000
0100
0000
0001
0000
0000
0000
1000
0001
1000
0000
0010
0000
0000
0000
,  // measure 18
1001
0000
0010
0000
0100
0000
0000
0000
0001
1000
0001
0000
0110
0000
0000
0000
,  // measure 19
1001
0000
0100
0000
0010
0000
0000
0000
1000
0001
1000
0000
0110
0000
0000
0000
,  // measure 20
1001
0000
0010
0000
0100
0000
0000
0000
0001
1000
0001
0000
0110
0000
0000
0000
,  // measure 21
1001
0000
0100
0000
0010
0000
0000
0000
1000
0001
1000
0000
0110
0000
0000
0000
,  // measure 22
1100
0000
0001
0000
0010
0000
0000
0000
1000
0100
1000
0000
0011
0000
0000
0000
,  // measure 23
1100
0000
0010
0000
0001
0000
0000
0000
1000
0100
1000
0000
0011
0000
0000
0000
,  // measure 24
1100
0000
0001
0000
0010
0000
0000
0000
1000
0100
1000
0000
0011
0000
0000
0000
,  // measure 25
1100
0000
0010
0000
0001
0000
0000
0000
1000
0100
1000
0000
0011
0000
0000
0000
,  // measure 26
1100
0000
0010
0000
0101
0000
0000
0000
0011
1000
0100
0000
1010
0000
0000
0000
,  // measure 27
0101
0000
0010
0000
1100
0000
0000
0000
1010
0001
0100
0000
0011
0000
0000
0000
,  // measure 28
1100
0000
0010
0000
0101
0000
0000
0000
0011
1000
0100
0000
1010
0000
0000
0000
,  // measure 29
0101
0000
0010
0000
1100
0000
0000
0000
1010
0001
0100
0000
0011
0000
0000
0000
,  // measure 30
1001
0000
0010
0000
0100
0000
0001
1000
0010
0100
0001
0000
1100
0000
0100
0010
,  // measure 31
1001
0000
0100
0000
0010
0000
1000
0001
0100
0010
1000
0000
0101
0000
0010
0100
,  // measure 32
1001
0000
0000
0000
0110
0000
0000
0000
1001
0000
0000
0101
0000
0000
1000
0000
,  // measure 33
0001
1000
0001
1000
0001
0000
0000
0110
,  // measure 34
2001
0001
3002
0100
,  // measure 35
0203
0010
0320
1000
,  // measure 36
2030
0001
3002
0100
,  // measure 37
0203
0010
0320
1030
,  // measure 38
2001
0000
0000
0000
3010
0000
0000
0000
0100
0010
0100
0000
0001
0000
0000
0000
,  // measure 39
1002
0000
0000
0000
0013
0000
0000
0000
0100
0010
0100
0000
0001
0000
0000
0000
,  // measure 40
2001
0000
0000
0000
3010
0000
0000
0000
0100
0010
0100
0000
0001
0000
0000
0000
,  // measure 41
1002
0000
0000
0000
0013
0000
0000
0000
0100
0010
0100
0000
0001
0000
0000
0000
,  // measure 42
2010
0000
0001
0000
0100
0000
0000
0000
3001
0100
0002
0000
1000
0000
0010
0000
,  // measure 43
0100
0000
1000
0000
0010
0000
0000
0000
1003
0010
2000
0000
0001
0000
0100
0000
,  // measure 44
0010
0000
0001
0000
0100
0000
0000
0000
3001
0100
0002
0000
1000
0000
0010
0000
,  // measure 45
0100
0000
1000
0000
0010
0000
0000
0000
1003
0010
2000
0000
0001
0000
3100
0000
,  // measure 46
0210
0000
0010
0000
2300
0000
0100
0000
3001
0010
0002
0000
0100
0000
1003
0000
,  // measure 47
0120
0000
0100
0000
0032
0000
0010
0000
1003
0100
2000
0000
0010
0000
3001
0000
,  // measure 48
0210
0000
0010
0000
2300
0000
0100
0000
3001
0010
0002
0000
0100
0000
1003
0000
,  // measure 49
0120
0000
0100
0000
0032
0000
0010
0000
1003
0100
2000
0000
0010
0000
3001
0000
,  // measure 50
0010
0101
0010
1100
,  // measure 51
0100
0011
0100
1010
,  // measure 52
0010
0101
0010
1100
,  // measure 53
0100
0000
0011
0000
0100
0000
1010
0001
,  // measure 54
0100
0010
1001
0000
0010
0100
1001
0000
,  // measure 55
1000
0001
0110
0000
0001
1000
0110
0000
,  // measure 56
0100
0010
1001
0000
0010
0100
1001
0000
,  // measure 57
1000
0001
0110
0000
0001
1000
0110
0000
,  // measure 58
1000
0100
1000
0000
0011
0000
0000
0000
0001
0100
0001
0000
1010
0000
0000
0000
,  // measure 59
1000
0010
1000
0000
0101
0000
0000
0000
0001
0010
0001
0000
1100
0000
0000
0000
,  // measure 60
1000
0100
1000
0000
0011
0000
0000
0000
0001
0100
0001
0000
1010
0000
0000
0000
,  // measure 61
1000
0010
1000
0000
0101
0000
0000
0000
0001
0010
0001
0000
1100
0000
0000
0000
,  // measure 62
1000
0001
1000
0000
0110
0000
1000
0001
0100
0010
0100
0000
1001
0000
0100
0010
,  // measure 63
1000
0001
1000
0000
0110
0000
1000
0001
0100
0010
0100
0000
1001
0000
0100
0010
,  // measure 64
0000
1000
0011
1000
0000
1000
0011
1000
,  // measure 65
0000
0001
1010
0001
0000
0001
1010
0001
,  // measure 66
0001
0000
0001
0000
0010
0100
0010
0001
0000
0000
0001
0000
0010
0100
0010
0001
,  // measure 67
0000
0000
1000
0000
0010
0100
0010
1000
0000
0000
1000
0000
0010
0100
0010
1000
,  // measure 68
0000
0000
0001
0000
0010
0100
0010
0001
0000
0000
0001
0000
0010
0100
0010
0001
,  // measure 69
1000
0000
0100
0000
0010
0001
0010
0100
0000
0000
0100
0000
0010
0001
0010
0100
,  // measure 70
1000
0000
1000
0000
0100
0010
0100
1000
0000
0001
1000
0100
0010
0100
1000
0001
,  // measure 71
0000
1000
0001
0010
0100
1000
0100
0010
0000
0001
0010
0100
1000
0100
0010
0001
,  // measure 72
1000
0000
1000
0000
0100
0010
0100
1000
0000
0001
1000
0100
0010
0100
1000
0001
,  // measure 73
0000
1000
0001
0010
0100
1000
0100
0010
0000
0001
0010
0100
1000
0100
0010
0001
,  // measure 74
0001
0000
0001
0000
0010
0100
0010
0001
0000
1000
0001
0010
0100
0010
0001
1000
,  // measure 75
0000
0001
1000
0100
0010
0001
0010
0100
0000
1000
0100
0010
0001
0010
0100
1000
,  // measure 76
0001
0000
0001
0000
0010
0100
0010
0001
0000
1000
0001
0010
0100
0010
0001
1000
,  // measure 77
0000
0001
1000
0100
0010
0001
0010
0100
0000
1000
0100
0010
0001
0010
0100
1000
,  // measure 78
0000
0001
0010
0100
1000
0100
0010
0001
0000
1000
0100
0010
0001
0010
0100
1000
,  // measure 79
0000
0001
0100
0010
1000
0100
0010
0001
0000
1000
0010
0100
0001
0010
0100
1000
,  // measure 80
0000
0001
0010
0100
1000
0100
0010
0001
0000
1000
0100
0010
0001
0010
0100
1000
,  // measure 81
0000
0001
0100
0010
1000
0100
0010
0001
0000
1000
0010
0100
0001
0010
0100
1000
,  // measure 82
0001
1000
0100
0001
0100
1000
0100
0010
0000
0001
0100
1000
0100
0001
0010
0100
,  // measure 83
0000
1000
0010
0001
0010
1000
0100
0010
0000
0001
0010
1000
0010
0001
0010
0100
,  // measure 84
0000
1000
0100
0001
0100
1000
0100
0010
0000
0001
0100
1000
0100
0001
0010
0100
,  // measure 85
0000
1000
0010
0001
0010
1000
0100
0010
0000
0001
0010
1000
0010
0001
0010
0100
,  // measure 86
1000
0001
0010
1000
0010
0001
0010
0100
0000
1000
0010
0001
0010
1000
0100
0010
,  // measure 87
0000
0001
0100
1000
0100
0001
0010
0100
0000
1000
0100
0001
0100
1000
0100
0010
,  // measure 88
0000
0001
0010
1000
0010
0001
0010
0100
0000
1000
0010
0001
0010
1000
0100
0010
,  // measure 89
0000
0001
0100
1000
0100
0001
0010
0100
0000
1000
0100
0001
0100
1000
0100
0010
,  // measure 90
0001
1000
0100
0010
0100
0001
0100
1000
0000
0001
0100
0010
0100
1000
0100
0001
,  // measure 91
0000
1000
0010
0100
0010
0001
0010
1000
0000
0001
0010
0100
0010
1000
0010
0001
,  // measure 92
0000
1000
0100
0010
0100
0001
0100
1000
0000
0001
0100
0010
0100
1000
0100
0001
,  // measure 93
0000
1000
0010
0100
0010
0001
0010
1000
0000
0001
0010
0100
0010
1000
0010
0001
,  // measure 94
0010
0100
1000
0001
0010
0100
1000
0001
0000
1000
0100
0010
0001
1000
0100
0010
,  // measure 95
0000
0100
1000
0010
0100
0001
0010
0100
0000
1000
0100
0010
0001
0100
0010
1000
,  // measure 96
0000
0100
1000
0001
0010
0100
1000
0001
0000
1000
0100
0010
0001
1000
0100
0010
,  // measure 97
0001
0010
0100
1000
0100
0001
0100
1000
0001
0010
1000
0010
0001
1000
0010
0000
,  // measure 98
2002
0000
0000
3003
,  // measure 99
0020
0000
0000
0000
0000
0000
0000
0000
0000
0000
0000
0000
0000
0030
0000
0000
,  // measure 100
0200
0000
0000
0000
0000
0000
0000
0000
0000
0000
0000
0000
0000
0300
0000
0000
,  // measure 101
0002
0000
0000
0000
0000
0000
0000
0000
0000
0000
0000
0000
0000
0003
0000
0000
,  // measure 102
1000
1000
2000
0000
0000
0000
0000
0000
,  // measure 103
3100
0100
0200
0000
0000
0000
0000
0000
,  // measure 104
0310
0010
0020
0000
0000
0000
0000
0000
,  // measure 105
0031
0001
0002
0000
0000
0000
0000
0000
,  // measure 106
1003
0100
1000
0000
0010
2000
0000
0000
0000
0000
0000
0000
0000
0000
0000
0000
,  // measure 107
3100
0010
0100
0000
1000
0200
0000
0000
0000
0000
0000
0000
0000
0000
0000
0000
,  // measure 108
0310
0001
0010
0000
0100
0020
0000
0000
0000
0000
0000
0000
0000
0000
0000
0000
,  // measure 109
0031
0100
0001
0000
0010
0002
0000
0000
0000
0000
0000
0000
0000
0000
0000
0000
,  // measure 110
1003
0010
0100
0000
0010
1000
0000
0010
2000
0000
0000
0000
0000
0000
0000
0000
,  // measure 111
3100
0010
0001
0000
0010
0100
0000
0010
0200
0000
0000
0000
0000
0000
0000
0000
,  // measure 112
0310
0001
0100
0000
0001
0010
0000
0001
0020
0000
0000
0000
0000
0000
0000
0000
,  // measure 113
0031
1000
0100
0000
0010
0001
0000
0010
0002
0000
0000
0000
0000
0000
0000
0000
,  // measure 114
1003
0000
0100
0000
0001
1000
0000
0001
0100
0010
0100
0000
0001
1000
0000
0000
,  // measure 115
0110
0000
1000
0000
0010
0100
0000
0010
1000
0001
1000
0000
0010
0100
0000
0000
,  // measure 116
1001
0000
0100
0000
0001
1000
0000
0001
0100
0010
0100
0000
0001
1000
0000
0000
,  // measure 117
0110
0000
1000
0000
0010
0100
0000
0010
1000
0001
1000
0000
0010
0100
0000
0001
,  // measure 118
1000
0000
0100
0000
0010
0001
0000
1000
0001
0010
1000
0000
0010
0001
0000
1000
,  // measure 119
0001
0000
1000
0000
0010
0100
0000
0001
1000
0100
0001
0000
0100
1000
0000
0001
,  // measure 120
1000
0000
0100
0000
0010
0001
0000
1000
0001
0010
1000
0000
0010
0001
0000
1000
,  // measure 121
0001
0000
1000
0000
0010
0100
0000
0001
1000
0100
0001
0000
0100
1000
0000
0001
,  // measure 122
1000
0100
1000
0000
0001
1000
0000
0001
0100
0010
0100
0000
0001
0100
0000
0001
,  // measure 123
1000
0010
1000
0000
0010
0100
0000
0010
0100
0001
0100
0000
0010
1000
0000
0010
,  // measure 124
1000
0100
1000
0000
0001
1000
0000
0001
0100
0010
0100
0000
0001
0100
0000
0001
,  // measure 125
1000
0010
1000
0000
0010
0100
0000
0010
0100
0001
0100
0000
0010
1000
0000
0010
,  // measure 126
1000
0100
1000
0100
1000
0100
1000
0100
1000
0001
0100
0001
0100
0001
0100
0001
,  // measure 127
1000
0010
1000
0010
1000
0010
1000
0010
1000
0001
0010
0001
0010
0001
0010
0000
,  // measure 128
1001
0000
0000
0000
1000
0100
0010
0001
0100
1000
0100
0001
0010
0100
1000
0001
,  // measure 129
1000
0100
0010
0100
1000
0010
0001
0010
1000
0001
0010
1000
0010
0001
1000
0100
,  // measure 130
0001
1000
0000
0000
0100
0000
0000
0000
1000
0100
0000
0000
0010
0000
0000
0001
,  // measure 131
0000
0000
1000
0000
0100
0000
0000
0000
1000
0100
0000
0000
0010
0000
0000
0001
,  // measure 132
0000
0000
1000
0000
0100
0000
0000
0000
1000
0100
0000
0000
0010
0000
0000
0001
,  // measure 133
1000
0001
0000
0000
0010
0000
0000
0000
0001
0010
0000
0000
0100
0000
0000
1000
,  // measure 134
0000
0000
0001
0000
0010
0000
0000
0000
0001
0010
0000
0000
0100
0000
0000
1000
,  // measure 135
0000
0000
0001
0000
0010
0000
0000
0000
0001
0010
0000
0000
0100
0000
0000
1000
,  // measure 136
0001
1000
0000
0000
0010
0000
0000
0000
1000
0010
0000
0000
0100
0000
0000
0001
,  // measure 137
0000
0000
1000
0000
0010
0000
0000
0000
1000
0010
0000
0000
0100
0000
0000
0001
,  // measure 138
1000
0001
0000
0000
0001
0000
0000
1000
0000
0001
0000
0000
0001
0000
0000
0100
,  // measure 139
0000
0000
0010
0000
0010
0000
0000
0100
0000
0010
0000
0000
0010
0000
0000
1000
,  // measure 140
0000
0001
0000
0000
0001
0000
0000
1000
0000
0001
0000
0000
0001
0000
0000
0100
,  // measure 141
0000
0010
0000
0000
0010
0000
0000
0100
0000
0010
0000
0000
0010
0000
0100
0001
,  // measure 142
1000
0010
0000
0000
0010
0000
0000
1000
0000
0010
0000
0000
0010
0000
0000
1000
,  // measure 143
0000
0100
0000
0000
0100
0000
0000
1000
0000
0100
0000
0000
0100
0000
0000
1000
,  // measure 144
0000
0001
0000
1000
0001
0000
0000
1000
0000
0001
0000
1000
0001
0000
0000
0100
,  // measure 145
0000
0010
0000
0100
0010
0000
0000
0100
0000
0010
0000
0100
0010
0000
0000
0100
,  // measure 146
0001
1000
0000
0000
1000
0000
0000
0001
0000
1000
0000
0000
1000
0000
0000
0010
,  // measure 147
0000
0000
0100
0000
0100
0000
0000
0010
0000
0100
0000
0000
0100
0000
0000
0001
,  // measure 148
0000
1000
0000
0000
1000
0000
0000
0001
0000
1000
0000
0000
1000
0000
0000
0010
,  // measure 149
0000
0100
0000
0000
0100
0000
0000
0010
0000
0100
0000
0000
0100
0000
0010
1000
,  // measure 150
0001
0100
0000
0000
0100
0000
0000
0001
0000
0100
0000
0000
0100
0000
0000
0001
,  // measure 151
0000
0010
0000
0000
0010
0000
0000
0001
0000
0010
0000
0000
0010
0000
0000
0001
,  // measure 152
0000
1000
0000
0001
1000
0000
0000
0001
0000
1000
0000
0001
1000
0000
0000
0010
,  // measure 153
0000
0100
0000
0010
0100
0000
0000
0010
0000
0100
0000
0010
0100
0000
0000
0010
,  // measure 154
1000
0001
0000
0000
1001
0000
0000
1000
0000
0001
0000
0000
1001
0000
0000
0100
,  // measure 155
0000
0000
0010
0000
0110
0000
0000
0100
0000
0010
0000
0000
0110
0000
0000
1000
,  // measure 156
0000
0001
0000
0000
1001
0000
0000
1000
0000
0001
0000
0000
1001
0000
0000
0100
,  // measure 157
0000
0010
0000
0000
0110
0000
0000
0100
0000
0010
0000
0000
0110
0000
0100
0001
,  // measure 158
1000
0010
0000
0000
0110
0000
0000
1000
0000
0010
0000
0000
0110
0000
0000
1000
,  // measure 159
0000
0010
0000
0000
0011
0000
0000
1000
0000
0010
0000
0000
0011
0000
0000
1000
,  // measure 160
0000
0001
0000
0000
0101
0000
0000
1000
0000
0001
0000
0000
0101
0000
0000
0100
,  // measure 161
0000
0010
0000
0000
1010
0000
0000
0100
0000
0010
0000
0000
1010
0000
0000
0100
,  // measure 162
0001
1000
0000
0000
1100
0000
0000
0001
0000
1000
0000
0000
1100
0000
0000
0010
,  // measure 163
0000
0000
0100
0000
0101
0000
0000
0010
0000
0100
0000
0000
0101
0000
0000
0001
,  // measure 164
0000
1000
0000
0000
1010
0000
0000
0001
0000
1000
0000
0000
1010
0000
0000
0010
,  // measure 165
0000
0100
0000
0000
1100
0000
0000
0010
0000
0100
0000
0000
1100
0000
0010
1000
,  // measure 166
0001
0100
0000
0000
0110
0000
0000
0001
0000
0100
0000
0000
0110
0000
0000
0001
,  // measure 167
0000
0010
0000
0000
1010
0000
0000
0001
0000
0010
0000
0000
1010
0000
0000
0001
,  // measure 168
0000
1000
0000
0010
1000
0000
0000
0001
0000
1000
0000
0100
1000
0000
0000
0010
,  // measure 169
0000
0100
0000
0001
0100
0000
0000
0010
0000
0100
0000
0010
1000
0000
0000
0001
,  // measure 170
1000
0001
0000
0001
1000
0000
0000
1000
0000
0001
0000
0001
1000
0000
0000
0100
,  // measure 171
0000
0010
0100
0010
0100
0000
0000
0100
0000
0010
0000
0010
0100
0000
0000
1000
,  // measure 172
0000
0001
0000
0001
1000
0000
0000
1000
0000
0001
0000
0001
1000
0000
0000
0100
,  // measure 173
0000
0010
0000
0010
0100
0000
0000
0100
0000
0010
0000
0010
0100
0000
0010
0001
,  // measure 174
1000
0010
0000
0010
1000
0000
0000
1000
0000
0010
0000
0010
1000
0000
0000
1000
,  // measure 175
0000
0100
0000
0100
1000
0000
0000
1000
0000
0100
0000
0100
1000
0000
0000
1000
,  // measure 176
0000
0001
0000
1000
0001
0100
0010
1000
0000
0001
0000
1000
0001
0100
0010
0100
,  // measure 177
0000
0010
0000
0100
0010
1000
0001
0100
0000
0010
0000
0100
0010
1000
0001
0100
,  // measure 178
0001
1000
0000
1000
0001
0000
0000
0001
0000
1000
0000
1000
0001
0000
0000
0010
,  // measure 179
0000
0100
0010
0100
0010
0000
0000
0010
0000
0100
0000
0100
0010
0000
0000
0001
,  // measure 180
0000
1000
0000
1000
0001
0000
0000
0001
0000
1000
0000
1000
0001
0000
0000
0010
,  // measure 181
0000
0100
0000
0100
0010
0000
0000
0010
0000
0100
0000
0100
0010
0000
0100
1000
,  // measure 182
0001
0100
0000
0100
0001
0000
0000
0001
0000
0100
0000
0100
0001
0000
0000
0001
,  // measure 183
0000
0010
0000
0010
0001
0000
0000
0001
0000
0010
0000
0010
0001
0000
0000
0001
,  // measure 184
0000
1000
0000
0001
1000
0010
0100
0001
0000
1000
0000
0001
1000
0010
0100
0010
,  // measure 185
0000
0100
0000
0010
0100
0001
1000
0010
0000
0100
0000
0010
0100
0001
1000
0010
,  // measure 186
1000
0000
0000
0100
0010
0001
1000
0100
0000
0010
0000
0100
1000
0100
0010
0001
,  // measure 187
0000
0010
0000
0000
0010
0100
1000
0100
0000
1000
0000
0100
0010
0001
0100
0010
,  // measure 188
0000
1000
0000
0010
0100
0001
1000
0100
0000
0001
0000
0100
0010
1000
0100
0010
,  // measure 189
0000
0001
0000
1000
0100
0001
0100
1000
0000
0001
0000
1000
0100
0001
0100
1000
,  // measure 190
0000
0001
0000
0100
0010
1000
0010
0001
0000
0010
0000
0100
1000
0100
0001
1000
,  // measure 191
0000
0100
0000
0010
0100
0001
0100
1000
0000
0010
0000
1000
0100
0001
0100
0010
,  // measure 192
0000
0101
0000
1000
0100
1000
0001
1000
0000
0101
0000
1000
0100
0010
0001
0100
,  // measure 193
0000
1010
0000
0001
0100
0001
1000
0001
0000
1010
0000
1000
0100
0010
0001
1000
,  // measure 194
0001
0000
0000
0010
0100
1000
0001
0010
0000
0100
0000
0010
0001
0010
0100
1000
,  // measure 195
0000
0100
0000
0000
0100
0010
0001
0010
0000
0001
0000
0010
0100
1000
0010
0100
,  // measure 196
0000
0001
0000
0100
0010
1000
0001
0010
0000
1000
0000
0010
0100
0001
0010
0100
,  // measure 197
0000
1000
0000
0001
0010
1000
0010
0001
0000
1000
0000
0001
0010
1000
0010
0001
,  // measure 198
0000
1000
0000
0010
0100
0001
0100
1000
0000
0100
0000
0010
0001
0010
1000
0001
,  // measure 199
0000
0010
0000
0100
0010
1000
0010
0001
0000
0100
0000
0001
0010
1000
0010
0100
,  // measure 200
0000
1010
0000
0001
0010
0001
1000
0001
0000
1010
0000
0001
0010
0100
1000
0010
,  // measure 201
0000
0101
0000
1000
0010
1000
0001
1000
0000
0101
0000
0001
0010
0100
1000
0001
,  // measure 202
2000
0001
0000
0000
0001
0000
0000
0010
0000
0010
0000
0000
0010
0000
0000
3200
,  // measure 203
0000
0000
0010
0000
0010
0000
0000
0001
0000
0001
0000
0000
0001
0000
0000
0320
,  // measure 204
0000
0100
0000
0000
0100
0000
0000
1000
0000
1000
0000
0000
1000
0000
0000
0032
,  // measure 205
0000
1000
0000
0000
1000
0000
0000
0010
0000
0010
0000
0000
0010
0000
0000
0023
,  // measure 206
0000
1000
0000
0000
1000
0000
0000
0100
0000
0100
0000
0000
0100
0000
0000
0230
,  // measure 207
0000
0001
0000
0000
0001
0000
0000
0010
0000
0010
0000
0000
0010
0000
0000
1300
,  // measure 208
0000
1000
0000
0000
2000
0000
0000
3100
0000
0100
0000
0000
0200
0000
0000
0310
,  // measure 209
0000
0010
0000
0000
0020
0000
0000
0031
0000
0001
0000
0000
0001
0010
0100
1000
,  // measure 210
0002
1000
0000
0000
1000
0000
0000
0100
0000
0100
0000
0000
0100
0000
0000
0023
,  // measure 211
0000
0000
0100
0000
0100
0000
0000
1000
0000
1000
0000
0000
1000
0000
0000
0230
,  // measure 212
0000
0010
0000
0000
0010
0000
0000
0001
0000
0001
0000
0000
0001
0000
0000
2300
,  // measure 213
0000
0001
0000
0000
0001
0000
0000
0100
0000
0100
0000
0000
0100
0000
0000
3200
,  // measure 214
0000
0001
0000
0000
0001
0000
0000
0010
0000
0010
0000
0000
0010
0000
0000
0320
,  // measure 215
0000
1000
0000
0000
1000
0000
0000
0100
0000
0100
0000
0000
0100
0000
0000
0031
,  // measure 216
0000
0001
0000
0000
0002
0000
0000
0013
0000
0010
0000
0000
0020
0000
0000
0130
,  // measure 217
0000
0100
0000
0000
0200
0000
0000
1300
0000
1000
0000
0000
1000
0100
0010
0001
,  // measure 218
2000
0100
0000
0000
0100
0000
0000
3200
0000
0010
0000
0000
0010
0000
0000
0320
,  // measure 219
0000
0000
0001
0000
0001
0000
0000
0032
0000
0010
0000
0000
0010
0000
0000
0023
,  // measure 220
0000
0100
0000
0000
0100
0000
0000
0230
0000
1000
0000
0000
1000
0000
0000
2300
,  // measure 221
0000
0010
0000
0000
0010
0000
0000
3020
0000
0100
0000
0000
0100
0000
0000
0230
,  // measure 222
0000
0001
0000
0000
0001
0000
0000
0302
0000
0100
0000
0000
0100
0000
0000
0203
,  // measure 223
0000
0010
0000
0000
0010
0000
0000
0320
0000
0100
0000
0000
0100
0000
0000
1030
,  // measure 224
0000
1000
0000
0000
2000
0000
0000
3100
0000
0100
0000
0000
0200
0000
0000
0310
,  // measure 225
0000
0010
0000
0000
0020
0000
0000
0031
0000
0001
0000
0000
0001
0010
0100
1000
,  // measure 226
0002
0010
0000
0000
0010
0000
0000
0023
0000
0100
0000
0000
0100
0000
0000
0230
,  // measure 227
0000
0000
1000
0000
1000
0000
0000
2300
0000
0100
0000
0000
0100
0000
0000
3200
,  // measure 228
0000
0010
0000
0000
0010
0000
0000
0320
0000
0001
0000
0000
0001
0000
0000
0032
,  // measure 229
0000
0100
0000
0000
0100
0000
0000
0203
0000
0010
0000
0000
0010
0000
0000
0320
,  // measure 230
0000
1000
0000
0000
1000
0000
0000
2030
0000
0010
0000
0000
0010
0000
0000
3020
,  // measure 231
0000
0100
0000
0000
0100
0000
0000
0230
0000
0010
0000
0000
0010
0000
0000
0301
,  // measure 232
0000
0001
0000
0000
0002
0000
0000
0013
0000
0010
0000
0000
0020
0000
0000
0130
,  // measure 233
0000
0100
0000
0000
0200
0000
0000
1300
0000
1000
0000
0000
1000
0100
0010
0000
,  // measure 234
1001
0000
0000
0000
0001
0000
0000
1000
0000
0001
0000
0000
0001
0000
0000
0100
,  // measure 235
0000
0000
0010
0000
0010
0000
0000
0100
0000
0010
0000
0000
0010
0000
0000
1000
,  // measure 236
0000
0001
0000
0000
0001
0000
0000
1000
0000
0001
0000
0000
0001
0000
0000
0100
,  // measure 237
0000
0010
0000
0000
0010
0000
0000
0100
0000
0010
0000
0000
0010
0000
0100
0001
,  // measure 238
1000
0010
0000
0000
0010
0000
0000
1000
0000
0010
0000
0000
0010
0000
0000
1000
,  // measure 239
0000
0100
0000
0000
0100
0000
0000
1000
0000
0100
0000
0000
0100
0000
0000
1000
,  // measure 240
0000
0001
0000
1000
0001
0000
0000
1000
0000
0001
0000
1000
0001
0000
0000
0000
,  // measure 241
0010
0000
0100
0000
0010
0000
0000
0010
,  // measure 242
1001
0100
1000
0100
1000
0100
1000
0100
1000
0001
1000
0001
1000
0001
1000
0001
,  // measure 243
1000
0010
1000
0010
1000
0010
1000
0010
1000
0001
1000
0001
1000
0001
1000
0001
,  // measure 244
1000
0001
0100
0001
0100
0001
0100
0001
1000
0001
1000
0001
1000
0001
1000
0001
,  // measure 245
0010
0001
0010
0001
0010
0001
0010
0001
1000
0001
1000
0001
1000
0001
1000
0000
,  // measure 246
0110
1000
0100
1000
0001
1000
0001
1000
0010
1000
0010
1000
0001
1000
0001
1000
,  // measure 247
0001
0100
0001
0100
0001
1000
0001
1000
0001
0010
0001
0010
0001
1000
0001
0000
,  // measure 248
0110
1000
0100
0010
0001
0100
0010
1000
0001
0010
0100
1000
0010
0100
0001
0010
,  // measure 249
0100
0010
1000
0010
0001
0010
1000
0010
0100
1000
0010
0100
0001
0100
0010
0000
,  // measure 250
1000
0001
0000
0001
1000
0000
0000
1000
0000
0001
0000
0001
1000
0000
0000
0010
,  // measure 251
0000
0100
0010
0100
0010
0000
0000
0010
0000
0100
0000
0100
0010
0000
0000
1000
,  // measure 252
0000
0001
0000
0001
1000
0000
0000
1000
0000
0001
0000
0001
1000
0000
0000
0010
,  // measure 253
0000
0100
0000
0100
0010
0000
0000
0010
0000
0100
0000
0100
0010
0000
0100
0001
,  // measure 254
1000
0100
0000
0100
1000
0000
0000
1000
0000
0100
0000
0100
1000
0000
0000
1000
,  // measure 255
0000
0010
0000
0010
1000
0000
0000
1000
0000
0010
0000
0010
1000
0000
0000
1000
,  // measure 256
0000
0001
0000
1000
0001
0100
0010
1000
0000
0001
0000
1000
0001
0100
0010
0100
,  // measure 257
0000
0010
0000
0100
0010
1000
0001
0100
0000
0010
0000
0100
0010
1000
0001
0100
,  // measure 258
0001
1000
0000
1000
0001
0000
0000
0001
0000
1000
0000
1000
0001
0000
0000
0100
,  // measure 259
0000
0010
0100
0010
0100
0000
0000
0100
0000
0010
0000
0010
0100
0000
0000
0001
,  // measure 260
0000
1000
0000
1000
0001
0000
0000
0001
0000
1000
0000
1000
0001
0000
0000
0100
,  // measure 261
0000
0010
0000
0010
0100
0000
0000
0100
0000
0010
0000
0010
0100
0000
0010
1000
,  // measure 262
0001
0010
0000
0010
0001
0000
0000
0001
0000
0010
0000
0010
0001
0000
0000
0001
,  // measure 263
0000
0100
0000
0100
0001
0000
0000
0001
0000
0100
0000
0100
0001
0000
0000
0001
,  // measure 264
0000
1000
0000
0001
1000
0010
0100
0001
0000
1000
0000
0001
1000
0010
0100
0010
,  // measure 265
0000
0100
0000
0010
0100
0001
1000
0010
0000
0100
0000
0010
0100
0001
1000
0010
,  // measure 266
1000
0000
0000
0100
0010
0001
1000
0100
0000
0010
0000
0100
1000
0100
0010
0001
,  // measure 267
0000
0010
0000
0000
0010
0100
1000
0100
0000
1000
0000
0100
0010
0001
0100
0010
,  // measure 268
0000
1000
0000
0010
0100
0001
1000
0100
0000
0001
0000
0100
0010
1000
0100
0010
,  // measure 269
0000
0001
0000
1000
0100
0001
0100
1000
0000
0001
0000
1000
0100
0001
0100
1000
,  // measure 270
0000
0001
0000
0100
0010
1000
0010
0001
0000
0010
0000
0100
1000
0100
0001
1000
,  // measure 271
0000
0100
0000
0010
0100
0001
0100
1000
0000
0010
0000
1000
0100
0001
0100
0010
,  // measure 272
0000
0101
0000
1000
0100
1000
0001
1000
0000
0101
0000
1000
0100
0010
0001
0100
,  // measure 273
0000
1010
0000
0001
0100
0001
1000
0001
0000
1010
0000
1000
0100
0010
0001
1000
,  // measure 274
0001
0000
0000
0010
0100
1000
0001
0010
0000
0100
0000
0010
0001
0010
0100
1000
,  // measure 275
0000
0100
0000
0000
0100
0010
0001
0010
0000
0001
0000
0010
0100
1000
0010
0100
,  // measure 276
0000
0001
0000
0100
0010
1000
0001
0010
0000
1000
0000
0010
0100
0001
0010
0100
,  // measure 277
0000
1000
0000
0001
0010
1000
0010
0001
0000
1000
0000
0001
0010
1000
0010
0001
,  // measure 278
0000
1000
0000
0010
0100
0001
0100
1000
0000
0100
0000
0010
0001
0010
1000
0001
,  // measure 279
0000
0010
0000
0100
0010
1000
0010
0001
0000
0100
0000
0001
0010
1000
0010
0100
,  // measure 280
1000
0100
1000
0100
1000
0001
1000
0001
1000
0010
1000
0010
1000
0001
1000
0001
,  // measure 281
1000
0100
0010
0001
0100
0010
1000
0100
0001
0100
1000
0001
0010
1000
0010
0100
,  // measure 282
1000
0100
1000
0001
1000
0010
0000
0010
1000
0010
1000
0001
1000
0100
0000
0100
,  // measure 283
1000
0001
0100
0001
0010
0001
0000
0001
0010
0001
1000
0001
0100
0001
0000
0001
,  // measure 284
1000
0100
1000
0001
1000
0010
0000
0010
1000
0010
1000
0001
1000
0100
0000
0100
,  // measure 285
1000
0001
0100
0001
0010
0001
0000
0001
0010
0001
1000
0001
0100
0001
0000
0001
,  // measure 286
1000
0100
0010
0001
0010
0100
0000
0100
0010
0001
0010
0100
1000
0100
0000
0100
,  // measure 287
0010
0001
0100
0010
1000
0010
0000
0010
0100
0001
1000
0010
0100
0001
0000
0001
,  // measure 288
1000
0100
0010
0001
0010
0100
0000
0100
0010
0001
0010
0100
1000
0100
0000
0100
,  // measure 289
0010
0001
0100
0010
1000
0010
0000
0010
0100
0001
1000
0010
0100
0001
0000
0001
,  // measure 290
1000
0100
1000
0000
0001
1000
0000
0001
1000
0010
1000
0000
0001
1000
0000
0001
,  // measure 291
0100
0010
0100
0000
0001
0100
0000
0001
0100
0010
0100
0000
0001
0100
0000
0001
,  // measure 292
1000
0100
1000
0000
0001
1000
0000
0001
1000
0010
1000
0000
0001
1000
0000
0001
,  // measure 293
0100
0010
0100
0000
0001
0100
0000
0001
0100
0010
0100
0000
0001
0100
0000
0001
,  // measure 294
1000
0100
0010
0000
0001
1000
0000
0001
1000
0010
0100
0000
0001
1000
0000
0001
,  // measure 295
1000
0100
0001
0000
0100
1000
0000
0001
1000
0010
0001
0000
0010
1000
0000
0001
,  // measure 296
1000
0100
0010
0000
0001
1000
0000
0001
1000
0010
0100
0000
0001
1000
0000
0001
,  // measure 297
1000
0100
0001
0000
0100
1000
0000
0001
1000
0010
0001
0000
0010
1000
0100
0010
,  // measure 298
0001
0010
0001
0000
1000
0001
0000
1000
0001
0100
0001
0000
1000
0001
0000
1000
,  // measure 299
0010
0100
0010
0000
1000
0010
0000
1000
0010
0100
0010
0000
1000
0010
0000
1000
,  // measure 300
0001
0010
0001
0000
1000
0001
0000
1000
0001
0100
0001
0000
1000
0001
0000
1000
,  // measure 301
0010
0100
0010
0000
1000
0010
0000
1000
0010
0100
0010
0000
1000
0010
0000
1000
,  // measure 302
0001
0010
0100
0000
1000
0001
0000
1000
0001
0100
0010
0000
1000
0001
0000
1000
,  // measure 303
0001
0010
1000
0000
0010
0001
0000
1000
0001
0100
1000
0000
0100
0001
0000
1000
,  // measure 304
0001
0010
0100
0000
1000
0001
0000
1000
0001
0100
0010
0000
1000
0001
0000
1000
,  // measure 305
0010
0000
0100
0000
0000
0000
0000
0010
,  // measure 306
1001
0000
0100
0000
0001
1000
0000
0001
0100
0010
0100
0000
0001
1000
0000
0000
,  // measure 307
0110
0000
1000
0000
0010
0100
0000
0010
1000
0001
1000
0000
0010
0100
0000
0000
,  // measure 308
1001
0000
0100
0000
0001
1000
0000
0001
0100
0010
0100
0000
0001
1000
0000
0000
,  // measure 309
0110
0000
1000
0000
0010
0100
0000
0010
1000
0001
1000
0000
0010
0100
0000
0000
,  // measure 310
1001
0000
0010
0000
1000
0001
0000
1000
0010
0100
0010
0000
1000
0001
0000
0000
,  // measure 311
0110
0000
0001
0000
0100
0010
0000
0100
0001
1000
0001
0000
0100
0010
0000
0000
,  // measure 312
1001
0000
0010
0000
1000
0001
0000
1000
0010
0100
0010
0000
1000
0001
0000
0000
,  // measure 313
0110
0000
0100
0000
0010
0001
0000
0010
0001
1000
0100
0000
0010
0100
0010
0001
,  // measure 314
1000
0000
0100
0000
0010
0001
0000
1000
0001
0010
1000
0000
0010
0001
0000
1000
,  // measure 315
0001
0000
1000
0000
0010
0100
0000
0001
1000
0100
0001
0000
0100
1000
0000
0001
,  // measure 316
1000
0000
0100
0000
0010
0001
0000
1000
0001
0010
1000
0000
0010
0001
0000
1000
,  // measure 317
0001
0000
1000
0000
0010
0100
0000
0001
1000
0100
0001
0000
0100
1000
0100
0010
,  // measure 318
0001
0000
0010
0000
0100
1000
0000
0001
1000
0100
0001
0000
0100
1000
0000
0001
,  // measure 319
1000
0000
0001
0000
0100
0010
0000
1000
0001
0010
1000
0000
0010
0001
0000
1000
,  // measure 320
0001
0000
0010
0000
0100
1000
0000
0001
1000
0100
0001
0000
0100
1000
0000
0001
,  // measure 321
1000
0000
0001
0000
0100
0010
0000
1000
0001
0010
1000
0000
0010
0001
0010
0100
,  // measure 322
1000
0100
1000
0000
0001
1000
0000
0001
0100
0010
0100
0000
0001
0100
0000
0001
,  // measure 323
1000
0010
1000
0000
0010
0100
0000
0010
0100
0001
0100
0000
0010
1000
0000
0010
,  // measure 324
1000
0100
1000
0000
0001
1000
0000
0001
0100
0010
0100
0000
0001
0100
0000
0001
,  // measure 325
1000
0010
1000
0000
0010
0100
0000
0010
0100
0001
0100
0000
0010
1000
0100
0010
,  // measure 326
0001
0010
0001
0000
1000
0001
0000
1000
0010
0100
0010
0000
1000
0010
0000
1000
,  // measure 327
0001
0100
0001
0000
0100
0010
0000
0100
0010
1000
0010
0000
0100
0001
0000
0100
,  // measure 328
0001
0010
0001
0000
1000
0001
0000
1000
0010
0100
0010
0000
1000
0010
0000
1000
,  // measure 329
0001
0100
0001
0000
0100
0010
0000
0100
0010
1000
0010
0000
0100
0001
0000
0000
,  // measure 330
1001
0000
0010
0000
1000
0001
0000
1000
0010
0100
0010
0000
1000
0001
0000
0000
,  // measure 331
0110
0000
0001
0000
0100
0010
0000
0100
0001
1000
0001
0000
0100
0010
0000
0000
,  // measure 332
1001
0000
0010
0000
1000
0001
0000
1000
0010
0100
0010
0000
1000
0001
0000
0000
,  // measure 333
0110
0000
0001
0000
0100
0010
0000
0100
0001
1000
0001
0000
0100
0010
0000
0000
,  // measure 334
1001
0000
0100
0000
0001
1000
0000
0001
0100
0010
0100
0000
0001
1000
0000
0000
,  // measure 335
0110
0000
1000
0000
0010
0100
0000
0010
1000
0001
1000
0000
0010
0100
0000
0000
,  // measure 336
1001
0000
0100
0000
0001
1000
0000
0001
0100
0010
0100
0000
0001
1000
0000
0000
,  // measure 337
0110
0000
0010
0000
0100
1000
0000
0100
1000
0001
0010
0000
0100
0010
0100
1000
,  // measure 338
0001
0000
0010
0000
0100
1000
0000
0001
1000
0100
0001
0000
0100
1000
0000
0001
,  // measure 339
1000
0000
0001
0000
0100
0010
0000
1000
0001
0010
1000
0000
0010
0001
0000
1000
,  // measure 340
0001
0000
0010
0000
0100
1000
0000
0001
1000
0100
0001
0000
0100
1000
0000
0001
,  // measure 341
1000
0000
0001
0000
0100
0010
0000
1000
0001
0010
1000
0000
0010
0001
0010
0100
,  // measure 342
1000
0000
0100
0000
0010
0001
0000
1000
0001
0010
1000
0000
0010
0001
0000
1000
,  // measure 343
0001
0000
1000
0000
0010
0100
0000
0001
1000
0100
0001
0000
0100
1000
0000
0001
,  // measure 344
1000
0000
0100
0000
0010
0001
0000
1000
0001
0010
1000
0000
0010
0001
0000
1000
,  // measure 345
0001
0000
1000
0000
0010
0100
0000
0001
1000
0100
0001
0000
0100
1000
0100
0010
,  // measure 346
0001
0010
0001
0000
1000
0001
0000
1000
0010
0100
0010
0000
1000
0010
0000
1000
,  // measure 347
0001
0100
0001
0000
0100
0010
0000
0100
0010
1000
0010
0000
0100
0001
0000
0100
,  // measure 348
0001
0010
0001
0000
1000
0001
0000
1000
0010
0100
0010
0000
1000
0010
0000
1000
,  // measure 349
0001
0100
0001
0000
0100
0010
0000
0100
0010
1000
0010
0000
0100
0001
0010
0100
,  // measure 350
1000
0100
1000
0000
0001
1000
0000
0001
0100
0010
0100
0000
0001
0100
0000
0001
,  // measure 351
1000
0010
1000
0000
0010
0100
0000
0010
0100
0001
0100
0000
0010
1000
0000
0010
,  // measure 352
1000
0100
1000
0000
0001
1000
0000
0001
0100
0010
0100
0000
0001
0100
0000
0001
,  // measure 353
1000
0010
1000
0000
0010
0100
0000
0010
0100
0001
0100
0000
0010
1000
0000
0001
,  // measure 354
1000
0010
0100
0000
0010
1000
0000
0010
2000
0000
0000
0000
0000
0000
0000
0000
,  // measure 355
3100
0010
0001
0000
0010
0100
0000
0010
0200
0000
0000
0000
0000
0000
0000
0000
,  // measure 356
0310
0001
0100
0000
0001
0010
0000
0001
0020
0000
0000
0000
0000
0000
0000
0000
,  // measure 357
0031
1000
0100
0000
0010
0001
0000
0010
0002
0000
0000
0000
0000
0000
0000
0000
,  // measure 358
1003
0010
0100
0000
0010
1000
0000
0010
2000
0000
0000
0000
0000
0000
0000
0000
,  // measure 359
3100
0010
0001
0000
0010
0100
0000
0010
0200
0000
0000
0000
0000
0000
0000
0000
,  // measure 360
0310
0001
0100
0000
0001
0010
0000
0001
0020
0000
0000
0000
0000
0000
0000
0000
,  // measure 361
0031
1000
0100
0000
0010
0001
0000
0010
0002
0000
0000
0000
0000
0000
0000
0000
,  // measure 362
1003
0100
1000
0000
0010
2000
0000
0000
0000
0000
0000
0000
0000
0000
0000
0000
,  // measure 363
3100
0010
0100
0000
1000
0200
0000
0000
0000
0000
0000
0000
0000
0000
0000
0000
,  // measure 364
0310
0001
0010
0000
0100
0020
0000
0000
0000
0000
0000
0000
0000
0000
0000
0000
,  // measure 365
0031
0100
0001
0000
0010
0002
0000
0000
0000
0000
0000
0000
0000
0000
0000
0000
,  // measure 366
1003
0100
1000
0000
0010
2000
0000
0000
0000
0000
0000
0000
0000
0000
0000
0000
,  // measure 367
3100
0010
0100
0000
1000
0200
0000
0000
0000
0000
0000
0000
0000
0000
0000
0000
,  // measure 368
0310
0001
0010
0000
0100
0020
0000
0000
0000
0000
0000
0000
0000
0000
0000
0000
,  // measure 369
0031
0100
0001
0000
0010
0002
0000
0000
0100
0000
0000
0000
0000
0000
0000
2000
,  // measure 370
0000
0000
0000
3003
;
