#TITLE:-273.15;
#SUBTITLE:;
#ARTIST:LV.4;
#TITLETRANSLIT:;
#SUBTITLETRANSLIT:;
#ARTISTTRANSLIT:;
#CREDIT:;
#BANNER:../Banner.png;
#BACKGROUND:../BG.png;
#LYRICSPATH:;
#CDTITLE:../CDTitleKIRBY.png;
#MUSIC:-273.15.ogg;
#OFFSET:-1.937;
#SAMPLESTART:137.460;
#SAMPLELENGTH:24.000;
#SELECTABLE:YES;
#BPMS:0.000=170.000;
#STOPS:;
#BGCHANGES:;
// cache tags:
#FIRSTBEAT:0.000;
#LASTBEAT:1280.000;
#SONGFILENAME:Songs/Index Fusion - Part 2/-273.15 - [Kirby5464]/-273.15.sm;
#HASMUSIC:1;
#HASBANNER:1;
#MUSICLENGTH:457.718;
// end cache tags

//---------------dance-single - ----------------
#NOTES:
     dance-single:
     :
     Challenge:
     19:
     1.000,1.000,0.059,0.666,1.000,4554.000,27.000,305.000,0.000,0.000:
1001
0000
0000
0000
,
0000
0000
0000
0000
,
0000
0000
0000
0000
,
0000
0000
0000
0000
0000
1010
0000
0000
,
0110
0000
0000
0000
,
0000
0000
0000
0000
,
0101
0000
0000
0000
,
1000
0001
0010
0100
1000
0010
0100
0010
1000
0100
1000
0001
0010
0001
1000
0010
1000
0100
0010
0001
1000
0010
0100
0001
,
1000
0010
0100
0010
1000
0100
1000
0001
,
0010
0001
1000
0100
0010
0001
1000
0010
,
1000
0100
0010
0001
1000
0100
1000
0001
,
0010
0001
0100
0010
0100
0101
1000
0001
,
0011
0100
1000
0001
0100
0010
1000
0100
,
0010
0001
1000
0100
1000
0010
0100
0010
,
1010
0100
0001
0010
0001
1000
0010
0100
,
0010
1000
0100
1000
0001
0100
0001
0010
0100
1000
0010
0100
0010
1000
0100
1000
0002
0000
0000
0000
0000
0000
0000
0000
,
0103
0010
1000
0100
0010
0001
0100
0010
0100
0001
0010
0001
1000
0100
1000
0001
,
0010
0100
0010
0001
1000
0100
1000
0001
0100
0001
0010
0100
1000
0001
0100
0010
,
1000
0100
0010
0001
0100
0010
0100
0001
0010
0001
1000
0100
1000
0001
0010
0100
,
1000
0001
0100
0001
1000
0100
1000
0010
0100
0010
1000
0001
1000
0100
0010
0001
,
0100
0010
0100
0001
0010
0001
1000
0100
1000
0001
0010
0100
0010
0001
1000
0100
,
1000
0010
0100
0010
1000
0001
1000
0100
0010
0001
0100
0010
0100
0001
0010
0001
,
1000
0100
1000
0001
0010
0100
1000
0001
0100
0001
1000
0100
1000
0001
0100
0010
,
0100
0001
1000
0001
0100
0010
0100
0001
0010
0001
1000
0010
1000
0100
0010
0001
2000
0000
0000
0000
0000
0000
0000
0000
,
3001
0010
0001
0100
0010
0100
0001
1000
0001
0010
0100
1000
0010
0100
0010
1000
,
0100
0010
0100
1000
0001
0010
0001
0100
0010
0100
0001
1000
0010
0100
0010
1000
,
0001
1000
0100
0010
0001
0100
0010
0100
0001
0010
0001
1000
0100
1000
0001
0010
,
0100
1000
0001
0010
0100
0010
0001
1000
0100
0010
0001
0100
0010
0100
0001
0010
,
0002
2003
3200
2300
3002
0023
0230
2300
3002
0203
0320
2030
3200
0320
0230
2300
,
3002
0023
0032
2003
3020
2030
3200
0320
0032
0203
0320
0230
0302
0023
0032
2003
,
3100
0000
0000
0000
0000
0000
0000
0000
0000
0000
1000
0000
0000
0000
0000
0000
0000
0000
0000
0001
0000
0000
0000
0000
0000
0000
0000
0000
0000
0010
0000
0000
0000
0000
0000
0000
0000
0000
0001
0000
0000
0000
0000
0000
0000
0000
0000
0000
1000
0000
0000
0000
0000
0000
0000
0000
0000
0000
0010
0000
0000
0000
0000
0000
0000
0000
0000
1000
0000
0000
0000
0000
0000
0000
0000
0000
0000
0100
0000
0000
0000
0000
0000
0000
0000
0000
0010
0000
0000
0000
0000
0000
0000
0000
0000
0000
0001
0000
0000
0000
0000
0000
0000
0000
0000
0000
1000
0000
0000
0000
0000
0000
0000
0000
0000
0010
0000
0000
0000
0000
0000
0000
0000
0000
0000
0100
0000
0000
0000
0000
0000
0000
0000
0000
0001
0000
0000
0000
0000
0000
0000
0000
0000
0000
0010
0000
0000
0000
0000
0000
0000
0000
0000
0000
0100
0000
0000
0000
0000
0000
0000
0000
0000
1000
0000
0000
0000
0000
0000
0000
0000
0000
0000
0001
0000
0000
0000
0000
0000
0000
0000
0000
1000
0000
0000
0000
0000
0000
0000
0000
0000
0000
,
0010
0100
0010
1000
0010
1000
0100
0010
0001
0100
0010
0100
0001
1000
0001
0100
0001
0020
0000
0000
0000
0000
0000
0000
,
1030
0100
1000
0001
0010
0001
0100
0010
0100
0001
0010
0100
1000
0001
0100
0010
,
1000
0100
0010
0100
1000
0001
0010
0001
1000
0100
0010
0001
0100
0010
0100
0001
,
0010
0001
1000
0100
1000
0001
0100
0001
0010
0100
1000
0010
0100
0010
1000
0001
,
0100
0010
1000
0100
1000
0001
0010
0001
0100
0010
0100
0001
0010
0100
0010
0001
,
1000
0100
1000
0001
0100
0001
0010
0100
1000
0001
0010
0001
1000
0100
0010
0100
,
1000
0001
0010
0001
1000
0010
1000
0100
0010
0001
1000
0010
0100
0001
0010
0100
,
1000
0010
0100
0010
1000
0100
1000
0001
0010
0001
1000
0100
0010
0001
1000
0010
,
1000
0100
0010
0001
0100
0010
0100
0001
0010
0001
1000
0100
1000
0001
0010
0100
1000
0002
0000
0000
0000
0000
0000
0000
,
1003
0100
1000
0001
0010
0001
1000
0100
0010
0100
1000
0001
0010
0001
0100
0010
,
0100
0001
1000
0001
0010
0100
1000
0010
0100
0010
1000
0100
1000
0001
0010
0001
,
1000
0100
0010
0001
1000
0010
1000
0001
0010
0001
1000
0010
0100
0001
1000
0001
,
0010
0100
1000
0010
0100
0010
1000
0100
0010
0100
1000
0001
0010
0001
0100
0010
,
0100
0001
1000
0010
0100
0010
1000
0001
1000
0100
0010
0001
0100
0010
0100
0001
,
0010
0001
1000
0100
1000
0001
0010
0100
1000
0001
0010
0100
0010
0001
1000
0100
,
0010
0001
0100
0010
0100
0001
0010
0001
1000
0100
1000
0001
0010
0100
1000
0001
,
0100
0010
0100
0001
0010
0001
1000
0010
1000
0100
0010
0100
1000
0001
0010
0001
2000
0000
0000
0000
0000
0000
0000
0000
,
3001
0100
0010
1000
0100
1000
0001
0010
0001
0100
0010
1000
0100
1000
0010
0100
,
0010
1000
0001
1000
0100
0010
0001
0100
0010
0100
0001
0010
0001
1000
0100
1000
,
0001
0010
0100
1000
0001
0100
0001
1000
0100
1000
0001
0100
0010
1000
0001
1000
,
0100
0010
0001
0100
0010
0100
0001
0010
0100
0010
0001
1000
0100
1000
0010
0100
,
0010
1000
0001
0100
0010
0100
0001
1000
0001
0010
0100
1000
0010
0100
0010
1000
,
0100
1000
0001
0010
0001
1000
0100
0010
0001
1000
0100
0010
0100
1000
0001
0010
,
0100
1000
0010
0100
0010
1000
0100
1000
0001
0010
0001
1000
0100
0010
0001
1000
,
0010
0100
0010
1000
0100
0010
0001
1000
0010
0100
0001
0010
0001
0100
0010
0100
0002
0000
0000
0000
0000
0000
0000
0000
,
1003
0100
1000
0001
0010
0001
1000
0100
0010
0100
1000
0001
0010
0001
0100
0010
,
0100
0001
1000
0001
0010
0100
1000
0010
0100
0010
1000
0100
1000
0001
0010
0001
,
1000
0100
0010
0001
1000
0010
1000
0001
0010
0001
1000
0010
0100
0001
1000
0001
,
0010
0100
1000
0010
0100
0010
1000
0100
0010
0100
1000
0001
0010
0001
0100
0010
,
0100
0001
1000
0010
0100
0010
1000
0001
1000
0100
0010
0001
0100
0010
0100
0001
,
0010
0001
1000
0100
1000
0001
0010
0100
1000
0001
0010
0100
0010
0001
1000
0100
,
0010
0000
0000
0000
0000
0000
0000
0000
0000
0000
0001
0000
0000
0000
0000
0000
0000
0000
0000
1000
0000
0000
0000
0000
0000
0000
0000
0000
0000
0100
0000
0000
0000
0000
0000
0000
0000
0000
1000
0000
0000
0000
0000
0000
0000
0000
0000
0000
0010
0000
0000
0000
0000
0000
0000
0000
0000
0000
0100
0000
0000
0000
0000
0000
0000
0000
0000
0010
0000
0000
0000
0000
0000
0000
0000
0000
0000
1000
0000
0000
0000
0000
0000
0000
0000
0000
0001
0000
0000
0000
0000
0000
0000
0000
0000
0000
1000
0000
0000
0000
0000
0000
0000
0000
0000
0000
0100
0000
0000
0000
0000
0000
0000
0000
0000
0010
0000
0000
0000
0000
0000
0000
0000
0000
0000
0001
0000
0000
0000
0000
0000
0000
0000
0000
0100
0000
0000
0000
0000
0000
0000
0000
0000
0000
0010
0000
0000
0000
0000
0000
0000
0000
0000
0000
0100
0000
0000
0000
0000
0000
0000
0000
0000
0001
0000
0000
0000
0000
0000
0000
0000
0000
0000
1000
0000
0000
0000
0000
0000
0000
0000
0000
0010
0000
0000
0000
0000
0000
0000
0000
0000
0000
,
1000
0010
0100
0001
0010
0001
1000
0100
0010
0100
1000
0001
0100
0001
0010
0100
1000
0020
0000
0000
0000
0000
0000
0000
,
0130
0010
1000
0000
0001
1000
0001
0000
0100
0010
0100
0000
0001
0010
0001
0000
,
1000
0100
1000
0000
0001
0100
0001
0000
1000
0010
1000
0000
0001
0100
0010
0000
,
1000
0001
0100
0000
0001
1000
0001
0000
0100
0010
1000
0000
0001
1000
0001
0000
,
0100
0010
0100
0000
0001
0010
0001
0000
1000
0100
1000
0000
0001
0100
0001
0010
,
0100
1000
0000
0000
0001
0100
0010
0000
1000
0001
0100
0000
0001
1000
0001
0000
,
1000
0100
1000
0000
0010
0100
0010
0000
1000
0001
0100
0000
0010
0100
0010
0000
,
1000
0100
1000
0000
0001
0010
0001
0000
1000
0010
0100
0000
0001
0100
0001
0000
,
1000
0000
0010
0100
0010
0000
0000
1000
0001
0100
0010
1000
0004
0000
0000
0000
,
0103
0010
1000
0100
0010
0100
1000
0001
0010
0001
1000
0100
1000
0001
0010
0100
,
0010
0001
1000
0100
1000
0010
0100
0010
1000
0001
1000
0100
0010
0001
0100
0010
,
0100
0001
0010
0001
1000
0100
1000
0001
0010
0100
1000
0001
0100
0001
1000
0100
,
1000
0001
0100
0010
1000
0001
1000
0100
0010
0001
0100
0010
0100
0001
0010
0100
,
0010
0001
1000
0100
1000
0010
0100
0010
1000
0001
0100
0010
0100
0001
1000
0001
,
0010
0100
1000
0010
0100
0010
1000
0100
1000
0001
0010
0001
1000
0100
0010
0001
,
2000
3200
0320
0230
2300
3002
0023
0032
2003
3020
2030
3200
0320
0032
0203
0320
,
0130
0001
1000
0001
0100
0010
0100
0001
0010
0100
0010
0001
1000
0100
1000
0010
0200
0000
0000
0000
0000
0000
0000
0000
,
0301
0010
0100
1000
0010
0100
0010
1000
0100
1000
0001
0010
0001
1000
0100
0010
,
0100
1000
0001
0010
0001
1000
0010
1000
0100
0010
0001
1000
0010
0100
0001
0010
,
0100
1000
0010
0100
0010
1000
0100
1000
0001
0010
0001
1000
0100
0010
0001
1000
,
0010
1000
0001
0010
0001
0100
0010
0100
0001
1000
0001
0010
0100
1000
0010
0100
,
0010
1000
0100
1000
0001
0010
0001
1000
0100
0010
0100
1000
0001
0010
0001
0100
,
0010
0100
0001
1000
0001
0010
0100
1000
0010
0100
0010
1000
0100
1000
0001
0010
,
0001
1000
0100
0010
0001
1000
0010
1000
0001
0010
0001
1000
0010
0100
0010
1000
,
0001
0010
0100
1000
0010
0100
0010
1000
0001
1000
0010
0100
0010
1000
0100
0010
0100
0002
0000
0000
0000
0000
0000
0000
,
1003
0010
0100
0001
1000
0001
0010
0100
1000
0010
0100
0010
1000
0100
0010
0100
,
1000
0001
0010
0001
0100
0010
0100
0001
1000
0010
0100
0010
1000
0001
1000
0100
,
0010
0001
0100
0010
0100
0001
0010
0001
1000
0100
1000
0001
0010
0100
1000
0001
,
0010
0100
0010
0001
1000
0100
0010
0001
0100
0010
0100
0001
0010
0001
1000
0100
,
1000
0001
0010
0100
1000
0001
0100
0010
1000
0100
0010
0100
1000
0001
0010
0001
,
1000
0010
1000
0100
0010
0001
0100
0010
0100
0001
0010
0001
1000
0010
0100
0001
,
1000
0001
0100
0010
0100
0001
0010
0100
0010
0001
1000
0100
1000
0010
0100
0010
,
1000
0001
0010
0100
1000
0010
0100
0010
1000
0100
1000
0001
0100
0001
0010
0100
2000
0000
0000
0000
0000
0000
0000
0000
,
3001
0010
0001
1000
0100
0010
0100
1000
0001
0010
0001
1000
0010
1000
0100
0010
,
0001
1000
0010
0100
0001
0010
0100
1000
0010
0100
0010
1000
0100
1000
0001
0010
,
0001
1000
0100
0010
0001
1000
0010
1000
0001
0010
0001
0100
0010
0100
0001
1000
,
0001
0010
0100
1000
0010
0100
0010
1000
0100
1000
0001
0010
0001
1000
0100
0010
,
0100
1000
0001
0010
0001
0100
0010
0100
0001
1000
0001
0010
0100
1000
0010
0100
,
0010
1000
0100
1000
0001
0010
0001
1000
0100
0010
0001
1000
0010
1000
0001
0010
,
0001
1000
0010
0100
0010
1000
0001
0010
0100
1000
0010
0100
0010
1000
0100
1000
,
0001
0100
0001
0010
0100
1000
0001
0100
0010
1000
0100
0010
0100
1000
0001
0100
0001
0010
0100
2000
0000
0000
0000
0000
,
3001
0100
0010
1000
0001
0100
0010
1000
0100
0010
0001
0100
0010
0100
0001
0010
,
0001
1000
0100
1000
0001
0010
0100
1000
0001
0100
0001
1000
0100
1000
0010
0100
,
0010
1000
0001
1000
0100
0010
0001
0100
0010
0100
0001
0010
0001
1000
0100
1000
,
0001
0010
0100
0010
0001
1000
0100
1000
0010
0100
0010
1000
0001
1000
0100
0010
,
0001
0000
0000
0000
0000
0000
0000
0000
0000
0000
1000
0000
0000
0000
0000
0000
0000
0000
0000
0100
0000
0000
0000
0000
0000
0000
0000
0000
0000
1000
0000
0000
0000
0000
0000
0000
0000
0000
0001
0000
0000
0000
0000
0000
0000
0000
0000
0000
0010
0000
0000
0000
0000
0000
0000
0000
0000
0000
0100
0000
0000
0000
0000
0000
0000
0000
0000
0010
0000
0000
0000
0000
0000
0000
0000
0000
0000
0001
0000
0000
0000
0000
0000
0000
0000
0000
1000
0000
0000
0000
0000
0000
0000
0000
0000
0000
0100
0000
0000
0000
0000
0000
0000
0000
0000
0000
1000
0000
0000
0000
0000
0000
0000
0000
0000
0010
0000
0000
0000
0000
0000
0000
0000
0000
0000
0100
0000
0000
0000
0000
0000
0000
0000
0000
0010
0000
0000
0000
0000
0000
0000
0000
0000
0000
1000
0000
0000
0000
0000
0000
0000
0000
0000
0000
0001
0000
0000
0000
0000
0000
0000
0000
0000
1000
0000
0000
0000
0000
0000
0000
0000
0000
0000
0100
0000
0000
0000
0000
0000
0000
0000
0000
0010
0000
0000
0000
0000
0000
0000
0000
0000
0000
,
0001
0000
0000
0000
0000
0000
0000
0000
0000
0000
1000
0000
0000
0000
0000
0000
0000
0000
0000
0010
0000
0000
0000
0000
0000
0000
0000
0000
0000
0100
0000
0000
0000
0000
0000
0000
0000
0000
0001
0000
0000
0000
0000
0000
0000
0000
0000
0000
0010
0000
0000
0000
0000
0000
0000
0000
0000
0000
0001
0000
0000
0000
0000
0000
0000
0000
0000
1000
0000
0000
0000
0000
0000
0000
0000
0000
0000
0010
0000
0000
0000
0000
0000
0000
0000
0000
0100
0000
0000
0000
0000
0000
0000
0000
0000
0000
0001
0000
0000
0000
0000
0000
0000
0000
0000
0000
1000
0000
0000
0000
0000
0000
0000
0000
0000
0001
0000
0000
0000
0000
0000
0000
0000
0000
0000
0100
0000
0000
0000
0000
0000
0000
0000
0000
0010
0000
0000
0000
0000
0000
0000
0000
0000
0000
0100
0000
0000
0000
0000
0000
0000
0000
0000
0000
0001
0000
0000
0000
0000
0000
0000
0000
0000
0010
0000
0000
0000
0000
0000
0000
0000
0000
0000
0001
0000
0000
0000
0000
0000
0000
0000
0000
0100
0000
0000
0000
0000
0000
0000
0000
0000
0000
,
0002
0203
0320
0230
0302
0023
0230
0320
0032
2003
3200
2300
3020
0230
0320
2030
,
3001
0010
0100
1000
0001
0100
0001
1000
0100
1000
0010
0100
0010
1000
0100
0010
0100
1000
0001
0020
0000
0000
0000
0000
,
0032
0000
0000
0000
,
0000
0000
0000
0000
,
0000
0000
0203
0000
,
0000
0000
0000
0000
,
0000
0320
0000
0000
,
0000
0000
0000
0000
,
0000
2030
0000
0000
,
0000
0000
0000
0000
,
0000
3002
0000
0000
,
0000
0000
0000
0000
,
0000
0000
0000
2003
,
0000
0000
0000
0000
,
3001
0010
0001
1000
0010
1000
0100
0010
0001
0100
0010
0100
0001
0010
0001
1000
,
0100
1000
0001
0010
0100
1000
0010
0100
0010
1000
0001
1000
0100
0010
0001
0100
,
0010
0100
0001
0010
0001
1000
0100
1000
0001
0100
0010
1000
0100
0010
0001
1000
,
0010
1000
0001
0010
0001
0100
0010
0100
0001
0010
0100
1000
0010
0100
0001
1000
,
0002
0003
0000
0000
0000
0000
0000
0000
,
0010
0100
0001
0010
0100
1000
0010
0100
0010
1000
0100
0010
0100
1000
0002
0000
0000
0000
0000
0000
0000
0000
0000
0000
,
1003
0010
0100
0001
0010
0100
1000
0000
0010
0100
0010
1000
0100
1000
0001
0000
,
1000
0100
0010
0001
1000
0010
0100
0000
0001
0010
0001
1000
0010
0100
0010
0000
,
1000
0001
0100
0001
0010
0100
1000
0000
0001
0100
0010
1000
0001
0100
0010
0000
,
1000
0100
0010
0001
0100
0010
0100
0000
0001
0010
0100
1000
0001
0100
0010
0000
,
0001
0100
0010
1000
0001
0100
0001
0000
1000
0100
1000
0001
0100
0010
0100
0000
,
0001
0010
0100
1000
0010
0100
0010
0000
1000
0010
0100
0001
0010
0100
1000
0000
,
0001
1000
0001
0100
0010
0100
0001
0000
1000
0100
0010
0001
0100
0010
0100
0000
,
0001
1000
0001
0100
0010
1000
0100
0010
0001
0100
0010
0100
0001
1000
0010
0100
0002
0000
0000
0000
0000
0000
0000
0000
,
1003
0000
0000
0000
1010
0000
0000
0000
0110
0000
0000
0000
0001
1000
0001
0100
,
0010
0000
0000
0000
0110
0000
0000
0000
0000
0000
0110
0000
1010
0000
0001
1000
,
0001
0000
0000
0000
0101
0000
0000
0000
0110
0000
0000
0000
0000
0000
1000
0001
,
1000
0000
0000
0000
1010
0000
0000
0000
0000
0000
0001
0000
1000
0000
0010
0100
,
0020
2030
3200
0320
0032
2003
3020
0230
0302
0023
0032
2003
3200
2300
3020
0230
,
0320
2030
3002
2003
3020
0230
0320
2030
3200
0320
0032
2003
3200
2300
3002
0203
,
0302
0023
0230
2300
3020
0230
0320
2030
3200
2300
3002
0203
0302
0023
0230
2300
,
3020
0000
0000
0230
0000
0000
0320
0000
0000
2030
0000
0000
3200
0000
0000
2300
0000
0000
3002
0000
0000
0023
0000
0000
0032
0000
0000
2003
0000
0000
3200
0000
0000
0320
0000
0000
0032
0000
2003
0000
3200
0000
2300
0000
3020
0000
0230
0000
,
0302
0000
0000
0000
,
1003
0010
0100
0001
1000
0001
0010
0100
1000
0010
0100
0010
1000
0100
1000
0001
0200
0000
0000
0000
0000
0000
0000
0000
,
0310
0100
0010
1000
0001
1000
0100
0010
0001
0100
0010
0100
0001
0010
0100
0010
,
0001
1000
0100
1000
0010
0100
0010
1000
0001
0100
0010
0100
0001
1000
0001
0010
,
0100
1000
0010
0100
0010
1000
0100
1000
0001
0010
0001
1000
0100
0010
0001
1000
,
0100
0010
0100
1000
0001
0010
0100
1000
0010
0100
0010
1000
0100
1000
0001
0010
,
0001
1000
0100
0010
0001
1000
0010
0100
0001
0010
0100
0010
0001
1000
0100
1000
,
0001
0100
0001
0010
0100
1000
0010
0100
0010
1000
0100
1000
0001
0100
0010
1000
,
0001
1000
0010
0100
0010
1000
0100
0010
0100
1000
0001
0010
0001
0100
0010
0100
,
0001
0010
0100
1000
0001
0010
0100
0010
0001
1000
0100
1000
0010
0100
0010
1000
0002
0000
0000
0000
0000
0000
0000
0000
,
1003
0100
1000
0001
0010
0100
1000
0010
0100
0010
1000
0100
1000
0001
0010
0100
,
0010
0001
1000
0100
1000
0001
0100
0001
0010
0100
1000
0010
0100
0010
1000
0100
,
1000
0001
0010
0001
1000
0100
0010
0001
0100
0010
0100
0001
0010
0100
0010
0001
,
1000
0100
1000
0010
0100
0010
1000
0001
0100
0010
0100
0001
1000
0001
0010
0100
,
1000
0010
0100
0010
1000
0100
1000
0001
0010
0001
1000
0100
0010
0001
1000
0100
,
0010
0100
1000
0001
0010
0100
1000
0010
0100
0010
1000
0100
1000
0001
0010
0001
,
1000
0100
0010
0001
1000
0010
0100
0001
0010
0100
0010
0001
1000
0100
1000
0001
,
0100
0010
1000
0100
0010
0001
0100
0010
1000
0001
0010
0100
1000
0001
0010
0001
1000
0020
0000
0000
0000
0000
0000
0000
,
1030
0001
0100
0010
1000
0100
0010
0100
1000
0001
0010
0001
0100
0010
0100
0001
,
0010
0001
1000
0100
0010
0001
0100
0010
0100
0001
0010
0001
1000
0100
0010
0100
,
1000
0001
0010
0001
1000
0010
1000
0100
0010
0001
0100
0010
0100
0001
0010
0001
,
1000
0100
1000
0001
0010
0100
1000
0010
0100
0010
1000
0100
0010
0100
1000
0001
,
0010
0001
0100
0010
0100
0001
1000
0010
0100
0010
1000
0001
1000
0100
0010
0001
,
0100
0010
0100
0001
0010
0001
1000
0100
1000
0001
0010
0100
1000
0001
0010
0100
,
0010
0001
1000
0100
0010
0001
0100
0010
0100
0001
0010
0001
1000
0100
1000
0001
,
0100
0010
1000
0100
0010
0001
1000
0010
1000
0100
0010
0100
1000
0001
0010
0001
2000
0000
0000
0000
0000
0000
0000
0000
,
3001
0100
0010
1000
0001
1000
0100
0010
0001
0100
0010
0100
0001
0010
0100
0010
,
0001
1000
0100
1000
0010
0100
0010
1000
0001
0100
0010
0100
0001
1000
0001
0010
,
0100
1000
0010
0100
0010
1000
0100
1000
0001
0010
0001
1000
0100
0010
0001
1000
,
0100
0010
0100
1000
0001
0010
0100
1000
0010
0100
0010
1000
0100
1000
0001
0010
,
0002
2003
3200
0320
0032
2003
3020
0230
0302
0023
0230
0320
0032
2003
3200
2300
,
3002
0203
0302
0023
0230
2300
3020
0230
0320
2030
3200
2300
3002
0203
0320
2030
,
3001
0000
0000
0000
0000
0000
0000
0000
0000
0000
0010
0000
0000
0000
0000
0000
0000
0000
0000
0001
0000
0000
0000
0000
0000
0000
0000
0000
0000
1000
0000
0000
0000
0000
0000
0000
0000
0000
0010
0000
0000
0000
0000
0000
0000
0000
0000
0000
0100
0000
0000
0000
0000
0000
0000
0000
0000
0000
0001
0000
0000
0000
0000
0000
0000
0000
0000
0010
0000
0000
0000
0000
0000
0000
0000
0000
0000
0100
0000
0000
0000
0000
0000
0000
0000
0000
1000
0000
0000
0000
0000
0000
0000
0000
0000
0000
0010
0000
0000
0000
0000
0000
0000
0000
0000
0000
0100
0000
0000
0000
0000
0000
0000
0000
0000
0010
0000
0000
0000
0000
0000
0000
0000
0000
0000
1000
0000
0000
0000
0000
0000
0000
0000
0000
0100
0000
0000
0000
0000
0000
0000
0000
0000
0000
0010
0000
0000
0000
0000
0000
0000
0000
0000
0000
0001
0000
0000
0000
0000
0000
0000
0000
0000
1000
0000
0000
0000
0000
0000
0000
0000
0000
0000
0100
0000
0000
0000
0000
0000
0000
0000
0000
1000
0000
0000
0000
0000
0000
0000
0000
0000
0000
,
0001
0010
0100
1000
0001
0010
0100
0010
0001
1000
0100
1000
0010
0100
0010
1000
0002
0000
0000
0000
0000
0000
0000
0000
,
1003
0001
1000
0000
0010
0100
0010
0000
1000
0100
1000
0000
0001
0010
0001
0000
,
1000
0010
1000
0000
0001
0100
0001
0000
1000
0010
0100
0000
0001
1000
0010
0000
,
1000
0001
1000
0000
0010
0100
0001
0000
1000
0001
1000
0000
0010
0100
0010
0000
,
1000
0100
1000
0000
0001
0010
0001
0000
0100
0010
0100
0000
0001
0100
0001
0010
,
0100
1000
0000
0000
0001
0100
0010
0000
1000
0001
0100
0000
0001
1000
0001
0000
,
1000
0100
1000
0000
0010
0100
0010
0000
1000
0001
0100
0000
0010
0100
0010
0000
,
1000
0100
1000
0000
0001
0010
0001
0000
1000
0010
0100
0000
0001
0100
0001
0000
,
1000
0000
0010
0100
0010
0000
0000
0001
1000
0010
0100
0001
1000
0001
0100
0000
,
0001
0100
0001
0010
0001
1000
0100
1000
0001
0100
0010
1000
0100
0010
0001
0100
,
0010
0100
0001
0010
0001
1000
0010
1000
0100
0010
0001
1000
0100
0010
0100
1000
,
0001
0010
0001
0100
0010
0100
0001
1000
0100
0010
0001
0100
0010
0100
0001
0010
,
0001
1000
0100
1000
0001
0100
0001
0010
0100
1000
0010
0100
0010
1000
0100
1000
,
0002
0023
0230
0320
0032
2003
3200
2300
3020
0230
0320
2030
3002
2003
3200
0320
,
0032
2003
3020
0230
0302
2003
3002
0203
0320
0230
0302
0023
0032
2003
3020
0230
,
0310
0000
0000
0000
0000
0000
0000
0000
0000
0000
1000
0000
0000
0000
0000
0000
0000
0000
0000
0100
0000
0000
0000
0000
0000
0000
0000
0000
0000
0010
0000
0000
0000
0000
0000
0000
0000
0000
0001
0000
0000
0000
0000
0000
0000
0000
0000
0000
0100
0000
0000
0000
0000
0000
0000
0000
0000
0000
0010
0000
0000
0000
0000
0000
0000
0000
0000
0100
0000
0000
0000
0000
0000
0000
0000
0000
0000
0001
0000
0000
0000
0000
0000
0000
0000
0000
1000
0000
0000
0000
0000
0000
0000
0000
0000
0000
0001
0000
0000
0000
0000
0000
0000
0000
0000
0000
0010
0000
0000
0000
0000
0000
0000
0000
0000
0100
0000
0000
0000
0000
0000
0000
0000
0000
0000
1000
0000
0000
0000
0000
0000
0000
0000
0000
0010
0000
0000
0000
0000
0000
0000
0000
0000
0000
0100
0000
0000
0000
0000
0000
0000
0000
0000
0000
0001
0000
0000
0000
0000
0000
0000
0000
0000
0010
0000
0000
0000
0000
0000
0000
0000
0000
0000
0001
0000
0000
0000
0000
0000
0000
0000
0000
1000
0000
0000
0000
0000
0000
0000
0000
0000
0000
,
0001
0010
0100
1000
0001
0100
0010
0100
0001
1000
0010
1000
0100
0010
0001
0100
0010
0200
0000
0000
0000
0000
0000
0000
,
0301
1000
0001
0010
0100
1000
0001
0010
0001
0100
0010
0100
0001
0010
0100
0010
,
0001
1000
0100
1000
0001
0100
0010
0100
0001
1000
0001
0010
0100
1000
0010
0100
,
0010
1000
0001
1000
0100
0010
0001
1000
0100
0010
0100
1000
0001
0010
0001
1000
,
0010
1000
0100
0010
0001
1000
0100
0010
0100
1000
0001
0010
0001
1000
0010
0100
,
0001
0010
0100
1000
0010
0100
0010
1000
0100
1000
0001
0100
0001
0010
0100
1000
,
0001
0010
0100
0010
0001
1000
0100
1000
0010
0100
0010
1000
0001
0010
0100
1000
,
0010
0100
0010
1000
0100
1000
0001
0010
0001
1000
0010
1000
0100
0010
0001
0100
,
0010
1000
0100
1000
0001
0100
0001
0010
0100
1000
0001
0010
0100
0010
0001
1000
0010
0200
0000
0000
0000
0000
0000
0000
,
0301
1000
0001
0010
0100
1000
0001
0100
0010
1000
0001
1000
0010
0100
0010
1000
,
0100
1000
0001
0010
0100
1000
0001
1000
0100
0010
0001
1000
0010
0100
0001
0010
,
0001
1000
0100
1000
0010
0100
0010
1000
0001
1000
0010
0100
0010
1000
0100
0010
,
0001
1000
0100
1000
0001
0100
0001
0010
0100
1000
0010
0100
0010
1000
0100
1000
,
0001
0100
0001
0010
0100
1000
0010
0100
0010
1000
0100
1000
0001
0010
0001
1000
,
0100
0010
0001
0100
0010
0100
0001
1000
0010
1000
0100
0010
0001
0100
0010
0100
,
0001
1000
0001
0010
0100
1000
0001
0010
0001
1000
0100
0010
0001
0100
0010
1000
,
0001
0100
0010
1000
0001
1000
0100
0010
0001
0100
0010
0100
0001
0010
0001
1000
0020
0000
0000
0000
0000
0000
0000
0000
,
0130
0010
0100
0001
1000
0001
0010
0100
1000
0010
0100
0010
1000
0100
0010
0100
,
1000
0001
0010
0001
0100
0010
0100
0001
1000
0010
0100
0010
1000
0001
1000
0100
,
0010
0001
0100
0010
0100
0001
0010
0001
1000
0100
1000
0001
0010
0100
1000
0001
,
0010
0100
0010
0001
1000
0100
0010
0001
0100
0010
0100
0001
0010
0001
1000
0100
,
2000
3002
0023
0230
2300
3002
0203
0320
2030
3200
0320
0230
2300
3002
0023
0032
,
2003
3020
2030
3200
0320
0032
0203
0320
0230
0302
0023
0032
2003
3020
0230
0302
,
1003
0000
0000
0000
0000
0000
0000
0000
0000
0000
0010
0000
0000
0000
0000
0000
0000
0000
0000
0100
0000
0000
0000
0000
0000
0000
0000
0000
0000
0001
0000
0000
0000
0000
0000
0000
0000
0000
0010
0000
0000
0000
0000
0000
0000
0000
0000
0000
0100
0000
0000
0000
0000
0000
0000
0000
0000
0000
1000
0000
0000
0000
0000
0000
0000
0000
0000
0001
0000
0000
0000
0000
0000
0000
0000
0000
0000
0100
0000
0000
0000
0000
0000
0000
0000
0000
0010
0000
0000
0000
0000
0000
0000
0000
0000
0000
1000
0000
0000
0000
0000
0000
0000
0000
0000
0000
0100
0000
0000
0000
0000
0000
0000
0000
0000
1000
0000
0000
0000
0000
0000
0000
0000
0000
0000
0001
0000
0000
0000
0000
0000
0000
0000
0000
0100
0000
0000
0000
0000
0000
0000
0000
0000
0000
0001
0000
0000
0000
0000
0000
0000
0000
0000
0000
0010
0000
0000
0000
0000
0000
0000
0000
0000
0100
0000
0000
0000
0000
0000
0000
0000
0000
0000
1000
0000
0000
0000
0000
0000
0000
0000
0000
0001
0000
0000
0000
0000
0000
0000
0000
0000
0000
,
1000
0100
0010
0001
1000
0100
0010
0100
1000
0001
0010
0001
0100
0010
0100
0001
2000
0000
0000
0000
0000
0000
0000
0000
,
3002
0003
0000
0000
0000
0000
0000
0000
,
1000
0010
0100
0001
0010
0100
1000
0010
0100
0010
1000
0100
0010
0100
1000
0001
0100
0002
0000
0000
0000
0000
0000
0000
,
1003
0100
1000
0001
0010
0100
1000
0010
0100
0010
1000
0100
1000
0001
0010
0100
,
0010
0001
1000
0100
1000
0001
0100
0001
0010
0100
1000
0010
0100
0010
1000
0100
,
1000
0001
0010
0001
1000
0100
0010
0001
0100
0010
0100
0001
0010
0100
0010
0001
,
1000
0100
1000
0010
0100
0010
1000
0001
0100
0010
0100
0001
1000
0001
0010
0100
,
1000
0010
0100
0010
1000
0100
1000
0001
0010
0001
1000
0100
0010
0001
1000
0100
,
0010
0100
1000
0001
0010
0100
1000
0010
0100
0010
1000
0100
1000
0001
0010
0001
,
1000
0100
0010
0001
1000
0010
0100
0001
0010
0100
0010
0001
1000
0100
1000
0001
,
0100
0010
1000
0100
0010
0001
0100
0010
1000
0001
0010
0100
1000
0001
0010
0001
1000
0020
0000
0000
0000
0000
0000
0000
,
1030
0001
0100
0010
1000
0100
0010
0100
1000
0001
0010
0001
0100
0010
0100
0001
,
0010
0001
1000
0100
0010
0001
0100
0010
0100
0001
0010
0001
1000
0100
0010
0100
,
1000
0001
0010
0001
1000
0010
1000
0100
0010
0001
0100
0010
0100
0001
0010
0001
,
1000
0100
1000
0001
0010
0100
1000
0010
0100
0010
1000
0100
0010
0100
1000
0001
,
0010
0001
0100
0010
0100
0001
1000
0010
0100
0010
1000
0001
1000
0100
0010
0001
,
0100
0010
0100
0001
0010
0001
1000
0100
1000
0001
0010
0100
1000
0001
0010
0100
,
0010
0001
1000
0100
0010
0001
0100
0010
0100
0001
0010
0001
1000
0100
1000
0001
,
0100
0010
1000
0100
0010
0001
1000
0010
1000
0100
0010
0100
1000
0001
0010
0001
2000
0000
0000
0000
0000
0000
0000
0000
,
3001
0100
0010
1000
0001
1000
0100
0010
0001
0100
0010
0100
0001
0010
0100
0010
,
0001
1000
0100
1000
0010
0100
0010
1000
0001
0100
0010
0100
0001
1000
0001
0010
,
0100
1000
0010
0100
0010
1000
0100
1000
0001
0010
0001
1000
0100
0010
0001
1000
,
0100
0010
0100
1000
0001
0010
0100
1000
0010
0100
0010
1000
0100
1000
0001
0010
,
0001
1000
0100
0010
0001
1000
0100
0010
0100
1000
0001
0010
0001
1000
0010
1000
,
0100
0010
0001
0100
0010
0100
0001
1000
0001
0010
0100
1000
0010
0100
0010
1000
,
0100
1000
0001
0100
0001
0010
0100
1000
0001
0010
0100
0010
0001
1000
0010
0100
,
0001
1000
0001
0100
0010
0100
0001
0010
0100
0010
0001
1000
0010
0100
0001
0010
0100
2000
0000
0000
0000
0000
0000
0000
,
3010
0100
0010
1000
0001
1000
0100
0010
0001
0100
0010
0100
0001
0010
0100
0010
,
0001
1000
0100
1000
0010
0100
0010
1000
0001
0100
0010
0100
0001
1000
0001
0010
,
0100
1000
0010
0100
0010
1000
0100
1000
0001
0010
0001
1000
0100
0010
0001
1000
,
0100
0010
0100
1000
0001
0010
0100
1000
0010
0100
0010
1000
0100
1000
0001
0010
,
0002
2003
3200
0320
0032
2003
3020
0230
0302
0023
0230
0320
0032
2003
3200
2300
,
3002
0203
0302
0023
0230
2300
3020
0230
0320
2030
3200
2300
3002
0203
0320
2030
,
3001
0000
0000
0000
0000
0000
0000
0000
0000
0000
0010
0000
0000
0000
0000
0000
0000
0000
0000
0001
0000
0000
0000
0000
0000
0000
0000
0000
0000
1000
0000
0000
0000
0000
0000
0000
0000
0000
0010
0000
0000
0000
0000
0000
0000
0000
0000
0000
0100
0000
0000
0000
0000
0000
0000
0000
0000
0000
0001
0000
0000
0000
0000
0000
0000
0000
0000
1000
0000
0000
0000
0000
0000
0000
0000
0000
0000
0001
0000
0000
0000
0000
0000
0000
0000
0000
0010
0000
0000
0000
0000
0000
0000
0000
0000
0000
0100
0000
0000
0000
0000
0000
0000
0000
0000
0000
1000
0000
0000
0000
0000
0000
0000
0000
0000
0010
0000
0000
0000
0000
0000
0000
0000
0000
0000
0100
0000
0000
0000
0000
0000
0000
0000
0000
0010
0000
0000
0000
0000
0000
0000
0000
0000
0000
1000
0000
0000
0000
0000
0000
0000
0000
0000
0000
0100
0000
0000
0000
0000
0000
0000
0000
0000
0010
0000
0000
0000
0000
0000
0000
0000
0000
0000
0001
0000
0000
0000
0000
0000
0000
0000
0000
1000
0000
0000
0000
0000
0000
0000
0000
0000
0000
,
0001
0010
0100
1000
0001
0010
0100
0010
0001
1000
0100
1000
0010
0100
0010
1000
0002
0000
0000
0000
0000
0000
0000
0000
,
2003
3000
0000
0000
0000
0000
0000
0000
0000
0000
0000
0000
0000
0000
1001
0000
,
1010
0110
0000
0000
,
0101
0000
0000
0000
0000
0000
0000
0110
,
1010
0000
0100
0001
0010
0000
0000
0000
0000
0000
0000
0000
0000
0000
0000
0000
,
1100
0000
0000
0000
0000
0000
0000
1010
,
0110
1001
0000
0000
,
0110
0000
0000
0000
,
0100
0010
1000
0100
0010
0001
0100
0010
1000
0001
0010
0100
1000
0001
0010
0001
1000
0020
0000
0000
0000
0000
0000
0000
,
1030
0100
0010
0001
1000
0100
1000
0001
0100
0001
0010
0100
1000
0001
0010
0001
,
0100
0010
0100
0001
0010
0100
1000
0001
0010
0001
0100
0010
0100
0001
1000
0001
,
0010
0100
1000
0001
0100
0010
1000
0100
0010
0001
1000
0100
1000
0010
0100
0010
,
1000
0001
0100
0010
1000
0001
0010
0100
1000
0010
0100
0010
1000
0100
1000
0001
,
0100
0001
0010
0100
1000
0010
0100
0010
1000
0100
1000
0001
0010
0001
1000
0010
,
0100
0001
1000
0001
0010
0100
1000
0001
0100
0010
1000
0001
1000
0100
0010
0001
,
1000
0100
1000
0010
0100
0010
1000
0001
0010
0100
1000
0010
0100
0001
1000
0001
,
0100
0010
1000
0100
0010
0001
1000
0010
1000
0100
0010
0100
1000
0001
0010
0001
2000
0000
0000
0000
0000
0000
0000
0000
,
3001
0100
0010
1000
0001
1000
0100
0010
0001
0100
0010
0100
0001
0010
0100
0010
,
0001
1000
0100
1000
0010
0100
0010
1000
0001
0100
0010
0100
0001
1000
0001
0010
,
0100
1000
0010
0100
0010
1000
0100
1000
0001
0010
0001
1000
0100
0010
0001
1000
,
0100
0010
0100
1000
0001
0010
0100
1000
0010
0100
0010
1000
0100
1000
0001
0010
,
0001
0100
0010
1000
0001
1000
0100
0010
0001
0100
0010
0100
0001
0010
0100
0010
,
0001
1000
0100
1000
0010
0100
0010
1000
0001
0100
0010
0100
0001
1000
0001
0010
,
0100
1000
0010
0100
0010
1000
0100
1000
0001
0010
0001
1000
0100
0010
0001
1000
,
0001
0010
0100
1000
0001
0010
0100
0010
0001
1000
0100
1000
0010
0100
0010
1000
0002
0000
0000
0000
0000
0000
0000
0000
,
1003
0100
1000
0001
0010
0100
1000
0010
0100
0010
1000
0100
1000
0001
0010
0100
,
0010
0001
1000
0100
1000
0001
0100
0001
0010
0100
1000
0010
0100
0010
1000
0100
,
1000
0001
0010
0001
1000
0100
0010
0001
0100
0010
0100
0001
0010
0100
0010
0001
,
1000
0100
1000
0010
0100
0010
1000
0001
0100
0010
0100
0001
1000
0001
0010
0100
,
1000
0010
0100
0010
1000
0100
1000
0001
0010
0001
1000
0100
0010
0001
1000
0100
,
0010
0100
1000
0001
0010
0100
1000
0010
0100
0010
1000
0100
1000
0001
0010
0001
,
1000
0100
0010
0001
1000
0010
0100
0001
0010
0100
0010
0001
1000
0100
1000
0001
,
0100
0010
1000
0100
0010
0001
0100
0010
1000
0001
0010
0100
1000
0001
0010
0001
1000
0020
0000
0000
0000
0000
0000
0000
,
1030
0001
0100
0010
1000
0100
0010
0100
1000
0001
0010
0001
0100
0010
0100
0001
,
0010
0001
1000
0100
0010
0001
0100
0010
0100
0001
0010
0001
1000
0100
0010
0100
,
1000
0001
0010
0001
1000
0010
1000
0100
0010
0001
0100
0010
0100
0001
0010
0001
,
1000
0100
1000
0001
0010
0100
1000
0010
0100
0010
1000
0100
0010
0100
1000
0001
,
0010
0001
0100
0010
0100
0001
1000
0010
0100
0010
1000
0001
1000
0100
0010
0001
,
0100
0010
0100
0001
0010
0001
1000
0100
1000
0001
0010
0100
1000
0001
0010
0100
,
0010
0001
1000
0100
0010
0001
0100
0010
0100
0001
0010
0001
1000
0100
1000
0001
,
0100
0010
1000
0100
0010
0001
1000
0010
1000
0100
0010
0100
1000
0001
0010
0001
2000
0000
0000
0000
0000
0000
0000
0000
,
3001
0100
0010
1000
0001
1000
0100
0010
0001
0100
0010
0100
0001
0010
0100
0010
,
0001
1000
0100
1000
0010
0100
0010
1000
0001
0100
0010
0100
0001
1000
0001
0010
,
0100
1000
0010
0100
0010
1000
0100
1000
0001
0010
0001
1000
0100
0010
0001
1000
,
0100
0010
0100
1000
0001
0010
0100
1000
0010
0100
0010
1000
0100
1000
0001
0010
,
0100
1000
0010
0100
0010
1000
0001
1000
0100
0010
0001
0100
0010
0100
0001
0010
,
0100
0010
0001
1000
0100
1000
0010
0100
0010
1000
0001
0100
0010
0100
0001
1000
,
0001
0010
0100
1000
0010
0100
0010
1000
0100
1000
0001
0010
0001
1000
0100
0010
,
0001
1000
0100
0010
0001
0100
0010
1000
0001
0010
0100
1000
0001
0010
0001
1000
0020
0000
0000
0000
0000
0000
0000
0000
,
1030
0001
0100
0010
1000
0100
0010
0100
1000
0001
0010
0001
0100
0010
0100
0001
,
0010
0001
1000
0100
0010
0001
0100
0010
0100
0001
0010
0001
1000
0100
0010
0100
,
1000
0001
0010
0001
1000
0010
1000
0100
0010
0001
0100
0010
0100
0001
0010
0001
,
1000
0100
1000
0001
0010
0100
1000
0010
0100
0010
1000
0100
0010
0100
1000
0001
,
0010
0001
0100
0010
0100
0001
1000
0010
0100
0010
1000
0001
1000
0100
0010
0001
,
0100
0010
0100
0001
0010
0001
1000
0100
1000
0001
0010
0100
1000
0001
0010
0100
,
0010
0001
1000
0100
0010
0001
0100
0010
0100
0001
0010
0001
1000
0100
1000
0001
,
0100
0010
1000
0100
0010
0001
1000
0010
1000
0100
0010
0100
1000
0001
0010
0001
2000
0000
0000
0000
0000
0000
0000
0000
,
3001
0100
0010
0000
1000
0010
1000
0000
0001
0010
0001
0000
1000
0100
1000
0000
,
0010
0100
0010
0000
1000
0001
1000
0000
0001
0100
0001
0000
1000
0010
0100
0000
,
0001
1000
0001
0000
0100
0001
0010
0000
1000
0010
0100
0000
0001
1000
0001
0000
,
1000
0100
1000
0000
0001
0100
0010
0000
1000
0010
0100
0000
0001
1000
0010
0000
,
0100
0010
0100
0001
1000
0001
0010
0100
1000
0010
0100
0010
1000
0100
0010
0100
,
1000
0001
0010
0001
0100
0010
0100
0001
1000
0010
0100
0010
1000
0001
1000
0100
,
0010
0001
0100
0010
0100
0001
0010
0001
1000
0100
1000
0001
0010
0100
1000
0001
,
1000
0100
0010
0001
1000
0100
0010
0100
1000
0001
0010
0001
0100
0010
0100
0001
2000
0000
0000
0000
0000
0000
0000
0000
,
3002
0000
0000
0000
,
0000
0000
0000
0000
,
0003
0000
0000
0000
,
0000
0000
0000
0000
,
0000
0000
0000
0000
;
