#TITLE:Genocide;
#SUBTITLE:(OST);
#ARTIST:dj Killer;
#TITLETRANSLIT:;
#SUBTITLETRANSLIT:;
#ARTISTTRANSLIT:;
#CREDIT:;
#BANNER:banner.png;
#BACKGROUND:Background.png;
#LYRICSPATH:;
#CDTITLE:cdtitle.png;
#MUSIC:13 - [DRUM'N'BASS] GENOCIDE.mp3;
#OFFSET:-0.460;
#SAMPLESTART:34.306;
#SAMPLELENGTH:12.000;
#SELECTABLE:YES;
#BPMS:0.000=175.000;
#STOPS:;
#BGCHANGES:;
// cache tags:
#FIRSTBEAT:0.000;
#LASTBEAT:279.000;
#SONGFILENAME:Songs/Fabulously Fresh Flock of Fantastic Files F5/(Benny1) Genocide/genocide.sm;
#HASMUSIC:1;
#HASBANNER:1;
#MUSICLENGTH:99.244;
// end cache tags

//---------------dance-single - ----------------
#NOTES:
     dance-single:
     :
     Hard:
     12:
     1.000,1.000,1.000,0.050,1.000,846.000,123.000,5.000,0.000,0.000:
1001
0000
0100
0010
0100
0000
1001
0000
0010
0100
0001
0000
1010
0000
0000
0100
0000
0000
0010
0000
0000
1001
0000
0000
,
0100
0010
1000
0001
0100
0010
0100
0011
,
1001
0000
0100
1000
0010
0000
0101
0000
0010
0001
0100
0000
1000
0000
0000
0100
0000
0000
0001
0000
0000
1100
0000
0000
,
0010
1000
0001
0100
0010
0100
1000
0011
,
1100
0000
0001
0010
0001
0000
1100
0000
0010
0001
0010
0000
0100
0000
0000
0010
0000
0000
0100
0000
0000
1001
0000
0000
,
0100
0000
0000
0010
0000
0000
1000
0000
0000
0001
0000
0000
0100
0000
0000
1001
0000
0010
0100
0010
0000
1001
0000
0000
,
0110
0000
0010
1000
0001
0000
0100
0000
0000
0010
0000
0000
1000
0000
0000
0001
0000
0000
0100
0000
0000
0011
0000
0000
,
1100
0000
0010
1000
0001
0000
0101
0000
0010
0001
1000
0000
0210
0000
0000
0000
0000
0000
0000
0000
0000
0000
0000
0000
,
0301
0010
0100
0001
2020
0000
3030
0100
0001
0010
0100
0010
0001
0000
0100
0010
,
1000
0100
0000
0010
0001
0000
0100
0010
0000
0100
0001
0010
0001
0010
0100
0001
,
1000
0000
0000
0100
0000
0000
0010
0000
0001
0000
0000
0000
0010
0000
0100
0000
0000
0000
0100
0000
0010
0000
1000
0000
0001
0000
0100
0000
0010
0000
0001
0000
,
0100
0001
0000
0010
0100
0000
0001
1000
0000
1000
0001
0100
0010
0100
0010
0001
,
0100
0010
0000
0010
1000
0000
0100
0010
0000
0001
0010
0100
1000
0100
0010
0001
,
0010
0100
1000
0001
0000
0000
0010
0100
0000
0010
0100
0010
0000
0010
1000
0010
,
0000
0010
0000
0010
0001
0010
0100
0010
0000
0001
0010
0100
0010
0001
1000
0100
,
0010
0001
0100
0010
1001
0100
0010
0001
1000
0100
0010
0100
1000
0001
0010
0100
,
0010
0100
0000
0100
0010
0000
0001
0000
0100
0010
0001
0010
0100
1000
0001
0100
,
0010
1000
0000
1000
0010
0000
0001
0010
0000
0010
0100
0001
1000
0100
0010
0100
,
0001
0010
0000
0100
1000
0000
0100
0001
0000
0010
0100
1000
0100
0010
0001
0100
,
0010
0100
1000
0001
0110
0000
1000
0001
0000
0010
0100
1000
0011
0100
1000
0001
,
0100
0001
0000
0010
0100
0000
0001
0010
0000
0100
0010
0001
1000
0100
0010
0001
,
0100
0001
0000
0001
0100
0000
0010
0100
0000
1000
0001
0100
0010
0100
0010
0100
,
0001
0010
0000
0010
0100
0000
0100
1000
0000
0100
0010
0001
0100
0010
0100
1000
,
0100
0010
0001
0100
0010
0001
0000
1000
0100
0010
0001
0100
0010
1000
0010
1000
,
0010
0100
0010
0001
1001
0000
0000
0100
0010
0001
1000
0100
0011
0000
0000
0010
,
0001
0100
0010
1000
0101
0000
0010
1000
0000
0010
0001
0100
1001
0000
0000
0000
,
0100
0010
0001
1000
0110
0000
0000
0001
0100
0010
0100
0001
1010
0000
0100
0010
,
0001
0100
0010
1000
0110
0000
1000
0001
0000
0010
0100
0001
1010
0000
0100
0010
,
1001
0000
0000
0100
1001
0000
0000
0001
0110
0001
0000
1001
0100
0000
0010
0100
,
1001
0010
0000
0010
1001
0000
0000
0010
1001
0100
0000
0001
0110
0001
0000
0100
,
1001
0100
0000
0010
1001
0000
0000
0100
1001
0100
0000
0100
1001
0100
0010
0000
,
1001
0000
0000
0100
1001
0000
0000
0100
1001
0010
0000
0100
1001
0010
1000
0010
,
0101
0010
0000
0100
1010
0001
0000
0100
0011
0100
0000
0010
0101
1000
0010
0100
,
0011
0100
0000
0010
1100
0010
0000
0100
1010
0100
0000
0010
0101
0010
0000
0100
,
1001
0100
0000
0010
1001
0010
0000
0100
1001
0100
0000
0010
0101
0010
1000
0100
,
0011
0100
0000
0010
1001
0100
0000
0010
0101
0010
0000
0100
1001
0100
0000
0010
,
1100
0001
0000
0100
1001
0010
0000
0100
1010
0100
0000
0010
0101
1000
0100
0010
,
0101
0010
0000
1000
0101
0010
0000
0100
1001
0010
0000
0100
1001
0010
0000
0100
,
1001
0010
0000
0001
0110
1000
0000
1000
0110
0001
0000
0100
1001
0010
0000
0100
,
1001
0010
0000
0100
1001
0010
0000
0100
1001
0010
0000
0100
1001
0100
0000
0010
,
1001
0000
1001
0000
1001
0000
0000
0001
0100
0010
0100
1000
0001
0010
0000
0010
,
0101
0000
0101
0000
0101
0000
0010
1000
0100
0010
0001
0010
0100
1000
0000
0100
,
1010
0000
1010
0000
1010
0000
0000
0100
0010
0001
0010
0100
1000
0100
0000
0010
,
1001
0010
0001
0010
0001
0000
0100
0010
0100
0000
0010
0000
0010
0000
0100
0001
,
0100
0010
0100
0000
0100
0000
0010
0001
0010
0001
0010
0001
0010
0000
0100
1000
,
0010
1000
0010
1000
0010
0000
0100
0010
0001
0010
0001
0010
0001
0000
0100
0010
,
1000
0001
1000
0001
1000
0000
0100
0010
0001
0010
0001
0010
0001
0000
0100
0010
,
1000
0100
1000
0100
1000
0000
0010
0100
1000
0001
1000
0001
1000
0000
0100
0001
,
0010
0100
0010
0100
0010
0000
1000
0100
0010
0001
0010
0001
0010
0000
0100
0010
,
1000
0001
1000
0001
1000
0000
0100
1000
0001
0010
0001
0010
0001
0000
0100
0010
,
1000
0001
1000
0001
1000
0000
0001
1000
0010
0100
0010
0100
0010
0001
0010
0100
,
1000
0001
0010
0100
1000
0001
0010
0100
1000
0100
0010
0001
1000
0100
0010
0001
,
1010
0000
1010
0000
1010
0000
0000
0100
0010
0100
1000
0001
0010
0100
0000
0010
,
1001
0000
1001
0000
1001
0000
0100
0010
0100
1000
0001
0010
0100
0010
0000
1000
,
0101
0000
0101
0000
0101
0000
0000
0010
0100
1000
0001
0010
0100
0010
0000
1000
,
0101
0000
0101
0000
0101
0000
0010
0100
1000
0001
0010
0100
1000
0100
0000
0010
,
0101
0000
0101
0000
0101
0000
0000
0100
0010
1000
0001
0100
0010
0100
0000
1000
,
0101
0000
0101
0000
0101
0000
0001
0010
0100
1000
0100
0010
0001
0010
0000
0100
,
1010
0000
1010
0000
1010
0000
0000
0100
0010
0100
1000
0001
0100
0010
0000
0100
,
1001
0000
1001
0000
1001
0000
0100
0010
1000
0001
0010
0100
1000
0100
0000
0010
,
1001
0100
0010
1000
0001
0000
0000
0100
0010
0001
0100
0010
0100
0010
0001
0000
,
1000
0100
0000
0010
0001
0100
0010
1000
0001
0100
0010
0100
1000
0001
0100
0010
,
1000
0001
0100
0010
1000
0000
0000
0010
0001
0010
0100
1000
0001
0010
0100
1000
,
0001
0100
0010
1000
0101
0000
0010
0100
1000
0001
0010
0100
1000
0001
0010
0100
,
0010
0001
0000
0001
0010
0000
0100
0010
1000
0001
0010
0001
0100
0010
0001
0100
,
0010
1000
0000
1000
0010
0000
0000
0100
0000
0010
1000
0001
0100
0010
0100
1000
,
0101
1001
0110
1001
0101
1010
0110
1001
,
0100
0010
1000
0001
0100
0010
1000
0001
1000
0100
0010
0001
1000
0100
0010
0001
,
2000
0002
0000
0000
0000
0000
0000
0000
,
0000
0000
0000
3003
;

//---------------dance-single - ----------------
#NOTES:
     dance-single:
     :
     Challenge:
     12:
     1.000,1.000,1.000,0.050,1.000,866.000,123.000,5.000,0.000,0.000:
1001
0000
0100
0010
0100
0000
1001
0000
0010
0100
0001
0000
1010
0000
0000
0100
0000
0000
0010
0000
0000
1001
0000
0000
,
0100
0010
1000
0001
0100
0010
0100
0011
,
1001
0000
0100
1000
0010
0000
0101
0000
0010
0001
0100
0000
1000
0000
0000
0100
0000
0000
0001
0000
0000
1100
0000
0000
,
0010
1000
0001
0100
0010
0100
1000
0011
,
1100
0000
0001
0010
0001
0000
1100
0000
0010
0001
0010
0000
0100
0000
0000
0010
0000
0000
0100
0000
0000
1001
0000
0000
,
0100
0000
0000
0010
0000
0000
1000
0000
0000
0001
0000
0000
0100
0000
0000
1001
0000
0010
0100
0010
0000
1001
0000
0000
,
0110
0000
0010
1000
0001
0000
0100
0000
0000
0010
0000
0000
1000
0000
0000
0001
0000
0000
0100
0000
0000
0011
0000
0000
,
1100
0000
0010
1000
0001
0000
0101
0000
0010
0001
1000
0000
0210
0000
0000
0000
0000
0000
0000
0000
0000
0000
0000
0000
,
0301
0010
0100
0001
2020
0000
3030
0100
0001
0010
0100
0010
0001
0000
0100
0010
,
1000
0100
0000
0010
0001
0000
0100
0010
0000
0100
0001
0010
0001
0010
0100
0001
,
1000
0000
0000
0100
0000
0000
0010
0000
0001
0000
0000
0000
0010
0000
0100
0000
0000
0000
0100
0000
0010
0000
1000
0000
0001
0000
0100
0000
0010
0000
0001
0000
,
0100
0001
0000
0010
0100
0000
0001
1000
0000
1000
0001
0100
0010
0100
0010
0001
,
0100
0010
0000
0010
1000
0000
0100
0010
0000
0001
0010
0100
1000
0100
0010
0001
,
0010
0100
1000
0001
0000
0000
0010
0100
0000
0010
0100
0010
0000
0010
1000
0010
,
0000
0010
0000
0010
0001
0010
0100
0010
0000
0001
0010
0100
0010
0001
1000
0100
,
0010
0001
0100
0010
1001
0100
0010
0001
1000
0100
0010
0100
1000
0001
0010
0100
,
0010
0100
0000
0100
0010
0000
0001
0000
0100
0010
0001
0010
0100
1000
0001
0100
,
0010
1000
0000
1000
0010
0000
0001
0010
0000
0010
0100
0001
1000
0100
0010
0100
,
0001
0010
0000
0100
1000
0000
0100
0001
0000
0010
0100
1000
0100
0010
0001
0100
,
0010
0100
1000
0001
0110
0000
1000
0001
0000
0010
0100
1000
0011
0100
1000
0001
,
0100
0001
0000
0010
0100
0000
0001
0010
0000
0100
0010
0001
1000
0100
0010
0001
,
0100
0001
0000
0001
0100
0000
0010
0100
0000
1000
0001
0100
0010
0100
0010
0100
,
0001
0010
0000
0010
0100
0000
0100
1000
0000
0100
0010
0001
0100
0010
0100
1000
,
0100
0000
0010
0000
0001
0000
0100
0000
0010
0000
0001
0000
0000
0000
1000
0000
0100
0000
0010
0000
0001
0000
0100
0000
0001
0010
0100
1000
0001
0010
0100
1000
,
0001
0100
0010
0001
1001
0000
0000
0100
0010
0001
1000
0100
0011
0000
0000
0010
,
0001
0100
0010
1000
0101
0000
0010
1000
0000
0010
0001
0100
1001
0000
0000
0000
,
0100
0010
0001
1000
0110
0000
0000
0001
0100
0010
0100
0001
1010
0000
0100
0010
,
0001
0100
0010
1000
0110
0000
1000
0001
0000
0010
0100
0001
1010
0000
0100
0010
,
1001
0000
0000
0100
1001
0000
0000
0001
0110
0001
0000
1001
0100
0000
0010
0100
,
1001
0010
0000
0010
1001
0000
0000
0010
1001
0100
0000
0001
0110
0001
0000
0100
,
1001
0100
0000
0010
1001
0000
0000
0100
1001
0100
0000
0100
1001
0100
0010
0000
,
1001
0000
0000
0100
1001
0000
0000
0100
1001
0010
0000
0100
1001
0010
1000
0010
,
0101
0010
0000
0100
1010
0001
0000
0100
0011
0100
0000
0010
0101
1000
0010
0100
,
0011
0100
0000
0010
1100
0010
0000
0100
1010
0100
0000
0010
0101
0010
0000
0100
,
1001
0100
0000
0010
1001
0010
0000
0100
1001
0100
0000
0010
0101
0010
1000
0100
,
0011
0100
0000
0010
1001
0100
0000
0010
0101
0010
0000
0100
1001
0100
0000
0010
,
1100
0001
0000
0100
1001
0010
0000
0100
1010
0100
0000
0010
0101
1000
0100
0010
,
0101
0010
0000
1000
0101
0010
0000
0100
1001
0010
0000
0100
1001
0010
0000
0100
,
1001
0010
0000
0001
0110
1000
0000
1000
0110
0001
0000
0100
1001
0010
0000
0100
,
1001
0010
0000
0100
1001
0010
0000
0100
1001
0010
0000
0100
1001
0100
0000
0010
,
1001
0000
1001
0000
1001
0000
0000
0001
0100
0010
0100
1000
0001
0010
0000
0010
,
0101
0000
0101
0000
0101
0000
0010
1000
0100
0010
0001
0010
0100
1000
0000
0100
,
1010
0000
1010
0000
1010
0000
0000
0100
0010
0001
0010
0100
1000
0100
0000
0010
,
1001
0010
0001
0010
0001
0000
0100
0010
0100
0000
0010
0000
0010
0000
0100
0001
,
0100
0010
0100
0000
0100
0000
0010
0001
0010
0001
0010
0001
0010
0000
0100
1000
,
0010
1000
0010
1000
0010
0000
0100
0010
0001
0010
0001
0010
0001
0000
0100
0010
,
1000
0001
1000
0001
1000
0000
0100
0010
0001
0010
0001
0010
0001
0000
0100
0010
,
1000
0100
1000
0100
1000
0000
0010
0100
1000
0001
1000
0001
1000
0000
0100
0001
,
0010
0100
0010
0100
0010
0000
1000
0100
0010
0001
0010
0001
0010
0000
0100
0010
,
1000
0001
1000
0001
1000
0000
0100
1000
0001
0010
0001
0010
0001
0000
0100
0010
,
1000
0001
1000
0001
1000
0000
0001
1000
0010
0100
0010
0100
0010
0001
0010
0100
,
1000
0000
0001
0000
0010
0000
0100
0000
1000
0000
0001
0000
0010
0000
0100
0000
1000
0100
0010
0001
1000
0100
0010
0001
1000
0100
0010
0001
1000
0100
0010
0001
,
1010
0000
1010
0000
1010
0000
0000
0100
0010
0100
1000
0001
0010
0100
0000
0010
,
1001
0000
1001
0000
1001
0000
0100
0010
0100
1000
0001
0010
0100
0010
0000
1000
,
0101
0000
0101
0000
0101
0000
0000
0010
0100
1000
0001
0010
0100
0010
0000
1000
,
0101
0000
0101
0000
0101
0000
0010
0100
1000
0001
0010
0100
1000
0100
0000
0010
,
0101
0000
0101
0000
0101
0000
0000
0100
0010
1000
0001
0100
0010
0100
0000
1000
,
0101
0000
0101
0000
0101
0000
0001
0010
0100
1000
0100
0010
0001
0010
0000
0100
,
1010
0000
1010
0000
1010
0000
0000
0100
0010
0100
1000
0001
0100
0010
0000
0100
,
1001
0000
1001
0000
1001
0000
0100
0010
1000
0001
0010
0100
1000
0100
0000
0010
,
1001
0100
0010
1000
0001
0000
0000
0100
0010
0001
0100
0010
0100
0010
0001
0000
,
1000
0100
0000
0010
0001
0100
0010
1000
0001
0100
0010
0100
1000
0001
0100
0010
,
1000
0001
0100
0010
1000
0000
0000
0010
0001
0010
0100
1000
0001
0010
0100
1000
,
0001
0100
0010
1000
0101
0000
0010
0100
1000
0001
0010
0100
1000
0001
0010
0100
,
0010
0001
0000
0001
0010
0000
0100
0010
1000
0001
0010
0001
0100
0010
0001
0100
,
0010
1000
0000
1000
0010
0000
0000
0100
0000
0010
1000
0001
0100
0010
0100
1000
,
0101
1001
0110
1001
0101
1010
0110
1001
,
0100
0000
0010
0000
1000
0000
0001
0000
0100
0000
0010
0000
1000
0000
0001
0000
1000
0100
0010
0001
1000
0100
0010
0001
1000
0100
0010
0001
1000
0100
0010
0001
,
2000
0002
0000
0000
0000
0000
0000
0000
,
0000
0000
0000
3003
;
