#TITLE:I Dance With Wolves;
#SUBTITLE:;
#ARTIST:Across The Kingdom;
#TITLETRANSLIT:;
#SUBTITLETRANSLIT:;
#ARTISTTRANSLIT:;
#CREDIT:;
#BANNER:../Banner.png;
#BACKGROUND:../BG.png;
#LYRICSPATH:;
#CDTITLE:../CDTitleKIRBY.png;
#MUSIC:I Dance With Wolves.ogg;
#OFFSET:-0.084;
#SAMPLESTART:60.884;
#SAMPLELENGTH:24.000;
#SELECTABLE:YES;
#BPMS:0.000=150.000;
#STOPS:;
#BGCHANGES:;
// cache tags:
#FIRSTBEAT:16.000;
#LASTBEAT:450.000;
#SONGFILENAME:Songs/Index Fusion/I Dance With Wolves - [Kirby5464]/I Dance With Wolves.sm;
#HASMUSIC:1;
#HASBANNER:1;
#MUSICLENGTH:180.819;
// end cache tags

//---------------dance-single - ----------------
#NOTES:
     dance-single:
     :
     Challenge:
     15:
     0.983,1.000,0.044,0.044,1.000,1228.000,8.000,8.000,1.000,0.000:
0000
0000
0000
0000
,
0000
0000
0000
0000
,
0000
0000
0000
0000
,
0000
0000
0000
0000
,
1000
0001
0100
0010
1000
0001
1000
0000
,
0001
1000
0001
0010
0100
1000
0001
0000
,
0100
0010
0100
0001
1000
0001
1000
0000
,
0010
0100
0010
1000
0001
1000
0010
0000
,
1000
0001
0010
0100
1000
0010
0100
0000
,
0010
1000
0001
0010
0001
0100
0010
0000
,
1000
0100
1000
0001
0010
0100
1000
0000
,
0001
0010
0001
0100
0001
1000
0200
0000
,
0310
0100
0010
1000
0001
0100
0001
1000
0100
0010
0001
0100
0010
1000
0010
0100
,
0001
0010
0001
1000
0100
0010
0001
1000
0100
1000
0001
0100
0010
1000
0100
1000
,
0001
0010
0100
1000
0001
1000
0010
0100
0001
1000
0001
0010
0100
1000
0100
0010
,
0001
1000
0001
0100
0010
1000
0001
0010
0001
1000
0010
1000
0100
1000
0001
0010
,
0001
1000
0010
0100
0001
1000
0001
0010
0100
1000
0001
0010
0001
0100
0010
0100
,
0001
1000
0100
0010
0001
1000
0001
0100
0010
1000
0010
0100
0001
1000
0100
0010
,
0001
1000
0010
1000
0100
0010
0001
1000
0010
0100
0001
1000
0001
0010
0100
1000
,
0010
0100
0001
1000
0001
0100
0010
1000
0010
0100
0001
1000
0100
0010
0001
1000
,
0020
0000
0000
0000
,
0000
0000
0000
0000
0000
0000
0000
0000
1030
0000
0001
1000
0001
0010
0100
1000
,
0001
1000
0001
1001
,
0100
0000
0010
0000
0001
1000
1001
0000
,
0100
0010
0100
1001
,
1000
0000
0001
0000
0100
0001
1000
0010
,
0110
1000
0010
0101
,
0010
0000
1000
0000
0010
0100
0110
0000
,
1000
0001
1000
1001
,
0010
0000
1000
0000
0001
1000
1001
0100
,
0010
1000
0100
1000
,
0001
0010
0100
1000
0010
0100
0001
0010
,
0001
1000
0100
1000
0001
0100
0001
1000
,
0010
0100
0001
0010
0001
1000
0100
0010
,
0001
0000
0100
0000
0010
1000
0100
0010
0001
1000
0010
0100
0001
0010
0100
1000
,
0001
0100
0010
1000
0100
1000
0010
0100
,
0001
0010
0100
1000
0001
0100
0010
1000
,
0100
1000
0010
0100
0001
0010
0100
1000
,
0001
0000
0100
0000
0010
0000
1000
0000
0100
1000
0001
0100
0010
1000
0001
0100
,
0001
0010
0001
1000
0100
1000
0001
0010
0100
1000
0001
1000
0010
0100
0001
1000
,
0001
0010
0100
1000
0001
1000
0010
0100
0001
0010
0100
1000
0001
0010
0001
1000
,
0010
1000
0100
1000
0001
0010
0001
1000
0010
1000
0100
0010
0100
1000
0001
0010
,
0001
1000
0010
0100
0001
1000
0001
0010
0100
1000
0001
0010
0001
0100
0010
0100
,
0001
0000
0000
1000
0000
0000
0100
0000
0000
0010
0000
0000
0001
0000
0000
1000
0000
0000
0001
0000
0000
0100
0000
0000
0010
0000
1000
0000
0001
0000
0100
0000
0001
0000
1000
0000
0100
0000
1000
0000
0010
0000
0100
0000
0001
0000
1000
0000
,
0100
0010
0001
1000
0001
0100
0010
1000
0001
1000
0100
0010
0001
0100
0001
1000
0001
0010
0100
1000
0010
1000
0001
0100
,
0001
1000
0100
1000
0010
0100
0001
1000
0100
0010
0001
1000
0001
0100
0010
1000
,
0001
1000
0100
0010
0001
0100
0001
1000
0001
0010
0100
1000
0001
0100
0001
0010
,
0200
0000
2300
0000
,
3200
0000
0000
0000
0310
0001
0010
0100
,
1000
0001
1000
0100
0010
0001
0100
0001
,
1000
0001
0010
0100
1000
0010
1000
0001
,
0100
0001
1000
0100
1000
0010
0100
0001
,
1000
0100
0010
0001
0100
0001
1000
0001
,
0010
0100
1000
0001
0100
0001
0010
0100
,
1000
0001
0100
0010
1000
0001
1000
0010
,
0100
0001
1000
0001
0010
0100
1000
0001
,
0100
0010
1000
0001
0100
0001
0010
0001
,
1000
0000
0010
0000
0100
0000
0010
1000
,
0001
0010
0100
0010
0001
1000
0001
1000
,
0010
0100
0010
1000
0001
0010
0100
1000
,
0100
0010
0001
1000
0001
0010
0100
0010
,
1000
0000
0001
0000
1000
0010
0100
0001
0010
0001
1000
0100
0010
0100
1000
0010
,
0100
0001
1000
0001
0010
0100
1000
0010
,
0100
0001
1000
0001
0100
0010
1000
0010
,
0100
0001
1000
0100
0010
0001
1000
0010
,
1000
0000
0100
0000
0010
0000
0001
0000
1000
0001
0100
0010
1000
0010
0100
0001
,
0010
0100
1000
0001
0100
0001
1000
0100
1000
0010
0100
0001
0010
0100
1000
0001
,
0100
0010
1000
0100
1000
0010
0100
0001
0010
0001
1000
0100
0010
0001
1000
0010
,
1000
0001
0010
0001
1000
0100
0010
0001
1000
0010
0100
0010
1000
0100
1000
0001
,
0100
0010
1000
0100
1000
0001
0010
0001
1000
0100
0010
0001
1000
0010
0100
0001
,
0010
0000
0000
0001
0000
0000
1000
0000
0000
0100
0000
0000
0010
0000
0000
0100
0000
0000
1000
0000
0000
0010
0000
0000
0100
0000
0001
0000
1000
0000
0001
0000
0010
0000
0100
0000
1000
0000
0001
0000
0100
0000
0001
0000
0010
0000
0100
0000
,
1000
0001
1000
0010
0100
0010
1000
0001
0100
0001
1000
0010
0100
0001
1000
0001
0010
0100
1000
0100
1000
0001
1000
0001
,
1000
0001
0010
0001
0100
0010
0100
0001
1000
0001
1000
0100
0010
0001
1000
0001
,
1000
0010
0100
0001
1000
0001
0010
0100
1000
0001
0100
0001
1000
0001
1000
0100
,
0010
0001
1000
0001
1000
0010
0100
0010
1000
0001
1000
0001
1000
0100
1000
0100
,
0010
0001
0010
0001
1000
0010
1000
0001
0100
0010
1000
0001
0010
0001
1000
0100
,
0010
0100
1000
0001
1000
0001
0100
0010
0100
0001
1000
0010
1000
0001
0100
0010
,
1000
0001
1000
0100
0010
0001
0010
0001
1000
0001
1000
0010
0100
0001
0100
0001
,
0100
0000
0000
0001
0000
0000
1000
0000
0000
0100
0000
0000
0010
0000
0000
0001
0000
0000
0010
0000
0000
0100
0000
0000
1000
0000
0001
0000
0100
0000
0001
0000
1000
0000
0100
0000
0010
0000
0001
0000
0010
0000
0001
0000
1000
0000
0100
0000
,
1000
0001
0100
0001
1000
0001
0010
0100
1000
0001
0100
0010
1000
0010
1000
0001
0010
0100
1000
0001
0010
0001
1000
0001
,
1000
0010
0100
0010
1000
0001
0010
0001
1000
0010
0100
0001
1000
0001
0010
0100
,
1000
0010
0100
0010
1000
0001
1000
0010
,
0100
0001
0100
0010
1000
0001
1000
0000
,
0001
1000
0001
0010
0100
1000
0001
0000
,
0100
0010
0100
0001
1000
0001
1000
0000
,
0010
0100
0010
1000
0001
1000
0010
0000
,
1000
0001
0010
0100
1000
0010
0100
0000
,
0010
1000
0001
0010
0001
0100
0010
0000
,
1000
0100
1000
0001
0010
0100
1000
0000
,
0001
0010
0001
0100
0001
1000
0001
0000
,
0200
0000
0000
0300
,
0000
0000
0001
0100
0001
0000
2000
0000
,
3001
1000
0100
0010
0001
1000
0001
0100
0010
0100
0001
1000
0010
1000
0001
1000
,
0100
0010
0001
0010
0100
1000
0001
1000
0001
0100
0010
0100
0001
1000
0010
1000
,
0001
0100
0010
1000
0001
0010
0100
0010
0001
1000
0100
1000
0001
0100
0001
1000
,
0010
0100
0010
1000
0001
0010
0100
1000
0100
0010
0001
1000
0010
0100
0001
1000
,
0001
0000
0000
0010
0000
0000
0100
0000
0000
0010
0000
0000
0001
0000
0000
1000
0000
0000
0100
0000
0000
1000
0000
0000
0001
0000
0100
0000
0001
0000
1000
0000
0100
0000
0010
0000
0001
0000
0010
0000
0100
0000
1000
0000
0001
0000
1000
0000
,
0001
0100
0010
1000
0010
1000
0001
0100
0010
1000
0001
1000
0001
0010
0100
1000
0001
1000
0100
0010
0100
1000
0001
1000
,
0010
0100
0001
1000
0010
0100
0001
1000
0001
0010
0100
1000
0100
0010
0001
1000
,
0001
0100
0010
0100
0001
1000
0001
1000
0100
0010
0001
1000
0010
0100
0010
1000
,
0001
0100
0001
1000
0100
0010
0001
0100
0010
1000
0010
0100
0001
0010
0001
1000
,
0100
0010
0001
1000
0100
1000
0001
0100
0010
1000
0010
0100
0001
1000
0100
1000
,
0001
0100
0010
1000
0001
0010
0001
1000
0100
0010
0001
0100
0010
1000
0010
0100
,
0001
1000
0100
1000
0010
0100
0010
1000
0001
0100
0001
1000
0010
0100
0010
1000
,
0001
0000
0000
0010
0000
0000
0001
0000
0000
1000
0000
0000
0100
0000
0000
0010
0000
0000
0001
0000
0000
1000
0000
0000
0001
0000
0100
0000
0001
0000
0010
0000
0001
0000
1000
0000
0100
0000
1000
0000
0001
0000
0010
0000
0100
0000
1000
0000
,
0001
1000
0010
0100
0001
1000
0001
0010
0100
1000
0001
1000
0010
0100
0001
0010
0100
1000
0001
0010
0001
1000
0010
1000
,
0100
1000
0001
0010
0001
1000
0010
1000
0100
0010
0100
1000
0001
0010
0001
1000
0010
0100
0001
1000
0001
0010
0100
1000
,
0001
0010
0001
0100
0010
0100
0001
1000
0100
0010
0001
1000
0001
0100
0010
1000
0001
0100
0001
1000
0100
1000
0010
0100
,
0002
0000
0000
0000
,
0000
0000
0000
0000
,
0000
0000
0000
0000
,
0003
0000
0000
0000
,
0000
0000
00M0
0000
;
