#TITLE:Dragon Blade;
#SUBTITLE:;
#ARTIST:Kozo Nakamura;
#TITLETRANSLIT:;
#SUBTITLETRANSLIT:;
#ARTISTTRANSLIT:;
#CREDIT:;
#BANNER:Dragon Blade.png;
#BACKGROUND:Dragon Blade-bg.png;
#LYRICSPATH:;
#CDTITLE:!DokuDX.png;
#MUSIC:Guitar Freaks 11th Mix & Drummania 10th Mix - Dragon Blade.mp3;
#OFFSET:-6.040;
#SAMPLESTART:31.500;
#SAMPLELENGTH:12.500;
#SELECTABLE:YES;
#BPMS:0.000=239.980;
#STOPS:;
#BGCHANGES:;
// cache tags:
#FIRSTBEAT:0.000;
#LASTBEAT:446.000;
#SONGFILENAME:Songs/dragon/DragonBlade3/Dragon Blade.sm;
#HASMUSIC:1;
#HASBANNER:1;
#MUSICLENGTH:118.943;
// end cache tags

//---------------dance-single - ----------------
#NOTES:
     dance-single:
     :
     Easy:
     5:
     0.374,0.467,0.210,0.034,0.000,282.000,25.000,4.000,0.000,0.000:
0000
0000
0000
0000
,
0000
0000
0000
0000
,
0000
0000
0000
0000
,
0000
0000
0000
0000
,
1000
0000
0100
0000
,
0001
0000
0100
0000
,
1000
0000
0010
0000
,
0001
0100
0001
0100
,
0001
0000
0010
0000
,
1000
0000
0010
0000
,
0001
0000
0100
0000
,
1000
0100
1000
0100
,
1000
1000
0000
0000
,
0001
0001
0000
0000
,
0100
0010
0100
0000
,
0001
1000
0001
0000
,
0010
0100
0010
0000
,
1000
0001
1000
0000
,
0010
0000
0001
0000
,
0010
0000
0001
0000
,
0000
0100
0000
1000
0000
0100
0000
0001
,
0000
0100
0000
1000
0000
0001
0000
0000
,
1000
0000
0100
0000
,
1000
0000
0100
0000
,
0001
0000
0010
0000
,
0001
0000
0010
0000
,
0100
0000
1000
0000
0100
0000
0000
1001
,
0000
0010
0001
0010
,
0100
1000
0100
1000
,
0100
1000
0100
1000
,
1001
0000
0000
0000
,
0000
0000
0000
0000
,
0010
0000
0000
1001
0000
0000
0100
0000
,
0000
0000
0000
0000
,
1000
0100
1000
0100
,
1000
0100
1000
0100
,
0010
0001
0010
0001
,
0010
0001
0010
0001
,
1001
0000
0000
0000
,
0000
0100
0000
0100
0000
0100
0000
0000
,
0010
0000
0000
1001
0000
0000
0100
0000
,
0000
0000
0000
0000
,
1100
0000
0110
0000
,
0011
0000
0110
0000
,
1000
0000
0000
0010
0000
0000
0001
0000
,
0000
0010
0000
0000
1000
0000
0001
0000
,
1000
0000
0000
0100
0000
0000
0001
0000
,
0000
0000
0000
0000
,
0011
0000
0000
0000
,
0000
0000
1100
0000
,
1001
0000
0000
0000
,
0100
0010
1001
0000
,
0100
0000
1100
0000
,
0010
0000
0011
0000
,
0001
0100
1000
0100
,
0001
0100
1000
0000
,
0001
0010
0001
0010
,
0100
1000
0100
0000
,
1000
0010
1000
0010
,
0100
0001
0100
0000
,
0001
0010
1000
0010
,
0001
0010
1000
0000
,
0001
0100
1000
0100
,
0001
0100
1000
0000
,
0020
0000
0030
0000
,
0100
0001
0100
0001
,
0020
0000
0030
0000
,
0100
0000
0000
1001
0000
0000
0010
0000
,
0200
0000
0300
0000
,
0010
0000
0000
1001
0000
0000
0100
0000
,
0020
0000
0030
0000
,
0100
0100
0010
0010
,
0110
0000
0000
0000
,
0000
0000
0000
0000
,
1001
0000
0000
0110
0000
0000
1001
0000
,
0000
0001
1000
0000
,
0010
0100
0010
0000
,
1000
0001
1000
0000
,
0100
0010
0100
0000
,
0001
1000
0001
0000
,
0100
0000
1000
0000
,
0100
0000
1000
0000
,
0000
0010
0000
0001
0000
0010
0000
1000
,
0000
0010
0000
0001
0000
1000
0000
0000
,
0001
0000
0010
0000
,
0001
0000
0010
0000
,
1000
0000
0100
0000
,
1000
0000
0100
0000
,
0010
0000
0001
0000
0010
0000
0000
1001
,
0000
0100
1000
0100
,
0010
0001
0010
0001
,
0010
0000
1001
0000
,
0100
0000
1001
0000
,
0000
0000
0000
0000
,
0100
0000
1000
0000
,
0010
0000
0001
0000
,
0100
0010
1000
0010
,
0100
0010
1000
0000
,
0100
0000
0001
0000
,
0010
0000
1000
0000
,
0100
0010
0001
0010
,
0100
0000
0000
0100
0000
0000
0100
0000
,
1000
0010
1000
0010
,
0100
0001
0100
0000
,
0001
0010
0001
0010
,
0100
1000
0100
0000
,
0001
0010
1000
0010
,
0001
0010
1000
0010
,
0001
0001
1000
1000
,
0001
0001
1000
1000
,
0001
0001
0100
0010
,
1001
0000
0000
0000
;

//---------------dance-single - ----------------
#NOTES:
     dance-single:
     :
     Medium:
     7:
     0.490,0.513,0.294,0.050,0.034,367.000,35.000,6.000,0.000,0.000:
0000
0000
0000
0000
,
0000
0000
0000
0000
,
0000
0000
0000
0000
,
0000
1000
0001
1000
,
0001
0100
0001
0100
,
0010
1000
0010
1000
,
0100
0010
0100
0010
,
0001
1000
0001
0001
,
1000
0010
1000
0010
,
0100
0001
0100
0001
,
0010
0100
0010
0100
,
1000
0001
1000
1000
,
0001
0000
0100
0000
0000
0101
0000
0000
,
1000
0000
0100
0000
0000
1100
0000
0000
,
0010
0001
0010
0100
,
1000
0100
0010
0001
,
0100
0100
0010
0010
,
1000
0001
1001
0000
,
1000
0100
1000
0100
,
0010
0001
0010
0001
,
0000
0100
0000
0010
0000
0100
0000
0001
,
0000
1000
0000
0001
0000
1001
0000
0000
,
1000
0100
0010
0100
,
1000
0100
0010
0001
,
0100
0010
1000
0010
,
0100
0010
1000
0000
,
0100
0000
0010
0000
0100
0000
1000
0001
,
0000
0100
0001
0100
,
0001
0010
0010
0100
,
0100
0010
0010
0100
,
1001
0000
0000
0000
1000
0000
0001
1000
,
0000
0000
0000
0000
,
1100
0000
0000
0110
0000
0000
0011
0000
,
0000
0001
0100
0001
,
0100
0010
0010
1000
,
0001
0100
0100
0001
,
1000
0010
0010
1000
,
0001
0100
0100
0001
,
1000
0000
0000
0000
0001
1000
0001
1000
,
0000
0100
0000
0010
0000
0100
0000
0000
,
1100
0000
0000
0110
0000
0000
0011
0000
,
0000
0001
1000
0000
,
1100
0000
0110
0000
,
0011
0000
1001
0000
,
1000
0100
0000
1000
0100
0000
0010
0001
,
0000
0010
0001
0000
0000
0000
0000
0000
,
0100
0010
0000
0100
0010
0000
1000
0001
,
0000
0000
0000
0000
,
0110
0000
0000
0000
,
0000
0000
0011
0000
,
1100
0000
0000
0000
,
1000
0010
1000
0000
,
0100
0001
0000
0000
0100
0001
0000
0000
,
0100
0001
0000
0000
1001
0000
0000
0000
,
0100
1000
0100
1000
,
0100
1000
0100
0000
,
0010
0001
0010
0001
,
0010
0001
0010
0100
,
1000
0010
1000
0010
,
1000
0010
0100
0000
,
0001
0010
0001
0010
,
0100
1000
0100
1000
,
0010
0100
0001
0010
,
0100
1000
1001
0000
,
1200
0000
0300
0000
,
0010
0000
0000
0001
0000
0000
0100
0000
,
0201
0000
0300
0000
,
0010
0000
0000
0110
0000
0000
0100
0000
,
2002
0000
3003
0000
,
0100
0000
0000
0110
0000
0000
0010
0000
,
2002
0000
3003
0000
,
0100
1000
0100
1000
,
1001
0000
0000
0000
,
0110
0000
0000
0000
,
0100
0000
0000
1001
0000
0000
0010
0000
,
0000
0001
1000
0000
,
0100
1000
0010
1000
,
0100
0010
0001
0100
,
0001
0010
0100
1000
,
0001
1000
1001
0000
,
0100
0001
0100
0001
,
0010
0100
0010
0100
,
0000
1000
0000
0010
0000
0100
0000
0001
,
0000
0100
0000
0010
0000
1000
0000
0000
,
0001
0010
0100
0010
,
0001
0010
0100
1000
,
0010
0100
0010
1000
,
0010
0100
0001
0000
,
1000
0000
0100
0000
1000
0000
0010
0100
,
0000
0001
0010
0100
,
0100
1000
0001
1000
,
0010
0000
0100
0000
0010
0000
0100
0000
0010
0000
0100
0000
,
0010
0000
0100
0000
0010
0000
0100
0000
0010
0000
0100
0000
,
0000
0000
0000
0000
,
0011
0000
0010
0001
,
0100
0001
0010
0100
,
1000
0010
1000
0010
,
0100
0001
0100
0001
,
1001
0000
0100
1000
,
0010
1000
0100
0010
,
0001
0100
0001
0100
,
0010
0000
0000
1001
0000
0000
0100
0000
,
0010
0001
0010
0100
,
1000
0001
1000
0010
,
0100
0001
0100
0010
,
1000
0001
1000
0100
,
0110
0000
0010
0001
,
0100
0010
1000
0100
,
0010
0010
0001
0001
,
0010
0010
0100
0100
,
1000
1000
0001
0001
,
0110
0000
0000
0000
;

//---------------dance-single - ----------------
#NOTES:
     dance-single:
     :
     Hard:
     9:
     0.740,0.797,0.378,0.101,0.034,559.000,45.000,12.000,0.000,0.000:
1000
0100
1000
0100
0000
0000
0010
0001
,
0000
0000
0100
0001
0100
0001
0000
0000
,
0010
0100
0010
0100
0000
0000
1000
0010
,
0000
0000
0100
0001
0010
0100
1000
0010
,
0100
0001
0100
0010
,
0100
0001
0010
0100
,
1000
0100
0010
0100
,
1000
0010
0100
1001
,
0010
0001
0010
0100
,
0010
0001
0100
0010
,
1000
0010
0100
0010
,
1000
0100
0010
1001
,
0101
0000
1010
0000
0000
1001
0000
0000
,
1100
0000
0011
0000
0000
1001
0000
0000
,
1000
0100
1000
0100
0010
0001
0010
0001
,
0100
0010
0100
0010
,
1000
0100
1000
0100
0010
0001
0010
0001
,
0100
0010
0100
0010
,
1000
0100
1000
0000
0100
0010
0100
0000
,
0010
0001
0010
0000
0001
0100
0001
0000
,
0100
0010
0000
1010
0000
1001
0000
0010
,
0000
0011
0000
1001
0000
0110
0000
0000
,
1000
0100
0010
0100
0010
0001
0100
0000
,
0001
0010
0100
0010
0100
1000
0010
0000
,
0100
0001
0100
0000
0010
1000
0010
0000
,
1000
0001
1000
0000
0110
0000
0000
0000
,
0001
0100
0010
1000
0100
0010
0001
1000
,
0000
0010
0100
0001
0100
0010
1000
0000
,
0100
0010
0001
0010
0001
0010
0001
0100
,
0010
0100
0010
0100
0001
1000
0001
1000
,
0001
0000
0000
0000
0100
0010
0100
0010
,
0000
0000
1000
0100
1000
0100
0010
0001
,
0010
0000
0000
0011
0000
0000
1001
0000
,
0000
0100
0010
0100
,
1001
0000
0100
1000
0100
1000
0100
0010
,
0001
0000
0100
0001
0100
0001
0100
0010
,
1000
0000
0100
1000
0100
1000
0100
0010
,
0001
0000
0100
0001
0100
0001
0100
0010
,
1000
0000
0000
0000
0001
1000
0001
1000
,
0000
0110
0000
1001
0000
0110
0000
1000
,
0001
0000
0000
0101
0000
0000
1010
0000
,
0000
0100
0010
0100
,
1001
0000
1000
0100
1000
0000
0001
0010
,
0001
0000
0100
0010
0100
0000
0010
0100
,
0010
0100
0000
0001
0010
0000
0100
1000
,
0000
0010
0100
0000
0001
1000
0001
0000
,
0100
0010
0000
1000
0100
0000
0010
0001
,
0000
1000
0001
1000
,
0010
0100
0000
0000
0000
0000
0000
0000
,
0000
0000
0000
0000
0001
0010
0000
0000
,
0100
1000
0000
0000
0000
0000
0000
0000
,
0001
1000
0110
0000
,
1000
0100
0000
0000
1000
0100
0000
0000
,
0010
0001
0000
0000
0010
0001
0000
0000
,
0100
0010
0100
0010
,
1000
0000
0001
0000
1000
0001
1000
0001
,
1000
0100
0010
0001
,
0100
0010
1000
0100
,
0010
0001
0100
0010
,
1000
0100
1000
0000
0001
0010
0001
0000
,
0100
0010
1000
0010
0100
0001
1000
0000
,
0100
0010
0001
0010
0100
1000
0001
0000
,
0100
0001
0100
0000
0010
1000
0010
0000
,
0100
0010
0100
0010
0100
0000
0001
0000
,
0022
0000
0000
0033
,
0100
1000
0100
1000
0000
0010
0100
0000
,
0220
0000
0000
0330
,
0001
0000
0000
0011
0000
0000
0100
0000
,
2200
0000
0000
3300
,
1000
0000
0000
1100
0000
0000
0010
0000
,
0022
0000
0000
0033
,
0100
0101
0010
1010
,
1000
0000
0001
0000
1000
0001
0000
0000
,
0100
0000
0010
0000
0100
0010
0000
0000
,
1010
0000
0000
1001
0000
0000
0101
0000
,
0000
0010
0010
0000
,
1000
0100
1000
0100
0010
0001
0010
0000
,
0001
0100
0001
0100
0010
1000
0010
0000
,
1000
0100
1000
0000
0001
0010
0001
0000
,
0100
0010
0100
0010
0100
0000
0000
0000
,
0001
0010
0001
0000
0010
0100
0010
0000
,
0100
1000
0100
0000
1000
0010
1000
0000
,
0010
0100
0000
0101
0000
1001
0000
0010
,
0000
1010
0000
1001
0000
0110
0000
0000
,
0001
0100
0010
0100
0010
1000
0100
0000
,
1000
0010
0100
0010
0100
0001
0010
0000
,
0100
1000
0100
0000
0010
0001
0010
0000
,
0001
1000
0001
1000
0001
0000
0000
0000
,
1000
0100
1000
0100
0010
0001
0010
0100
,
0000
1000
0010
0100
0001
0100
0001
0000
,
0010
0100
1000
0100
0010
0001
0010
0100
,
1000
0000
0010
0000
1000
0000
0010
0000
1000
0000
0010
0000
,
0100
0000
0001
0000
0100
0000
0001
0000
0100
0000
0001
0000
,
0000
0000
2002
0000
0000
3003
0000
0000
,
0110
0000
0000
0000
1000
0010
1000
0000
,
0100
0000
0010
0000
0001
0100
0001
0000
,
0010
0000
0100
0000
1000
0010
1000
0000
,
0100
0010
0001
0010
0001
0100
0010
0000
,
1001
0000
0000
0000
0100
1000
0100
0000
,
0010
0000
0001
0000
0100
0001
0100
0000
,
0010
0000
1000
0000
0100
1000
0100
0010
,
0001
0000
0000
1001
0000
0000
1000
0000
,
0010
0001
0010
0000
0001
0100
0001
0000
,
0100
0010
0100
0000
0010
1000
0010
0000
,
1000
0100
1000
0100
0010
0001
0010
0001
,
0100
0010
0100
0010
0100
0010
1000
0001
,
1000
0001
0010
0001
,
0100
0010
0100
0001
,
0010
0100
0010
0100
1000
0010
1000
0010
,
0100
0001
0100
0001
0010
0100
0010
0100
,
1000
0001
1000
0001
0100
0010
0100
0010
,
2002
0000
3003
0000
;

//---------------dance-single - ----------------
#NOTES:
     dance-single:
     :
     Challenge:
     10:
     0.898,0.844,0.631,0.084,0.034,663.000,75.000,10.000,0.000,0.000:
1000
0100
0001
0100
0000
0000
1000
0010
,
0000
0000
0100
0001
0100
0001
0000
0000
,
0010
1000
0010
0001
0000
0000
0100
0010
,
0000
0000
1000
0100
0001
0100
1000
0100
,
0010
0000
0001
0000
0100
0010
0100
0000
,
0010
0000
1000
0000
0100
0010
0100
0000
,
0010
0001
0010
0001
0100
1000
0100
0001
,
0010
0100
1000
0100
0010
0000
1001
0000
,
0100
0001
0100
0001
0010
1000
0010
0001
,
0100
0010
1000
0010
0100
0001
0010
0100
,
1000
0100
0010
0001
0100
1000
0100
0001
,
0010
0001
0010
0100
1000
0000
1001
0000
,
1100
0000
1100
0000
0000
0011
0000
0000
,
0101
0000
0101
0000
0010
1010
0000
0000
,
1000
0100
0001
0100
1000
0100
0001
0100
,
1000
0010
0001
0010
1000
0010
0001
0010
,
1000
0100
1000
0100
0010
0001
0010
0001
,
0100
0010
0100
0010
1001
0000
0000
0000
,
1000
0100
1000
0100
0010
0001
0010
0001
,
0100
1000
0100
0001
0010
1000
0010
0001
,
0100
0010
0000
0110
0000
1001
0000
0100
,
0000
0110
0000
1001
0000
1001
0000
0000
,
0001
0010
1000
0010
0001
0010
1000
0010
,
0001
0100
1000
0100
0001
0100
1000
0100
,
0001
0010
0001
0010
0100
1000
0100
1000
,
0010
0100
0010
0100
1001
0000
0000
0000
,
0001
0010
0001
0010
0100
1000
0100
1100
,
0000
1000
0010
1000
0010
0100
0001
0100
,
0001
0010
1000
0010
0001
0100
1000
0100
,
0001
0010
0001
0010
0100
1000
0100
1000
,
1001
0000
0000
0000
0010
0100
0010
0100
,
0000
0000
0001
0010
1000
0010
0001
0010
,
0110
0000
0000
1001
0000
0000
0110
0000
,
0000
0000
1000
0100
1000
0100
0010
0000
,
0011
0000
0100
1000
0100
0001
0100
1000
,
1001
0000
0100
0001
0100
1000
0100
0001
,
1001
0000
0100
1000
0100
0001
0100
1000
,
1001
0000
0100
0001
0100
1000
0100
0001
,
1001
0000
0000
0000
0010
0100
0010
0100
,
0000
1100
0000
0011
0000
1100
0000
0001
,
1001
0000
0000
0110
0000
0000
1001
0000
,
0000
1000
0100
0001
,
0100
0000
1000
0010
0001
0000
0001
0010
,
1000
0000
1000
0100
0001
0000
0001
0100
,
1000
0010
0000
0010
0100
0000
0100
0001
,
0000
0001
0010
0000
0100
0010
0100
0010
,
0100
1000
0000
1000
0010
0000
0010
0100
,
0000
0000
0001
1000
0001
1000
0001
0000
,
0100
0010
0000
1000
0100
1000
0100
0010
,
0001
0010
0001
0000
0100
0010
0000
0000
,
1000
0001
0000
1000
0100
1000
0100
0010
,
0001
0010
0001
0000
0100
0010
0000
0000
,
1000
0100
0000
0000
0001
0100
0000
0000
,
1000
0100
0000
0000
0001
0100
0000
0000
,
1000
0010
0100
1001
,
0001
0010
0100
0010
0100
1000
0001
0000
,
0100
0010
1000
0010
0100
0010
1000
0010
,
0100
0001
0100
0010
0100
0001
0100
0010
,
1000
0100
0001
0100
1000
0100
0001
0100
,
1000
0010
0100
0001
0100
0000
0000
0000
,
0010
0100
0001
0100
0010
0100
0001
0100
,
0010
1000
0010
0100
0010
1000
0010
0100
,
0001
0010
1000
0010
0001
0010
1000
0010
,
0001
0100
0010
1000
0010
0000
1001
0000
,
2200
0000
0000
3300
,
0010
0001
0100
1000
0000
0100
0001
0000
,
0022
0000
0000
0033
,
1100
0000
0000
1001
0000
0000
0011
0000
,
0220
0000
0000
0330
,
1010
0000
0000
1001
0000
0000
0101
0000
,
0220
0000
0000
0330
,
1000
1100
0001
0011
,
0110
0000
0110
0000
1000
0001
0000
0000
,
0110
0000
0110
0000
0001
1000
0000
0000
,
1100
0000
0000
1001
0000
0000
0011
0000
,
0000
0100
0110
0000
,
0001
0010
1000
0010
0001
0010
1000
0010
,
0001
0100
1000
0100
0001
0100
1000
0100
,
0001
0010
0001
0010
0100
1000
0100
1000
,
0010
0100
0010
0100
1001
0000
0000
0000
,
0001
0010
0001
0010
0100
1000
0100
1000
,
0010
0001
0010
1000
0100
0001
0100
1000
,
0010
0100
0000
0110
0000
1001
0000
0010
,
0000
0110
0000
1001
0000
1001
0000
0000
,
1000
0100
0001
0100
1000
0100
0001
0100
,
1000
0010
0001
0010
1000
0010
0001
0010
,
1000
0100
1000
0100
0010
0001
0010
0001
,
0100
0010
0100
0010
1001
0000
0000
0000
,
1000
0100
1000
0100
0010
0001
0010
0011
,
0000
0001
0100
0001
0100
0010
1000
0010
,
1000
0100
0001
0100
1000
0010
0001
0010
,
1000
0000
0100
0000
1100
0000
0001
0000
0010
0000
0011
0000
,
0100
0000
0010
0000
0110
0000
1000
0000
0001
0000
1001
0000
,
0000
0000
0000
0000
,
1001
0000
0000
0000
0001
0010
0100
1000
,
0100
0010
0001
0100
1000
0100
0001
0010
,
1000
0010
0001
0100
0010
1000
0010
0100
,
0001
0010
0001
0010
0100
1000
0100
0000
,
1001
0000
0000
0000
1000
0100
0010
0001
,
0010
0100
1000
0010
0001
0010
1000
0100
,
0001
0100
1000
0010
0100
0001
0100
0010
,
1010
0000
0000
0110
0000
0000
0101
0000
,
0010
0100
1000
0100
0010
0100
1000
0100
,
0010
0001
0010
0100
0010
0001
0010
0100
,
1000
0010
1000
0010
0100
0001
0100
0001
,
0010
0100
0010
0100
0010
0001
1000
0000
,
1001
0000
1100
0000
0010
0001
0010
0000
,
1001
0000
0101
0000
0010
1000
0010
0000
,
1000
0100
0001
0100
1000
0100
0001
0100
,
1000
0010
0001
0010
1000
0010
0001
0010
,
1000
0100
0010
0001
0100
0010
1000
0100
,
2002
0000
3003
0000
;
