#TITLE:Gateway to Psycho;
#SUBTITLE:;
#ARTIST:Helblinde;
#TITLETRANSLIT:;
#SUBTITLETRANSLIT:;
#ARTISTTRANSLIT:;
#CREDIT:;
#BANNER:../banner.png;
#BACKGROUND:../bg.png;
#LYRICSPATH:;
#CDTITLE:;
#MUSIC:Gateway to Psycho.ogg;
#OFFSET:1.166;
#SAMPLESTART:16.520;
#SAMPLELENGTH:20.660;
#SELECTABLE:YES;
#BPMS:0.000=195.000;
#STOPS:;
#BGCHANGES:;
// cache tags:
#FIRSTBEAT:4.000;
#LASTBEAT:492.000;
#SONGFILENAME:Songs/Cirque du Lykan/Gateway to Psycho - [Zaia]/Gateway to Psycho.sm;
#HASMUSIC:1;
#HASBANNER:1;
#MUSICLENGTH:150.198;
// end cache tags

//---------------dance-single - Zaia - 15(mid)----------------
#NOTES:
     dance-single:
     Zaia - 15(mid):
     Challenge:
     15:
     1.000,1.000,0.113,0.087,1.000,1405.000,17.000,13.000,0.000,0.000:
0000
0000
0000
0000
,
1000
0010
0100
0001
0010
0001
1000
0010
,
0100
0001
1000
0100
1000
0001
1000
0010
,
0101
0000
0000
1001
0000
0000
1100
0000
,
0000
0000
0000
0000
,
1000
0010
0100
0001
1000
0001
0010
0100
0010
0001
1000
0100
1000
0001
1000
0010
,
0100
0001
1000
0001
1000
0100
0010
0100
1000
0001
0100
0010
1000
0001
0100
0001
,
1000
0100
0010
0001
1000
0001
0100
0010
0100
0001
1000
0010
1000
0001
1000
0100
,
0010
0001
1000
0001
1000
0010
0100
0010
1000
0001
0010
0100
1000
0001
0010
0001
,
0010
0100
1000
0001
1000
0010
0100
0010
1000
0001
0100
0001
1000
0001
0010
0100
,
1000
0001
1000
0001
0100
0010
0100
0001
1000
0100
0010
0001
1000
0100
1000
0001
,
0100
0010
1000
0001
0010
0001
1000
0010
,
0100
0001
0010
0100
1000
0001
0100
0010
,
1000
0100
0010
0100
1000
0001
0100
0001
,
1000
0000
0000
0001
,
1000
0100
0010
0001
1000
0010
1000
0001
0100
0010
1000
0001
0010
0001
1000
0100
,
0010
0100
1000
0001
1000
0010
0100
0001
1000
0001
0010
0001
1000
0010
0100
0010
,
1000
0001
0010
0100
1000
0001
0100
0010
0100
0001
1000
0100
0010
0001
1000
0010
,
1000
0001
0010
0100
0010
0001
1000
0010
0100
0001
1000
0100
0010
0001
1000
0001
,
1000
0010
0100
0001
1000
0100
1000
0001
0010
0100
1000
0001
0100
0001
1000
0010
,
0100
0010
1000
0001
1000
0100
0010
0001
1000
0001
0100
0001
1000
0100
0010
0100
,
1000
0001
0100
0010
1000
0001
0010
0100
0010
0001
1000
0010
0100
0001
1000
0100
,
1000
0001
0100
0010
0100
0001
1000
0100
0010
0001
1000
0010
0100
0001
1000
0001
,
1000
0100
0010
0001
1000
0010
1000
0001
0100
0010
1000
0001
0010
0001
1000
0100
,
0010
0001
1000
0001
0100
0010
1000
0001
1000
0100
1000
0001
0100
0010
0100
0001
,
1000
0100
0010
0001
1000
0010
0100
0010
1000
0001
0010
0100
1000
0001
0100
0001
,
1000
0100
0010
0100
1000
0001
0100
0010
1000
0001
0010
0100
1000
0001
1000
0001
,
1000
0100
0010
0001
1000
0010
1000
0001
0010
0100
1000
0001
0100
0010
1000
0010
,
0100
0001
1000
0001
0010
0100
1000
0001
1000
0010
1000
0001
0010
0100
0010
0001
,
1000
0010
0100
0001
1000
0100
0010
0100
1000
0001
0100
0010
1000
0001
0010
0001
,
1000
0010
0100
0010
1000
0000
0100
0000
0010
0000
0001
0000
0100
0010
0100
0010
,
1000
0001
0010
0001
1000
0010
0100
0001
0010
0100
1000
0100
0010
0001
0100
0010
,
1000
0001
1000
0010
0100
0001
1000
0100
0010
0001
1000
0001
0100
0010
1000
0100
,
1000
0001
0100
0001
1000
0100
0010
0001
0100
0010
1000
0010
0100
0001
0010
0100
,
1000
0001
1000
0100
0010
0001
1000
0010
0100
0001
1000
0001
0010
0100
1000
0010
,
1000
0001
0010
0001
1000
0010
0100
0001
0010
0100
1000
0100
0010
0001
0100
0010
,
1000
0001
1000
0010
0100
0001
1000
0100
0010
0001
1000
0001
0100
0010
1000
0100
,
1000
0001
0100
0001
1000
0100
0010
0001
0100
0010
1000
0010
0100
0001
0010
0100
,
1000
0001
1000
0100
0010
0001
1000
0010
0100
0001
1000
0001
0010
0100
1000
0001
,
1000
0100
1000
0001
0100
0010
1000
0100
0010
0001
0010
0100
1000
0010
0100
0001
,
1000
0001
0100
0010
1000
0001
0010
0100
1000
0001
1000
0010
0100
0001
0010
0001
,
1000
0010
1000
0001
0010
0100
1000
0010
0100
0001
0100
0010
1000
0100
0010
0001
,
1000
0001
0010
0100
1000
0001
0100
0010
1000
0001
1000
0100
0010
0001
0100
0001
,
1000
0100
1000
0001
0100
0010
1000
0100
0010
0001
0010
0100
1000
0010
0100
0001
,
1000
0001
0100
0010
1000
0001
0010
0100
1000
0001
1000
0010
0100
0001
0010
0001
,
1000
0100
1000
0001
0100
0010
0100
0001
1000
0100
0010
0100
1000
0010
0100
0001
,
1000
0001
0100
0001
1000
0100
1000
0010
1000
0001
0010
0100
1000
0001
0100
0001
,
0010
0000
0001
2000
0000
0000
0000
3100
,
0010
0100
1000
0010
0100
0001
0000
0100
,
0010
0000
1000
0020
0000
0000
0000
0130
,
0001
0010
0100
1000
0001
0100
0000
0010
,
1000
0000
0001
0010
0000
0100
1000
0002
,
0000
0000
0103
0010
0000
1000
0001
0010
,
0200
0000
1300
0001
0000
0100
0010
1000
,
0002
0000
0013
0000
,
1100
0000
0100
1000
0001
0000
0000
0000
0100
0000
0010
1000
0001
0000
0000
0000
,
1000
0000
0010
0100
0001
0000
0000
0000
1000
0000
0100
0010
0001
0000
0000
0000
,
1000
0000
0001
0100
0010
0000
0000
0000
0100
0000
0010
1000
0001
0000
0000
0000
,
1000
0000
0001
0010
0100
0000
0000
0000
1000
0001
0010
0000
0000
0000
0000
0000
,
0100
1000
0001
1000
0100
0000
1000
0000
0001
0100
0010
0000
1000
0000
0100
1000
,
0100
0000
1000
0000
0001
0100
0001
0000
1000
0000
0100
0010
0100
0000
1000
0000
,
1001
0000
0101
0000
,
1010
1000
0000
0001
0000
1000
0000
0000
,
0011
0000
0010
0100
1100
0000
1000
0001
,
0101
0000
1000
0010
0110
0000
0010
0100
,
0101
0000
0001
1000
1100
0000
0010
0100
,
1001
0000
1000
0010
0110
0100
0010
0100
,
0001
1000
0100
0010
0001
1000
0100
0010
,
0001
1000
0010
0100
0001
1000
0010
0100
,
0001
1000
0010
0100
0001
1000
0100
0010
0001
1000
0100
1000
0100
0010
0100
1000
,
0001
0100
0001
1000
0100
1000
0001
0010
0001
1000
0010
0100
0002
0000
2003
0000
,
3001
0100
0010
1000
0001
1000
0100
0010
0100
1000
0001
0100
0001
1000
0100
1000
,
0001
1000
0010
1000
0001
0010
0100
1000
0100
0010
0001
1000
0010
1000
0001
0100
,
0010
1000
0010
1000
0001
1000
0100
0010
0100
1000
0001
0100
0001
1000
0100
1000
,
0001
0100
0001
1000
0001
0010
0001
1000
0010
0100
0001
0010
0100
1000
0100
0010
,
0100
1000
0001
1000
0010
0100
0001
0100
0001
1000
0100
1000
0001
0100
0010
1000
,
0001
1000
0100
1000
0001
0010
0100
1000
0001
1000
0010
0100
0001
1000
0010
0100
,
0010
1000
0001
0010
0100
0010
0001
1000
0010
1000
0001
0100
0001
0010
0100
1000
,
0001
0100
0010
1000
0001
0010
0100
1000
0001
0100
0010
1000
0001
0010
0001
1000
,
0010
0100
0001
1000
0001
0010
0100
0010
0001
1000
0010
1000
0001
0010
0001
1000
,
0001
0100
0001
1000
0100
0010
0001
0010
0100
1000
0001
0100
0001
1000
0010
0100
,
0001
0100
0001
1000
0001
0010
0100
0010
0001
1000
0010
1000
0001
0010
0001
1000
,
0010
1000
0001
1000
0100
1000
0001
0100
0010
1000
0100
0010
0001
0010
0100
0010
,
0001
1000
0001
0100
0010
1000
0010
1000
0001
0010
0001
1000
0010
0100
0001
1000
,
0001
0010
0001
0010
0100
0010
0001
1000
0001
0100
0010
1000
0001
0010
0100
1000
,
0001
0000
0010
0100
0000
1000
0100
0010
,
0002
0003
1000
0010
0100
0001
0100
0001
,
1000
1000
0001
0000
0010
0100
1000
0001
,
0100
0100
0010
1000
0001
0010
0010
0010
,
0100
1000
0001
0001
1000
0010
0100
0001
,
1000
0000
0100
0010
0100
0000
1000
0000
0010
0100
0010
0000
1000
0000
0001
0000
,
1000
0000
1000
0000
0010
0000
0100
0010
0000
0000
1000
0000
0001
0000
0010
0000
,
0100
0100
1000
0001
0100
0001
0001
0001
,
1000
0100
0010
0100
0100
1000
0001
0100
,
0020
0000
2030
0000
0000
3100
0010
0100
,
1000
1000
0001
0000
0100
0010
1000
0001
,
0010
0010
0100
1000
0001
0100
0100
0100
,
0010
1000
0001
0001
1000
0100
0010
0001
,
1000
0000
0001
0010
0001
0000
1000
0000
0001
0100
0001
0000
1000
0000
0001
0000
,
1000
1000
0100
0010
0100
1000
0001
0100
,
0010
0010
1000
0001
0010
0001
0001
0001
,
1000
0010
0100
0010
0010
1000
0001
0010
,
0100
0000
1000
1001
0000
0001
0100
0000
,
0120
0000
0000
0000
,
0000
0000
0000
0000
,
2030
0000
0000
3000
,
0000
0000
0000
0000
,
1000
0100
0010
0001
1000
0010
0100
0010
1000
0001
0010
0100
0010
0001
0010
0100
,
1000
0001
0100
0010
1000
0010
0100
0010
1000
0001
0010
0001
1000
0001
0010
0001
,
1000
0010
0100
0001
0100
0010
0100
0001
1000
0001
0010
0100
1000
0100
0010
0100
,
1000
0001
0100
0010
1000
0001
1000
0010
0100
0001
0010
0100
1000
0100
0010
0001
,
1000
0001
1000
0100
0010
0100
1000
0001
1000
0010
0100
0001
0010
0100
1000
0001
,
0100
0001
1000
0001
0100
0010
1000
0001
1000
0100
0010
0100
1000
0010
0100
0001
,
1000
0100
0010
0001
1000
0100
0010
0001
,
1000
0010
0000
1000
0001
0000
0010
0000
,
0001
0100
0010
1000
0001
0010
0100
0010
0001
1000
0010
0100
0010
1000
0010
0100
,
0001
1000
0100
0010
0001
0010
0100
0010
0001
1000
0010
1000
0001
1000
0010
1000
,
0001
0010
0100
1000
0100
0010
0100
1000
0001
1000
0010
0100
0001
0100
0010
0100
,
0001
1000
0100
0010
0001
1000
0001
0010
0100
1000
0010
0100
0001
0100
0010
1000
,
0100
0010
0001
0010
0100
0010
0001
1000
0001
0100
0010
1000
0010
0100
0010
1000
,
0001
0010
0100
1000
0001
1000
0100
0010
0001
0100
0010
1000
0010
0100
0001
1000
,
0001
1000
0100
0010
0100
1000
0001
1000
0010
0100
0001
0100
0010
1000
0001
0010
,
0200
0000
0000
0000
0000
0000
0000
0000
0000
0000
0000
0300
;

//---------------dance-single - Zaia - 14(low)----------------
#NOTES:
     dance-single:
     Zaia - 14(low):
     Hard:
     14:
     1.000,1.000,0.113,0.686,0.892,1120.000,17.000,103.000,0.000,0.000:
0000
0000
0000
0000
,
1000
0010
0100
0001
0010
0001
1000
0010
,
0100
0001
1000
0100
1000
0001
1000
0010
,
0101
0000
0000
1001
0000
0000
1100
0000
,
0000
0000
0000
0000
,
1000
0100
0010
0010
0100
1000
0001
0001
,
0100
0010
1000
0200
0000
0310
0100
1000
,
0010
0100
0001
0001
0010
0100
1000
1000
,
0010
0100
0001
0020
0000
0130
1000
0010
,
0100
0001
0010
0010
0100
1000
0100
0100
,
0010
0001
1000
0020
0000
0130
0001
0010
,
0100
0010
0001
1000
0100
1000
0001
0100
,
0010
1000
0100
0010
0001
1000
0010
0100
,
0001
0010
0100
0010
0001
1000
0010
1000
,
0001
0000
0000
1000
,
0001
0010
0100
1000
0001
0100
0001
1000
0010
0100
0001
1000
0100
1000
0001
0010
,
0100
0010
0001
1000
0001
0100
0010
1000
0001
1000
0100
1000
0001
0100
0010
0100
,
0001
1000
0100
0010
0001
1000
0010
0100
0010
1000
0001
0010
0100
1000
0001
0100
,
0001
1000
0100
0010
0100
1000
0001
0100
0010
1000
0001
0010
0100
1000
0001
1000
,
0001
0100
0010
1000
0001
0010
0001
1000
0100
0010
0001
1000
0010
1000
0001
0100
,
0010
0100
0001
1000
0001
0010
0100
1000
0001
1000
0010
1000
0001
0010
0100
0010
,
0001
1000
0010
0100
0001
1000
0100
0010
0100
1000
0001
0100
0010
1000
0001
0010
,
0001
1000
0010
0100
0010
1000
0001
0010
0100
1000
0001
0100
0010
1000
0001
1000
,
0001
0010
0100
1000
0001
0100
0001
1000
0010
0100
0001
1000
0100
1000
0001
0010
,
0100
1000
0001
1000
0010
0100
0001
1000
0001
0010
0001
1000
0010
0100
0010
1000
,
0001
0010
0100
1000
0001
0100
0010
0100
0001
1000
0100
0010
0001
1000
0010
1000
,
0001
0010
0100
0010
0001
1000
0010
0100
0001
1000
0100
0000
0000
0000
1000
0000
,
0001
0010
0100
1000
0001
0100
0001
1000
0100
0010
0001
1000
0010
0100
0001
0100
,
0010
1000
0001
1000
0100
0010
0001
1000
0001
0100
0001
1000
0100
0010
0100
1000
,
0001
0100
0010
1000
0001
0010
0100
0010
0001
1000
0010
0100
0001
1000
0100
1000
,
0001
0100
0010
0100
0001
0000
0010
0000
0100
0000
1000
0000
0010
0100
0010
0100
,
0001
0010
0200
2300
3200
0320
0032
0203
,
0310
1000
0002
2003
3200
0320
0230
2300
,
3001
0100
0002
0023
0230
2300
3020
0230
,
0301
1000
0002
0203
0320
2030
3200
0320
,
0130
1000
0002
2003
3020
0230
0302
2003
,
3100
1000
0002
2003
3020
0230
0320
2030
,
3001
0010
0002
0203
0320
2030
3200
0320
,
0031
1000
0002
0023
0230
2300
3020
0230
,
0301
0010
0200
2300
3200
0320
0032
0203
,
0310
1000
0002
2003
3200
0320
0230
2300
,
3001
0100
0002
0023
0230
2300
3020
0230
,
0301
1000
0002
0203
0320
2030
3200
0320
,
0130
1000
0002
2003
3020
0230
0302
2003
,
3100
1000
0002
2003
3020
0230
0320
2030
,
3001
0010
0002
1003
0020
1030
0002
0013
,
0001
0000
0100
0000
0001
0000
1000
0000
0100
0000
1000
0000
0010
0100
0001
1000
,
0100
0000
1000
0002
0000
0000
0000
0013
,
0100
0010
0001
0100
0010
1000
0000
0010
,
0100
0000
0001
0200
0000
0000
0000
0310
,
1000
0100
0010
0001
1000
0010
0000
0100
,
0001
0000
1000
0100
0000
0010
0001
2000
,
0000
0000
3010
0100
0000
0001
1000
0100
,
0020
0000
0031
1000
0000
0010
0100
0001
,
2000
0000
3100
0000
,
0011
0000
0010
0001
1000
0000
0000
0000
0010
0000
0100
0001
1000
0000
0000
0000
,
0001
0000
0100
0010
1000
0000
0000
0000
0001
0000
0010
0100
1000
0000
0000
0000
,
0001
0000
1000
0010
0100
0000
0000
0000
0010
0000
0100
0001
1000
0000
0000
0000
,
0001
0000
1000
0100
0010
0000
0000
0000
0001
1000
0100
0000
0000
0000
0000
0000
,
0010
0001
1000
0001
0010
0000
0001
0000
1000
0010
0100
0000
0001
0000
0010
0001
,
0010
0000
0001
0000
1000
0010
1000
0000
0001
0000
0010
0100
0010
0000
0001
0000
,
1001
0000
1010
0000
,
0101
0001
0000
1000
0000
0001
0000
0000
,
1100
0000
0100
0010
0011
0000
0001
1000
,
1010
0000
0001
0100
0110
0000
0100
0010
,
1010
0000
1000
0001
0011
0000
0100
0010
,
1001
0000
0001
0100
0110
0010
0100
0010
,
1000
0001
0010
0100
1000
0001
0010
0100
,
1000
0001
0100
0010
1000
0001
0100
0010
,
1000
0001
0100
0010
1000
0001
0010
0100
1000
0001
0010
0001
0010
0100
0010
0001
,
1000
0010
1000
0001
0010
0001
1000
0100
1000
0001
0100
0010
2000
0000
3002
0000
,
1003
0010
0100
0001
1000
0001
0010
0100
0010
0001
1000
0010
1000
0001
0010
0001
,
1000
0001
0100
0001
1000
0100
0010
0001
0010
0100
1000
0001
0100
0001
1000
0010
,
0100
0001
0100
0001
1000
0001
0010
0100
0010
0001
1000
0010
1000
0001
0010
0001
,
1000
0010
1000
0001
1000
0100
1000
0001
0100
0010
1000
0100
0010
0001
0010
0100
,
0010
0001
1000
0001
0100
0010
1000
0010
1000
0001
0010
0001
1000
0010
0100
0001
,
1000
0001
0010
0001
1000
0100
0010
0001
1000
0001
0100
0010
1000
0001
0100
0010
,
0100
0001
1000
0100
0010
0100
1000
0001
0100
0001
1000
0010
1000
0100
0010
0001
,
1000
0010
0100
0001
1000
0100
0010
0001
1000
0010
0100
0001
1000
0100
1000
0001
,
0100
0010
1000
0001
1000
0100
0010
0100
1000
0001
0100
0001
1000
0100
1000
0001
,
1000
0010
1000
0001
0010
0100
1000
0100
0010
0001
1000
0010
1000
0001
0100
0010
,
1000
0010
1000
0001
1000
0100
0010
0100
1000
0001
0100
0001
1000
0100
1000
0001
,
0100
0001
1000
0001
0010
0001
1000
0010
0100
0001
0010
0100
1000
0100
0010
0100
,
1000
0001
1000
0010
0100
0001
0100
0001
1000
0100
1000
0001
0100
0010
1000
0001
,
1000
0100
1000
0100
0010
0100
1000
0001
1000
0010
0100
0001
1000
0100
0010
0001
,
1000
0000
0100
0010
0000
0001
0010
0100
,
2000
3000
0001
0100
0010
1000
0010
1000
,
0001
0001
1000
0000
0100
0010
0001
1000
,
0010
0010
0100
0001
1000
0100
0100
0100
,
0010
0001
1000
1000
0001
0100
0010
1000
,
0001
0000
0010
0100
0010
0000
0001
0000
0100
0010
0100
0000
0001
0000
1000
0000
,
0001
0000
0001
0000
0100
0000
0010
0100
0000
0000
0001
0000
1000
0000
0100
0000
,
0010
0010
0001
1000
0010
1000
1000
1000
,
0001
0010
0100
0010
0010
0001
1000
0010
,
0200
0000
0302
0000
0000
0013
0100
0010
,
0001
0001
1000
0000
0010
0100
0001
1000
,
0100
0100
0010
0001
1000
0010
0010
0010
,
0100
0001
1000
1000
0001
0010
0100
1000
,
0001
0000
1000
0100
1000
0000
0001
0000
1000
0010
1000
0000
0001
0000
1000
0000
,
0001
0001
0010
0100
0010
0001
1000
0010
,
0100
0100
0001
1000
0100
1000
1000
1000
,
0001
0100
0010
0100
0100
0001
1000
0100
,
0010
0000
0001
1001
0000
1000
0010
0000
,
0210
0000
0000
0000
,
0000
0000
0000
0000
,
0302
0000
0000
0003
,
0000
0000
0000
0000
,
0001
0100
0010
0100
0001
1000
0001
0010
,
0100
1000
0010
0100
0001
0100
0010
1000
,
0100
1000
0010
0100
0001
1000
0100
0010
,
0001
0100
0010
1000
0001
0010
0100
1000
,
0001
0100
0010
1000
0100
1000
0010
0100
,
0001
0010
0100
0010
0001
0100
0010
1000
,
0001
0010
0100
1000
0001
0010
0100
1000
,
0001
0100
0000
0001
1000
0000
0100
0000
,
1000
0010
0100
0010
1000
0001
1000
0100
,
0010
0001
0100
0010
1000
0010
0100
0001
,
0010
0001
0100
0010
1000
0001
0010
0100
,
1000
0010
0100
0001
1000
0100
0010
0001
,
1000
0010
0100
0001
0010
0001
0100
0010
,
1000
0100
0010
0100
1000
0010
0100
0001
,
1000
0100
0010
0001
1000
0100
0010
0001
,
2000
0000
0000
0000
,
3000
0000
0000
0000
;

//---------------dance-single - Zaia - 10(mid-high)----------------
#NOTES:
     dance-single:
     Zaia - 10(mid-high):
     Medium:
     10:
     0.924,1.000,0.107,0.719,0.087,848.000,16.000,108.000,0.000,0.000:
0000
0000
0000
0000
,
1000
0010
0100
0001
0010
0001
1000
0010
,
0100
0001
1000
0100
1000
0001
1000
0010
,
0101
0000
0000
1001
0000
0000
1100
0000
,
0000
0000
0000
0000
,
1000
0100
0010
0010
0100
1000
0001
0001
,
0100
0010
1000
0200
0000
0310
0100
1000
,
0010
0100
0001
0001
0010
0100
1000
1000
,
0010
0100
0001
0020
0000
0130
1000
0010
,
0100
0001
0010
0010
0100
1000
0100
0100
,
0010
0001
1000
0020
0000
0130
0001
0010
,
0100
0010
0001
1000
0100
1000
0001
0100
,
0010
1000
0100
0010
0001
1000
0010
0100
,
0001
0010
0100
0010
0001
1000
0010
1000
,
0001
0000
0000
1000
,
0001
0100
0010
1000
0100
0010
0001
1000
,
0100
1000
0001
0100
0001
0010
0001
1000
,
0100
1000
0010
1000
0001
0010
0100
1000
,
0001
0100
0001
1000
0100
0010
0100
1000
,
0001
0100
0010
1000
0001
0100
0010
0100
,
0001
1000
0100
1000
0001
0010
0001
0100
,
0010
1000
0001
0010
0100
1000
0001
0100
,
0010
0100
0001
1000
0100
1000
0001
1000
,
0010
0100
0001
0010
0100
0010
0001
1000
,
0001
0100
0010
0100
0001
1000
0100
1000
,
0001
0100
0001
1000
0100
0010
0001
0100
,
0010
0100
0001
1000
0100
1000
0000
0001
,
0100
0001
1000
0100
0010
0001
1000
0001
,
0100
0010
1000
0001
0010
0001
0100
0001
,
1000
0010
1000
0100
1000
0001
0100
0010
,
0100
0000
0001
0000
1000
0000
0100
0000
0010
0000
0001
0000
1000
0001
1000
0001
,
0010
0100
0020
0032
0023
0230
2300
3020
,
0130
0001
2000
3002
0023
0230
0320
0032
,
1003
0010
2000
3200
0320
0032
0203
0320
,
1030
0001
2000
3020
0230
0302
0023
0230
,
0310
0001
2000
3002
0203
0320
2030
3002
,
0013
0001
2000
3002
0203
0320
0230
0302
,
1003
0100
2000
3020
0230
0302
0023
0230
,
1300
0001
2000
3200
0320
0032
0203
0320
,
1030
0100
0020
0032
0023
0230
2300
3020
,
0130
0001
2000
3002
0023
0230
0320
0032
,
1003
0010
2000
3200
0320
0032
0203
0320
,
1030
0001
2000
3020
0230
0302
0023
0230
,
0310
0001
2000
3002
0203
0320
2030
3002
,
0013
0001
2000
3002
0203
0320
0230
0302
,
1003
0100
2000
3001
0200
0301
2000
3100
,
1000
0000
0010
0000
1000
0000
0001
0000
0010
0000
0001
0000
1000
0001
1000
0001
,
0010
0000
0001
2000
0000
0000
0000
3100
,
0010
0100
1000
0010
0100
0001
0000
0100
,
0010
0000
1000
0020
0000
0000
0000
0130
,
0001
0010
0100
1000
0001
0100
0000
0010
,
1000
0000
0001
0010
0000
0100
1000
0002
,
0000
0000
0103
0010
0000
1000
0001
0010
,
0200
0000
1300
0001
0000
0100
0010
1000
,
0002
0000
0013
0000
,
1000
0000
0100
1000
0001
0000
0000
0000
0100
0000
0010
1000
0001
0000
0000
0000
,
1000
0000
0010
0100
0001
0000
0000
0000
1000
0000
0100
0010
0001
0000
0000
0000
,
1000
0000
0001
0100
0010
0000
0000
0000
0100
0000
0010
1000
0001
0000
0000
0000
,
1000
0000
0001
0010
0100
0000
0000
0000
1000
0001
0010
0000
0000
0000
0000
0000
,
0100
1000
0001
1000
0100
0000
1000
0000
0001
0100
0010
0000
1000
0000
0100
1000
,
0100
0000
1000
0000
0001
0100
0001
0000
1000
0000
0100
0010
0100
0000
1000
0000
,
1001
0000
0101
0000
,
1010
1000
0000
0001
0000
1000
0000
0000
,
0011
0000
0010
0100
1100
0000
1000
0001
,
0101
0000
1000
0010
0110
0000
0010
0100
,
0101
0000
0001
1000
1100
0000
0010
0001
,
1001
0000
1000
0010
0110
0100
0010
0100
,
0001
1000
0100
0010
0001
1000
0100
0010
,
0001
1000
0010
0100
0001
1000
0010
0100
,
0001
0010
0001
1000
0001
0010
0001
1000
,
0001
0100
0001
0000
1000
0100
1000
0000
0001
0100
0001
0000
2000
0000
3002
0000
,
2003
0000
3200
0000
0320
0000
0130
1000
,
0010
0100
0001
0010
0100
1000
0000
0001
,
0100
0100
0010
1000
0000
0001
0000
0010
,
0100
1000
0100
0010
0001
0100
0000
0000
,
0010
0000
1000
0001
0000
0010
0100
0100
,
0000
1000
0001
0100
0000
0010
1000
0001
,
0100
0000
0001
0010
0000
0100
1000
0010
,
0100
0100
0001
0001
,
2000
0000
3020
0000
0230
0000
0310
1000
,
0100
0010
0001
0100
0010
1000
0000
0001
,
0010
0010
0100
1000
0000
0001
0000
0100
,
0010
1000
0010
0100
0001
0010
0000
0000
,
0100
0000
1000
0001
0000
0100
0010
0010
,
1000
0000
0001
0010
0000
0100
1000
0001
,
0001
0000
0100
0010
0000
1000
0100
0010
,
0001
0000
1000
0010
0100
0001
0100
0001
,
1000
1000
0001
0000
0010
0100
1000
0001
,
0100
0100
0010
1000
0001
0010
0100
0010
,
0100
1000
0001
0001
1000
0010
0100
0001
,
1000
0000
0100
0010
0100
0000
1000
0000
0010
0100
0010
0000
1000
0000
0001
0000
,
1000
0000
1000
0000
0010
0000
0100
0010
0000
0000
1000
0000
0001
0000
0010
0000
,
0100
0100
1000
0001
0100
0001
1000
0001
,
1000
0100
0010
0100
0100
1000
0001
0100
,
0020
0000
2030
0000
0000
3100
0010
0100
,
1000
1000
0001
0000
0100
0010
1000
0001
,
0010
0010
0100
1000
0001
0100
0010
0100
,
0010
1000
0001
0001
1000
0100
0010
0001
,
1000
0000
0001
0010
0001
0000
1000
0000
0001
0100
0001
0000
1000
0000
0001
0000
,
1000
1000
0100
0010
0100
1000
0001
0100
,
0010
0010
1000
0001
0010
0001
1000
0001
,
1000
0010
0100
0010
0010
1000
0001
0010
,
0100
0000
1000
1001
0000
0001
0100
0000
,
0120
0000
0000
0000
,
0000
0000
0000
0000
,
2030
0000
0000
3000
,
0000
0000
0000
0000
,
1000
0010
0100
0010
1000
0001
1000
0100
,
0010
0001
0100
0010
1000
0010
0100
0001
,
0010
0001
0100
0010
1000
0001
0010
0100
,
1000
0010
0100
0001
1000
0100
0010
0001
,
1000
0010
0100
0001
0010
0001
0100
0010
,
1000
0100
0010
0100
1000
0010
0100
0001
,
1000
0100
0010
0001
1000
0100
0010
0001
,
1000
0010
0000
1000
0001
0000
0010
0000
,
0001
0100
0010
0100
0001
1000
0001
0010
,
0100
1000
0010
0100
0001
0100
0010
1000
,
0100
1000
0010
0100
0001
1000
0100
0010
,
0001
0100
0010
1000
0001
0010
0100
1000
,
0001
0100
0010
1000
0100
1000
0010
0100
,
0001
0010
0100
0010
0001
0100
0010
1000
,
0001
0010
0100
1000
0001
0010
0100
1000
,
0002
0000
0000
0000
,
0003
0000
0000
0000
;
