#TITLE:Sonata(O2 Version);
#SUBTITLE:;
#ARTIST:Penny (O2Jam);
#TITLETRANSLIT:;
#SUBTITLETRANSLIT:;
#ARTISTTRANSLIT:;
#CREDIT:;
#BANNER:Sonata-banner.jpg;
#BACKGROUND:112.Sonata(O2 Version).jpg;
#LYRICSPATH:;
#CDTITLE:nemesis-cdtitle.png;
#MUSIC:112.Sonata(O2 Version).mp3;
#OFFSET:-0.524;
#SAMPLESTART:15.270;
#SAMPLELENGTH:29.538;
#SELECTABLE:YES;
#BPMS:0.000=130.000;
#STOPS:;
#BGCHANGES:;
// cache tags:
#FIRSTBEAT:8.000;
#LASTBEAT:191.500;
#SONGFILENAME:Songs/Community Keyboard Megapack - Volume 2/(DarthNemesis) Sonata (O2Jam) +/Sonata.sm;
#HASMUSIC:1;
#HASBANNER:1;
#MUSICLENGTH:90.044;
// end cache tags

//---------------dance-single - ----------------
#NOTES:
     dance-single:
     :
     Beginner:
     1:
     0.078,0.133,0.000,0.011,0.000,48.000,0.000,1.000,0.000,0.000:  // measure 1
0000
0000
0000
0000
,  // measure 2
0000
0000
0000
0000
,  // measure 3
0010
0000
0000
0000
,  // measure 4
0010
0000
0000
0000
,  // measure 5
0100
0000
0000
0000
,  // measure 6
0001
0000
0000
0000
,  // measure 7
0100
0000
0000
0000
,  // measure 8
0010
0000
0000
0000
,  // measure 9
0100
0000
0000
0000
,  // measure 10
1000
0000
0000
0000
,  // measure 11
1000
0000
0000
0000
,  // measure 12
0100
0000
0000
0000
,  // measure 13
0001
0000
0000
0000
,  // measure 14
1000
0000
0000
0000
,  // measure 15
0100
0000
0000
0000
,  // measure 16
0001
0000
0000
0000
,  // measure 17
0100
0000
0000
0000
,  // measure 18
0010
0000
0000
0000
,  // measure 19
0100
0000
0000
0000
,  // measure 20
0001
0000
0000
0000
,  // measure 21
1000
0000
0000
0000
,  // measure 22
0001
0000
0000
0000
,  // measure 23
0010
0000
0000
0000
,  // measure 24
1000
0000
0000
0000
,  // measure 25
0100
0000
0000
0000
,  // measure 26
0001
0000
0000
0000
,  // measure 27
0001
0000
0000
0000
,  // measure 28
0100
0000
0000
0000
,  // measure 29
0010
0000
0000
0000
,  // measure 30
1000
0000
0000
0000
,  // measure 31
0100
0000
0000
0000
,  // measure 32
0100
0000
0000
0000
,  // measure 33
0010
0000
0000
0000
,  // measure 34
0001
0000
0000
0000
,  // measure 35
1000
0000
0000
0000
,  // measure 36
0001
0000
0000
0000
,  // measure 37
0100
0000
0000
0000
,  // measure 38
0100
0000
0000
0000
,  // measure 39
0001
0000
0000
0000
,  // measure 40
0100
0000
0000
0000
,  // measure 41
0010
0000
0000
0000
,  // measure 42
0001
0000
0000
0000
,  // measure 43
0010
0000
0000
0000
,  // measure 44
1000
0000
0000
0000
,  // measure 45
0010
0000
0000
0000
,  // measure 46
1000
0000
0000
0000
,  // measure 47
0010
0000
0000
0000
,  // measure 48
1000
0000
0001
0000
2000
0000
0000
3000
;

//---------------dance-single - ----------------
#NOTES:
     dance-single:
     :
     Easy:
     4:
     0.355,0.319,0.233,0.022,0.000,201.000,21.000,2.000,0.000,0.000:  // measure 1
0000
0000
0000
0000
,  // measure 2
0000
0000
0000
0000
,  // measure 3
1000
0000
0001
0000
0100
0010
0000
0010
,  // measure 4
0000
0010
0000
0010
0100
0001
0000
0000
,  // measure 5
1010
0000
1000
0000
0100
0010
0000
1000
,  // measure 6
0000
0001
0000
1000
0001
0100
0000
0000
,  // measure 7
0110
0000
0001
0000
1000
0010
0000
0001
,  // measure 8
0000
0100
0000
0100
0001
0010
0000
0000
,  // measure 9
1001
1000
0010
0100
,  // measure 10
0001
0000
1000
0000
1000
0100
1000
0000
,  // measure 11
0011
0001
1000
0010
,  // measure 12
0001
0000
1000
0000
0010
0100
0010
0000
,  // measure 13
0110
1000
0001
0010
,  // measure 14
1000
0000
0001
0000
0100
0001
0100
0000
,  // measure 15
1010
0001
0100
0010
,  // measure 16
0100
0000
1000
0000
0001
1000
0010
0000
,  // measure 17
1100
0000
0001
0000
1000
0000
0010
1000
,  // measure 18
0100
0000
0010
0001
0100
0000
0000
0000
,  // measure 19
1001
0000
0010
0000
0100
0000
0001
0100
,  // measure 20
0001
0000
1000
0010
1000
0000
0000
0000
,  // measure 21
0101
0010
1000
0001
,  // measure 22
1000
0000
0010
0100
0010
0000
1000
0000
,  // measure 23
0110
0000
0001
0000
1000
0000
1000
1000
,  // measure 24
1000
0010
0100
0010
,  // measure 25
1100
0000
0001
0000
1000
0100
0000
0010
,  // measure 26
0000
0100
0000
1000
0001
1000
0000
0000
,  // measure 27
0011
0000
0001
0000
1000
0010
0000
0100
,  // measure 28
0000
0001
0000
0010
1000
0001
0000
0000
,  // measure 29
0011
0000
1000
0000
0010
0100
0000
0010
,  // measure 30
0000
0010
0000
0100
0010
1000
0000
0000
,  // measure 31
1100
0000
0001
0000
1000
0010
0000
0100
,  // measure 32
0000
1000
0000
1000
0010
0100
0000
0000
,  // measure 33
1001
0100
0001
1000
,  // measure 34
0001
0000
0010
0000
0100
1000
0100
0000
,  // measure 35
1100
0001
0010
1000
,  // measure 36
0100
0000
0001
0000
1000
0010
0100
0000
,  // measure 37
0101
0100
0001
1000
,  // measure 38
0010
0000
0001
0000
0100
1000
0100
0000
,  // measure 39
0110
1000
0100
0010
,  // measure 40
0100
0000
1000
0000
0001
0100
0001
0000
,  // measure 41
0101
1000
0100
0010
,  // measure 42
0001
1000
1000
0000
,  // measure 43
0010
1000
0100
1000
,  // measure 44
0010
0001
0100
1000
,  // measure 45
0010
0001
1000
0100
,  // measure 46
0010
0001
0100
0010
,  // measure 47
0001
0010
0100
1000
,  // measure 48
0001
0000
0110
0000
2002
0000
0000
3003
;

//---------------dance-single - ----------------
#NOTES:
     dance-single:
     :
     Medium:
     7:
     0.546,0.585,0.389,0.022,0.133,307.000,35.000,2.000,0.000,0.000:  // measure 1
0000
0000
0000
0000
,  // measure 2
0000
0000
0000
0000
,  // measure 3
1100
0000
0011
0000
0100
0010
0000
0110
,  // measure 4
0000
1100
0000
0010
0100
0001
0000
0000
,  // measure 5
0110
0000
1001
0000
0100
0010
0000
1100
,  // measure 6
0000
0101
0000
1000
0001
0100
0000
0000
,  // measure 7
1010
0000
0101
0000
1000
0010
0000
1001
,  // measure 8
0000
0101
0000
0100
0001
0010
0000
0000
,  // measure 9
1001
0000
0000
0000
1000
0001
0100
0000
1000
0000
0001
0000
0000
0000
0100
0000
,  // measure 10
1000
0000
0001
0000
0000
0000
0010
0000
1000
0100
1000
0000
1000
0000
0010
0000
,  // measure 11
0100
0000
0000
0000
0001
0010
0001
0000
0001
0000
1000
0000
0000
0000
0100
0000
,  // measure 12
0001
0000
1000
0000
0000
0000
0100
0000
0010
0100
0010
0000
0010
0000
1000
0000
,  // measure 13
0001
0000
0000
0000
1000
0010
1000
0000
0001
0000
0100
0000
0000
0000
0010
0000
,  // measure 14
1000
0000
0001
0000
0000
0000
0001
0000
0010
0001
0010
0000
0100
0000
1000
0000
,  // measure 15
0010
0000
0000
0000
0100
1000
0100
0000
0100
0000
0010
0000
0000
0000
1000
0000
,  // measure 16
0100
0000
1000
0000
0000
0000
1000
0000
0001
1000
0001
0000
1000
0000
0010
0000
,  // measure 17
0100
0010
0001
1000
0010
1000
0010
0010
,  // measure 18
1000
0001
0010
0010
0001
0000
0000
0010
,  // measure 19
0100
1000
0001
0100
0001
1000
0010
0010
,  // measure 20
1000
0001
0100
0100
0010
0000
0000
0001
,  // measure 21
1000
0100
0001
0100
1000
0010
0001
0010
,  // measure 22
1000
0100
0010
0001
0010
0100
1000
0100
,  // measure 23
1000
0010
1000
0001
1000
0010
1000
0100
,  // measure 24
0010
0001
0010
0100
0010
0001
0010
0100
,  // measure 25
1100
0000
0011
0000
0100
1000
0000
0110
,  // measure 26
0000
0011
0000
1000
0001
1000
0000
0000
,  // measure 27
1010
0000
0101
0000
1000
0010
0000
0110
,  // measure 28
0000
1001
0000
0010
1000
0001
0000
0000
,  // measure 29
0011
0000
1010
0000
0010
0100
0000
0011
,  // measure 30
0000
0110
0000
0100
0010
0001
0000
0000
,  // measure 31
1100
0000
1001
0000
1000
0010
0000
0101
,  // measure 32
0000
1100
0000
1000
0010
0100
0000
0000
,  // measure 33
1001
0000
0000
0000
0100
0010
0100
0000
0001
0000
1000
0000
0000
0000
0010
0000
,  // measure 34
0001
0000
0100
0000
0000
0000
1000
0000
0100
1000
0100
0000
1000
0000
0001
0000
,  // measure 35
0100
0000
0000
0000
0100
0001
0100
0000
0010
0000
1000
0000
0000
0000
0001
0000
,  // measure 36
0100
0000
0001
0000
0000
0000
0010
0000
1000
0010
1000
0000
0001
0000
0010
0000
,  // measure 37
0001
0000
0000
0000
0100
0010
0100
0000
0001
0000
1000
0000
0000
0000
0100
0000
,  // measure 38
0010
0000
0100
0000
0000
0000
0001
0000
0100
0010
1000
0000
0100
0000
0010
0000
,  // measure 39
0100
0000
0000
0000
0010
0001
0010
0000
0100
0000
1000
0000
0000
0000
0010
0000
,  // measure 40
0100
0000
0001
0000
0000
0000
0001
0000
0100
0010
0100
0000
0010
0000
0100
0000
,  // measure 41
0101
0000
0000
0000
1010
0000
0000
0000
1100
0000
0000
0000
0011
0000
1000
0001
,  // measure 42
0000
0001
1000
0001
1000
0000
1000
0001
,  // measure 43
0010
0100
1000
0001
0100
0010
1000
0100
,  // measure 44
0010
0000
0001
0010
0100
0000
1000
0000
0001
0100
0010
0000
1000
0000
0010
0000
,  // measure 45
0100
0000
0010
1000
0001
0000
0010
0000
0001
0010
0001
0000
0100
0000
1000
0000
,  // measure 46
0010
0000
0100
0001
0100
0000
0100
0000
0001
0100
0001
0000
1000
0010
1000
0000
,  // measure 47
0001
0010
0100
1000
0001
0010
0100
1000
,  // measure 48
0001
1000
0010
0100
2002
0000
0000
3003
;

//---------------dance-single - ----------------
#NOTES:
     dance-single:
     :
     Hard:
     9:
     0.712,0.824,0.344,0.022,0.539,416.000,31.000,2.000,0.000,0.000:  // measure 1
0000
0000
0000
0000
,  // measure 2
0000
0000
0000
0000
,  // measure 3
1000
0100
1000
0010
0100
0010
0000
0110
,  // measure 4
0000
1100
0000
0010
0100
0001
0000
1000
,  // measure 5
0010
0001
1000
0001
0100
0010
0000
1100
,  // measure 6
0000
0101
0000
1000
0001
0100
0000
1000
,  // measure 7
0100
0010
1000
0001
1000
0010
0000
1001
,  // measure 8
0000
0101
0000
0100
0001
0010
0000
0000
,  // measure 9
1001
0000
0000
0000
1000
0001
0100
0010
1000
0000
0001
0000
0010
0000
0100
0000
,  // measure 10
1000
0000
0001
0000
1000
0000
0010
0000
1000
0100
1000
0100
1000
0000
0010
0000
,  // measure 11
0110
0000
0000
0000
0001
0010
0001
0010
0001
0000
1000
0000
0010
0000
0100
0000
,  // measure 12
0001
0000
1000
0000
0010
0000
0100
0000
0010
0100
0010
0100
0010
0000
1000
0000
,  // measure 13
0101
0000
0000
0000
1000
0010
1000
0100
1000
0000
0001
0000
1000
0000
0010
0000
,  // measure 14
1000
0000
0001
0000
0010
0000
0100
0000
0010
0001
0010
0001
0010
0000
0001
0000
,  // measure 15
0110
0000
0000
0000
0100
1000
0100
1000
0100
0000
0010
0000
0100
0000
1000
0000
,  // measure 16
0100
0000
1000
0000
0010
0000
0100
0000
0001
1000
0001
1000
0001
0000
1000
0000
,  // measure 17
0011
0000
0010
0000
0001
0000
1000
0000
0010
0000
1000
0000
0010
0100
0010
0000
,  // measure 18
1000
0000
0001
0000
0010
0100
0010
0000
0011
0000
0000
0000
0000
0000
0010
0000
,  // measure 19
1100
0000
1000
0000
0001
0000
0100
0000
0001
0000
1000
0000
0010
0100
0010
0000
,  // measure 20
1000
0000
0001
0000
0100
0010
0100
0000
0110
0000
0000
0000
0000
0000
0001
0000
,  // measure 21
1000
0100
0001
0000
0001
0100
1000
0000
1000
0010
0001
0000
0001
0010
1000
0000
,  // measure 22
1000
0001
0100
0000
0001
0010
0100
1000
0100
0010
0001
0100
0001
0000
0100
0000
,  // measure 23
0001
1000
0100
0000
1000
0010
0100
0000
0001
0010
0100
0000
1000
0001
1000
0001
,  // measure 24
1000
0010
0100
0000
0001
1000
0100
1000
0010
0100
0001
1000
0010
0000
0100
0000
,  // measure 25
0100
1000
0010
0001
0100
1000
0000
0110
,  // measure 26
0000
0011
0000
1000
0001
1000
0000
0100
,  // measure 27
1000
0001
0100
0010
1000
0010
0000
0110
,  // measure 28
0000
1001
0000
0010
1000
0001
0000
1000
,  // measure 29
0001
0001
1000
1000
0010
0100
0000
0011
,  // measure 30
0000
0110
0000
0100
0010
0001
0000
0001
,  // measure 31
0100
0010
1000
0001
1000
0010
0000
0101
,  // measure 32
0000
1100
0000
1000
0010
0100
0000
1000
,  // measure 33
1001
0000
0000
0000
0100
0010
0100
0010
0100
0000
1000
0000
0100
0000
0010
0000
,  // measure 34
0001
0000
0100
0000
0010
0000
1000
0000
0100
1000
0100
0010
0100
0000
1000
0000
,  // measure 35
0101
0000
0000
0000
0100
0001
0100
0010
0100
0000
1000
0000
0010
0000
0001
0000
,  // measure 36
0100
0000
0001
0000
0100
0000
0010
0000
1000
0010
1000
0100
1000
0000
0010
0000
,  // measure 37
1001
0000
0000
0000
0100
0010
0100
0001
0100
0000
0010
0000
1000
0000
0100
0000
,  // measure 38
0010
0000
0100
0000
1000
0000
0001
0000
0100
0010
1000
0010
0100
0000
0010
0000
,  // measure 39
1100
0000
0000
0000
0100
0001
0100
0001
1000
0000
0100
0000
1000
0000
0010
0000
,  // measure 40
0100
0000
0001
0000
1000
0000
0001
0000
0010
0100
0010
0100
0010
0000
0100
0000
,  // measure 41
1000
1000
0000
0000
0001
0000
0000
0000
0010
0010
0000
0000
0100
0000
1000
1000
,  // measure 42
0000
0000
1001
0000
1001
0000
1001
0000
0110
0000
0000
0000
1000
0001
0100
0010
,  // measure 43
1000
0001
0010
0100
1000
0001
0010
0100
0010
0001
1000
0010
0100
0001
0010
0100
,  // measure 44
0010
0100
1000
0010
0100
0000
1000
0000
0001
0100
0010
1000
0001
0010
0100
1000
,  // measure 45
0001
0100
0010
1000
0001
0000
0010
0000
0001
0010
0100
0010
0100
1000
0001
0010
,  // measure 46
0100
1000
0001
0100
0010
0000
0100
0000
0001
1000
0010
0100
0001
1000
0010
0100
,  // measure 47
0001
1000
0100
0010
0001
1000
0100
0010
0001
0010
0100
1000
0001
0010
0100
1000
,  // measure 48
0001
1000
0010
0100
0001
1000
0100
0000
2002
0000
0000
0000
0000
0000
3003
0000
;

//---------------dance-single - ----------------
#NOTES:
     dance-single:
     :
     Challenge:
     10:
     0.996,1.000,1.000,0.022,0.705,483.000,143.000,2.000,0.000,0.000:  // measure 1
0000
0000
0000
0000
,  // measure 2
0000
0000
0000
0000
,  // measure 3
1001
0100
1001
0010
0110
1010
0001
0110
,  // measure 4
0001
1100
0010
0011
0101
1001
0010
0100
,  // measure 5
0011
0001
1100
0001
0110
0110
1000
1100
,  // measure 6
0010
0101
0010
1010
0011
0101
0001
1000
,  // measure 7
0110
0010
1010
0001
1001
1010
0100
1001
,  // measure 8
0001
0000
0000
1100
0000
0000
0010
0000
0000
0110
0000
0000
1001
0000
0000
0110
1000
0100
1000
0000
0000
0000
0000
0000
,  // measure 9
1001
0000
0000
0000
0000
0000
0000
0000
1000
0000
0001
0010
0100
0000
1000
0000
0010
0000
0000
0000
0001
0000
0000
0000
0110
0000
0000
0000
0010
0000
0000
0000
,  // measure 10
1001
0000
0000
0000
0001
0000
0000
0000
1010
0000
0000
0000
0100
0000
0000
0000
1000
0000
0100
0001
1000
0000
0001
0000
1000
0000
0000
0000
0010
0000
0000
0000
,  // measure 11
0110
0000
0000
0000
0000
0000
0000
0000
0001
0000
0100
1000
0001
0000
0010
0000
0001
0000
0000
0000
1000
0000
0000
0000
0110
0000
0000
0000
0100
0000
0000
0000
,  // measure 12
0101
0000
0000
0000
1000
0000
0000
0000
0011
0000
0000
0000
0100
0000
0000
0000
0010
0000
0001
0100
0010
0000
0100
0000
0010
0000
0000
0000
1000
0000
0000
0000
,  // measure 13
0101
0000
0000
0000
0000
0000
0000
0000
1000
0000
0010
0001
1000
0000
0100
0000
1000
0000
0000
0000
0001
0000
0000
0000
1010
0000
0000
0000
0100
0000
0000
0000
,  // measure 14
1001
0000
0000
0000
0001
0000
0000
0000
0110
0000
0000
0000
0010
0000
0000
0000
0100
0000
1000
0010
1000
0000
0010
0000
1000
0000
0000
0000
0001
0000
0000
0000
,  // measure 15
0110
0000
0000
0000
0000
0000
0000
0000
0010
0000
0100
1000
0010
0000
1000
0000
0010
0000
0000
0000
0100
0000
0000
0000
0101
0000
0000
0000
1000
0000
0000
0000
,  // measure 16
1100
0000
0000
0000
1000
0000
0000
0000
0011
0000
0000
0000
0100
0000
0000
0000
0001
0000
1000
0100
0001
0000
1000
0000
0001
0000
0000
0000
1000
0000
0000
0000
,  // measure 17
0011
0000
0010
0000
0101
0000
1000
0000
1001
0000
0010
0000
0010
0100
1000
0000
,  // measure 18
0101
0000
0100
0000
0010
0100
0010
0000
1010
0000
1000
0000
0110
0000
0010
0000
,  // measure 19
1100
0000
1000
0000
0011
0000
0100
0000
0101
0000
1000
0000
0010
0100
0010
0000
,  // measure 20
1001
0000
0001
0000
0100
0001
0010
0000
1100
0000
0010
0000
0101
0000
0001
0000
,  // measure 21
1010
0100
0001
0000
0101
0010
1000
0000
1100
0010
0001
0000
0011
0100
1000
0000
,  // measure 22
1001
0000
0100
0000
0010
0000
0000
0000
1000
0000
0001
0010
0100
0000
0010
0000
0001
0000
0010
0100
1000
0000
0100
0010
0001
0000
1000
0000
0100
0000
0000
0000
,  // measure 23
0011
1000
0100
0000
1100
0001
0010
0000
1001
0010
0100
0000
1000
1001
1010
1000
,  // measure 24
1010
0000
0100
0000
0001
0000
0000
0000
0110
0000
0001
0010
0100
0000
1000
0000
0010
0000
0100
0010
0001
0000
1000
0100
0010
0000
0000
0000
0100
0000
0000
0000
,  // measure 25
1100
1000
0110
0001
0110
1100
0001
0110
,  // measure 26
0001
0011
0001
1100
0011
1010
0100
0011
,  // measure 27
1100
0001
0110
0010
1001
0110
0010
0110
,  // measure 28
0100
0110
1000
1010
1001
0101
0010
1001
,  // measure 29
1010
0001
1100
1000
0011
1100
0010
0011
,  // measure 30
0001
0110
0010
1100
0011
1010
1000
0110
,  // measure 31
0101
1000
0101
0001
1010
0011
0010
0011
,  // measure 32
0001
1100
1000
1100
1010
0110
0010
1000
,  // measure 33
1001
0000
0000
0000
0010
0000
0000
0000
0100
0000
0010
0001
0100
0000
1000
0000
0010
0000
0000
0000
1000
0000
0000
0000
1100
0000
0000
0000
0010
0000
0000
0000
,  // measure 34
0011
0000
0000
0000
0100
0000
0000
0000
1010
0000
0000
0000
0010
0000
0000
0000
0100
0000
0001
0010
0100
0000
0001
0000
0010
0000
0000
0000
1000
0000
0000
0000
,  // measure 35
0101
0000
0000
0000
0010
0000
0000
0000
0100
0000
0001
1000
0001
0000
0100
0000
0010
0000
0000
0000
1000
0000
0000
0000
0110
0000
0000
0000
0001
0000
0000
0000
,  // measure 36
1100
0000
0000
0000
0001
0000
0000
0000
0101
0000
0000
0000
0010
0000
0000
0000
1000
0000
0010
0100
0001
0000
1000
0000
0100
0000
0000
0000
1000
0000
0000
0000
,  // measure 37
1001
0000
0000
0000
0010
0000
0000
0000
0100
0000
0010
1000
0100
0000
0001
0000
0100
0000
0000
0000
0010
0000
0000
0000
1100
0000
0000
0000
0001
0000
0000
0000
,  // measure 38
1010
0000
0000
0000
0001
0000
0000
0000
0110
0000
0000
0000
1000
0000
0000
0000
0001
0000
0010
0100
1000
0000
0010
0000
0001
0000
0000
0000
0010
0000
0000
0000
,  // measure 39
1100
0000
0000
0000
0010
0000
0000
0000
0100
0000
0001
0010
0100
0000
0001
0000
1000
0000
0000
0000
0100
0000
0000
0000
1001
0000
0000
0000
0010
0000
0000
0000
,  // measure 40
0101
0000
0000
0000
1000
0000
0000
0000
1010
0000
0000
0000
0001
0000
0000
0000
0010
0000
0100
1000
0100
0000
0010
0000
0001
0000
0000
0000
0100
0000
0000
0000
,  // measure 41
1010
1010
0000
0000
0101
0000
0000
0000
0011
0011
0000
0000
0110
0000
1100
1100
,  // measure 42
0000
0000
1001
0000
1001
0000
1001
0000
0110
0000
1000
0100
0010
0001
0010
0100
,  // measure 43
1000
0001
0010
0100
1000
0001
0010
0100
0010
1000
0001
0010
0100
1000
0001
0100
,  // measure 44
0010
0000
0100
0000
1000
0000
0010
0000
0100
0000
0000
0000
1000
0000
0000
0000
0001
0000
0100
0001
0010
0000
1000
0000
0001
0000
0010
0000
0100
0000
1000
0000
,  // measure 45
0011
0000
0100
0000
0010
0000
1000
0000
0001
0000
0000
0000
0010
0000
0000
0000
0110
0000
0010
0100
1001
0000
0100
0000
0010
0000
1000
0000
0001
0000
0010
0000
,  // measure 46
0110
0000
1000
0000
0001
0000
0100
0000
0010
0000
0000
0000
1000
0000
0000
0000
0001
0000
1000
0010
0101
0000
1000
0000
0001
0000
0100
0000
0010
0000
1000
0000
,  // measure 47
0011
0100
0010
1000
0010
0100
0001
1000
0100
0010
0001
1000
0010
0100
0001
0010
,  // measure 48
1001
0100
0010
0100
1001
0010
0100
0010
2002
0000
0000
0000
0000
0000
3003
0000
;
