#TITLE:This is Halloween;
#SUBTITLE:(Marilyn Manson version);
#ARTIST:Marilyn Manson;
#TITLETRANSLIT:;
#SUBTITLETRANSLIT:;
#ARTISTTRANSLIT:;
#CREDIT:Arch0wl;
#BANNER:tihmmv-bn.png;
#BACKGROUND:tihmmv-bg.png;
#LYRICSPATH:;
#CDTITLE:!Arch0wlTitle.png;
#MUSIC:tihmmv.ogg;
#OFFSET:-0.454;
#SAMPLESTART:28.967;
#SAMPLELENGTH:16.421;
#SELECTABLE:YES;
#BPMS:0.000=84.000;
#STOPS:;
#BGCHANGES:0.375=thisishalloween.avi=1.000=0=0=1,
263.750=tihmmv-bg.png=1.000=0=0=1,
99999=-nosongbg-=1.000=0=0=0 // don't automatically add -songbackground-
;
// cache tags:
#FIRSTBEAT:4.000;
#LASTBEAT:263.750;
#SONGFILENAME:Songs/Archmage and Dark0wl Hammer of Thor UltraHyperMegaPack/This is Halloween/tihmmv.sm;
#HASMUSIC:1;
#HASBANNER:1;
#MUSICLENGTH:105.000;
// end cache tags

//---------------dance-single - Arch0wl----------------
#NOTES:
     dance-single:
     Arch0wl:
     Medium:
     9:
     0.884,0.911,0.638,0.048,0.643,576.000,67.000,5.000,0.000,2.000:
0000
0000
0000
0000
,
1000
0000
1000
0000
1000
0000
1000
0100
,
0010
0000
0010
0000
0010
0000
0010
0001
,
0100
0000
0100
0000
0100
0000
0100
0010
,
2000
0000
0000
0000
3000
0000
0001
0010
,
1200
0000
0320
0000
,
0031
0000
0100
0000
0001
0000
0100
0000
0001
0100
0010
0000
0110
0000
0000
0000
,
0010
0001
0010
0000
0100
1000
0100
0000
0001
0000
0010
0000
0110
0000
0000
0000
,
0100
0100
1000
1000
0010
0010
0100
0000
,
0100
0100
0001
0001
1000
1000
0010
0100
,
0001
0000
0001
0000
0001
0010
0100
0000
1000
0000
1000
0000
1000
0100
0010
0000
,
1000
0000
0010
0000
0001
0000
1000
0010
0001
0000
0010
0000
1000
0000
0000
0000
,
0001
0000
0001
0000
0001
0100
0010
0000
1000
0010
0100
0001
0010
0100
1000
0000
,
0010
0000
0010
0000
0100
0000
0001
1000
0001
0100
0001
0010
0001
0100
0010
0000
,
1000
0000
0001
0000
0101
0000
0000
0000
1000
0010
0100
0001
0101
0000
0000
0000
,
0010
0000
0100
0000
1000
0000
0100
0000
0010
0000
0010
0000
0001
0000
0100
0010
,
0001
0000
0010
0100
0001
1000
0100
0000
0110
0000
0000
0000
0010
0000
0001
0000
,
1001
0000
1000
0000
1010
0000
0010
0100
0001
0000
0000
0000
1000
0000
1000
0100
,
0010
0000
0010
0001
1000
0100
1000
0000
1100
0000
0000
0000
0100
0010
0001
0000
,
0001
0000
0100
0000
0010
1000
0010
1000
0010
0000
0000
0000
0100
0000
0100
0000
,
0100
0001
1000
0000
0010
0000
0010
0000
0010
1000
0001
0000
1000
0010
0100
0000
,
0100
0001
0010
0000
0010
0100
1000
0000
1000
0010
0100
0000
0100
0100
0001
0001
,
1000
1000
0100
0100
0010
0000
0010
0000
0001
0000
0000
0000
0001
0000
0001
0000
,
1000
0000
0000
0000
1000
0010
0100
0000
0001
0000
1000
0010
0110
0000
0110
0000
,
0101
0000
0010
0010
0001
0000
1000
1000
,
0001
0001
0100
0000
0100
0010
1000
0100
0010
0001
0100
0010
1010
0000
1010
0000
,
0111
0000
0000
0000
0100
0000
0100
0000
0100
0001
1000
0000
1000
0001
0100
0010
,
1000
0000
1000
0000
0011
0000
0010
0000
0100
0010
0001
0100
0010
0000
0010
0000
,
1000
0000
1000
0000
0011
0000
1000
0100
0010
0010
0010
0000
0001
0001
1000
1000
,
0010
0010
0010
0000
1000
0000
0100
0000
1000
0000
0001
0000
0011
0000
0011
0000
,
1001
0000
0000
0000
1000
0100
0001
0000
0001
0100
1000
0000
1000
0010
0001
0010
,
1000
0100
0001
0000
0100
0000
1000
0100
0010
0000
0001
0010
0100
0000
0100
0000
,
1010
0000
0000
0000
0010
0100
0010
0100
1001
0000
0000
0000
0010
0100
0010
0100
,
1001
0000
1000
1000
0100
0100
0010
0010
,
0001
0000
0001
1000
0001
0000
0100
0010
1000
0100
1000
0000
1001
0000
0000
0000
,
0001
0000
0010
0100
0010
0000
0001
0000
0100
0010
0100
0010
0110
0000
0000
0000
,
0001
0000
1000
1000
0100
0000
0010
0010
0001
0000
0101
0000
1010
0000
0000
0000
,
1000
0000
0010
0010
0100
0000
0001
0001
0010
0000
0110
0000
1001
0000
0000
0000
,
1000
0000
0001
0010
0100
0010
0001
0100
0010
0000
0010
0000
1100
0000
0000
0000
,
0001
0010
0100
0000
0010
0000
0001
0100
0010
0000
0010
0000
1100
0000
0000
0000
,
0001
0000
0001
0000
0001
0010
0100
0000
1000
0000
1000
0000
1000
0010
0100
0000
,
0100
0001
0010
0000
0010
0100
1000
0000
1000
0010
0100
0000
0100
0001
0010
0000
,
0010
0100
1000
0000
1000
0010
0100
0000
0001
0001
0100
0100
0010
0010
1000
1000
,
1010
0000
0010
0000
0100
0000
0100
0000
1010
0100
0001
0000
0010
0000
0000
0000
,
1001
0000
0100
0000
1001
0000
0100
0000
1001
0100
0010
0000
1000
0000
0000
0000
,
0001
0001
0001
0010
0010
0010
0010
0000
,
0100
0100
0010
0010
0001
0001
1000
0000
,
0001
0000
0001
0000
0001
0000
0000
0000
1000
0000
1000
0000
1000
1000
0010
0000
,
0100
0100
0010
0010
0100
0100
0010
0010
1000
0000
1010
0000
1110
0000
0000
0000
,
1000
0010
0001
0000
0011
0000
0010
0000
1000
0010
0001
0010
1010
0000
0010
0000
,
0110
0000
0100
0001
0010
0000
0010
0000
0100
0010
0001
0000
0100
0010
0001
0000
,
1010
0000
0100
0001
0100
0001
0100
0000
0010
1000
0010
1000
0101
0000
0000
0000
,
0001
0001
1000
1000
0100
0000
0100
0100
0010
0010
0001
0001
1001
0000
0000
0000
,
1010
0000
0010
0000
1000
0000
1000
0000
0101
0000
0010
1000
0100
0100
0010
0000
,
0001
0010
0100
0000
0010
0000
0001
0010
0100
0100
1000
0000
1001
0000
0000
0000
,
1000
0000
1000
0000
1000
0010
0100
0000
0001
0000
0001
0000
0001
0100
0010
0000
,
1000
0100
0010
0000
0010
0001
0100
0000
0100
0010
1000
0000
1000
0100
0010
0000
,
0010
0001
0010
0100
1000
0001
1000
0010
0100
0000
0100
0000
0100
0000
0000
0000
,
0001
0000
0001
0000
0001
0000
0000
0000
0010
1000
0010
0000
0001
0000
0100
1000
,
1100
1100
0110
0000
1100
0000
1100
0000
,
1100
0000
1100
0010
0101
0000
0101
0000
,
0101
0000
0101
0010
1001
0000
1001
0000
,
1001
0000
1001
0100
0011
0000
0011
0100
,
1010
1001
0220
0000
,
0000
0000
0030
0000
0001
0010
0001
0010
,
1000
0000
0000
0000
0010
0000
0000
0000
0001
0000
0000
0000
0000
0000
0000
0000
0310
0000
0000
0000
0000
0000
0000
0000
0000
0000
0000
0000
0000
0000
0000
0000
0001
0000
0000
0000
0010
0000
0000
0000
0100
0000
0000
0000
0000
0000
0000
0000
0000
0000
0001
0000
0000
0000
0000
0010
0000
0000
0000
0000
0100
0000
0000
0000
;

//---------------dance-single - Arch0wl----------------
#NOTES:
     dance-single:
     Arch0wl:
     Hard:
     12:
     1.000,1.000,1.000,0.067,0.762,619.000,262.000,7.000,0.000,62.000:
0000
0000
0000
0000
,
1000
0000
1000
0000
1000
0000
1000
0100
,
1010
0000
1010
0000
1010
0000
1010
0001
,
1100
0000
1100
0000
1100
0000
1100
0010
,
2102
0000
0000
0000
3003
0000
0001
0010
,
2201
0000
3320
0000
,
1031
0000
0100
0000
1001
0000
0100
0000
0101
0100
0010
0000
1110
0000
0000
0000
,
0011
0001
0010
0000
1100
1000
0100
0000
0101
0000
1010
0000
1110
0000
0000
0000
,
0101
0101
1001
1001
0011
0011
0101
0000
,
0110
0110
0011
0011
1010
1010
0110
0101
,
1011
0000
0100
0000
0001
0010
0100
0000
1101
0000
0010
0000
1000
0100
0010
0000
,
1100
0000
0011
0000
1001
0000
1000
0010
0011
0000
1010
0000
1110
0000
0000
0000
,
1011
0000
0100
0000
0001
0100
0010
0000
1000
0010
0100
0001
0010
0100
1000
0000
,
0011
0000
1010
0000
1110
0000
0001
1000
0101
0001
0011
0010
0101
0101
0011
0000
,
1011
0000
0100
0000
1001
0000
0000
0000
1011
0100
0001
0010
1101
0000
0000
0000
,
0011
0000
0101
0000
1001
0000
0101
0000
0011
0000
0011
0000
1011
0000
0100
0010
,
0001
0000
0010
0100
0001
1000
0100
0000
0111
0000
0000
0000
0110
0000
0011
0000
,
1001
0000
1010
0000
1010
0000
0010
0100
1011
0000
0000
0000
0011
0000
1000
0100
,
0011
0000
0010
0001
1000
0100
1000
0000
0111
0000
0000
0000
0100
0010
0001
0000
,
1001
0000
0100
0000
1010
1010
0110
0110
1010
0000
0000
0000
0111
0000
0100
0000
,
0100
0001
1000
0000
1110
0000
0010
0000
0010
1000
0001
0000
1010
0010
0100
0000
,
0101
0001
0010
0000
0110
0100
1000
0000
1010
0010
0100
0000
0100
0100
0001
0001
,
1000
1000
0100
0100
0011
0000
0011
0000
1001
0000
0000
0000
1001
0000
1001
0000
,
1010
0000
0000
0000
1000
0010
0100
0000
1001
0000
0100
0010
0111
0000
0111
0000
,
1111
0000
1100
0010
0001
0000
1000
1000
,
0001
0001
0100
0000
0110
1010
1100
0110
0011
0101
0110
1010
1100
0000
1100
0000
,
0111
0000
0000
0000
1110
0000
0100
0000
0100
0001
1010
0000
1000
0001
0100
0010
,
1010
0000
1010
0000
0111
0000
0010
0000
0100
0010
0001
0100
0110
0000
0110
0000
,
1010
0000
1010
0000
0111
0000
1000
0100
0110
0110
0110
0000
0011
0011
1010
1010
,
0110
0110
0110
0000
1010
0000
0110
0000
1010
0000
0011
0000
0111
0000
0111
0000
,
1011
0000
0000
0000
1010
0100
0001
0000
0011
0100
1000
0000
1100
0010
0001
0010
,
1100
0110
0011
0000
0110
0000
1000
0100
0010
0000
0001
0010
1100
0000
1100
0000
,
1101
0000
0000
0000
0010
0100
0010
0100
1011
0000
0000
0000
0010
0100
0010
0100
,
1011
0000
1100
1100
0110
0110
0011
0011
,
1011
0000
0001
1000
0001
0000
0100
0010
1000
0100
1000
0000
1010
0000
0000
0000
,
1001
0000
0010
0100
0010
0000
0001
0000
0100
0010
0100
0010
0101
0000
0000
0000
,
1001
0000
1000
1000
1100
0000
0010
0010
0011
0000
0101
0000
1010
0000
0000
0000
,
1000
0000
0010
0010
0110
0000
0001
0001
0011
0000
0110
0000
1011
0000
0000
0000
,
1100
0000
0001
0010
0100
0010
0001
0100
0110
0000
0110
0000
1010
0000
0000
0000
,
1001
0010
0100
0000
0010
0000
0001
0100
1010
0000
1010
0000
1100
0000
0000
0000
,
0111
0000
0001
0000
0001
0010
0100
0000
1110
0000
1000
0000
1000
0010
0100
0000
,
0101
0001
0010
0000
0110
0100
1000
0000
1010
0010
0100
0000
0101
0001
0010
0000
,
0110
0100
1000
0000
1010
0010
0100
0000
0011
0011
0101
0101
1010
1010
1100
1100
,
1011
0000
0010
0000
0100
0000
0100
0000
1011
0100
0001
0000
0010
0000
0000
0000
,
1011
0000
0100
0000
1011
0000
0100
0000
1011
0100
0010
0000
1000
0000
0000
0000
,
0001
0001
0001
0010
0010
0010
0010
0000
,
0100
0100
0010
0010
0001
0001
1000
0000
,
0011
0000
0001
0000
0001
0000
0000
0000
1000
0000
1000
0000
1001
1001
0010
0000
,
1100
1100
0110
0110
0101
0101
0110
0110
1100
0000
1010
0000
1110
0000
0000
0000
,
1100
0010
0001
0000
0011
0000
0010
0000
1100
0010
0001
0010
0100
0000
0010
0000
,
1110
0000
0100
0010
0011
0000
0011
0000
0100
0010
0001
0000
0001
0010
0100
0000
,
0111
0000
0100
0001
0100
0001
0100
0000
0010
1000
0010
1000
0111
0000
0000
0000
,
0001
0001
1000
1000
0100
0000
0100
0100
0110
0110
0011
0011
1001
0000
0000
0000
,
1110
0000
0010
0000
1000
0000
1000
0000
0111
0000
0010
1000
0100
0100
0010
0000
,
1001
0010
0100
0000
0110
0000
1001
0010
0100
0100
1000
0000
1011
0000
0000
0000
,
1110
0000
1000
0000
1000
0010
0100
0000
0111
0000
0001
0000
0001
0100
0010
0000
,
1001
0100
0010
0000
1010
0001
0100
0000
0101
0010
1000
0000
1001
0100
0010
0000
,
0010
0001
0010
0100
1000
0001
1000
0010
0101
0000
0101
0000
0101
0000
0000
0000
,
0011
0000
0011
0000
0011
0000
0000
0000
0010
1000
0010
0000
0001
0000
0100
1000
,
1110
0000
1110
0000
1111
0000
0000
0000
1100
1000
1000
1000
1100
1000
1000
1000
,
1100
1000
1000
0000
1100
1000
1010
0000
0101
0001
0001
0001
0101
0001
0001
0001
,
0101
0001
0001
0000
0101
0001
0011
0000
1001
1000
1000
1000
1001
1000
1000
1000
,
1001
1000
1000
0000
1001
1000
1100
0000
0011
0001
0001
0001
0011
0001
0101
0001
,
0011
0001
0001
0000
1001
0001
0001
0000
1022
0000
0100
0000
1000
0000
0100
0000
,
1000
0100
1000
0000
0103
0000
0000
0000
1000
0000
0100
0000
1000
0000
0100
0000
,
1000
0000
0000
0000
0100
0000
0000
0000
1000
0000
0000
0000
0000
0000
0000
0000
0130
0000
0000
0000
0000
0000
0000
0000
0000
0000
0000
0000
0000
0000
0000
0000
0001
0000
0000
0000
0010
0000
0000
0000
0100
0000
0000
0000
0000
0000
0000
0000
0000
0000
0001
0000
0000
0000
0000
0010
0000
0000
0000
0000
0100
0000
0000
0000
;
