#TITLE:BPM Track;
#SUBTITLE:;
#ARTIST:Wild Motherfuckers;
#TITLETRANSLIT:;
#SUBTITLETRANSLIT:;
#ARTISTTRANSLIT:;
#CREDIT:owenviau1;
#BANNER:../BN.PNG;
#BACKGROUND:;
#LYRICSPATH:;
#CDTITLE:../CDTitleOV1.png;
#MUSIC:Wild Motherfuckers - BPM Track.ogg;
#OFFSET:-0.298;
#SAMPLESTART:28.355;
#SAMPLELENGTH:29.999;
#SELECTABLE:YES;
#BPMS:0.000=140.000,58.000=150.000,96.000=157.005,97.000=160.005,98.000=159.995,99.000=160.005,100.000=159.995,101.000=160.005,102.000=159.995,103.000=160.005,104.000=159.995,105.000=160.005,106.000=159.995,107.000=160.005,108.000=159.995,109.000=160.005,110.000=159.995,111.000=160.005,112.000=159.995,113.000=160.005,114.000=159.995,115.000=160.005,116.000=159.995,117.000=160.005,118.000=159.995,119.000=160.005,120.000=159.995,121.000=160.005,122.000=159.995,123.000=160.005,124.000=159.995,125.000=160.005,126.000=159.995,127.000=160.005,128.000=159.995,129.000=160.005,130.000=159.995,131.000=160.005,132.000=159.995,133.000=160.005,134.000=159.995,135.000=160.005,136.000=159.995,137.000=160.005,138.000=175.000,139.000=180.000,178.000=200.000,218.000=196.000,232.000=125.000,233.000=109.001,236.000=108.997,237.000=109.001,239.000=110.002,240.000=109.998,241.000=110.002,242.000=109.998,243.000=110.002,244.000=109.998,245.000=110.002,246.000=109.998,247.000=111.004,248.000=110.999,251.000=112.000,266.000=111.500,270.000=111.504,271.000=111.500,274.000=110.002,275.000=109.998,276.000=110.002,277.000=109.998,278.000=110.002,279.000=109.998,281.000=110.002,282.000=109.998,283.000=110.002,284.000=109.998,285.000=110.002,286.000=109.998,287.000=110.002,288.000=109.998,289.000=110.002,290.000=109.998,292.000=110.002;
#STOPS:;
#BGCHANGES:;
// cache tags:
#FIRSTBEAT:12.000;
#LASTBEAT:291.500;
#SONGFILENAME:Songs/owenviau1 Simfiles 07_final/BPM Track - [owenviau1] v1.0.1/BPM Track.sm;
#HASMUSIC:1;
#HASBANNER:1;
#MUSICLENGTH:118.778;
// end cache tags

//---------------dance-single - ----------------
#NOTES:
     dance-single:
     :
     Challenge:
     16:
     1.000,1.000,0.000,0.337,1.000,922.000,0.000,40.000,214.000,0.000:
0000
0000
0000
0000
,
0000
0000
0000
0000
,
0000
0000
0000
0000
,
0000
0000
0000
0000
,
0000
0000
0000
0000
0000
0000
0000
0000
0000
0000
0000
0000
0000
0000
0000
2000
0000
3000
0000
0000
0000
0200
0000
0300
,
0000
0000
0000
0020
0000
0030
0000
0000
0000
0002
0000
0003
0000
0000
0000
2000
0000
3000
0000
0000
0000
0020
0000
0030
,
0000
0000
0000
0000
0000
0000
0200
0000
0000
0000
0300
0000
0000
0000
0000
0000
0000
0000
0020
0000
0000
0000
0030
0000
1000
0000
0000
0001
0000
0000
0100
0000
0000
0001
0000
0000
0010
0000
0000
0100
0000
0000
1000
0000
0000
0010
0000
0000
,
0100
0001
0100
0010
1000
0001
1000
0100
0010
0001
1000
0100
1000
0010
0100
0001
,
0100
0010
1000
0001
1000
0100
0010
0001
1000
0010
1000
0001
0100
0010
1000
0001
,
0100
0001
0010
0100
1000
0001
0010
0001
1000
0100
1000
0010
0100
0001
0100
0010
,
1000
0001
1000
0100
0010
0001
0010
0100
1000
0001
0010
0001
0100
0010
0100
0001
,
1000
0010
0100
0001
0100
0010
1000
0001
1000
0100
0010
0001
0100
0001
1000
0010
,
0100
0000
0000
0010
0000
0000
1000
0000
0000
0001
0000
0000
0010
0000
0000
0100
0000
0000
1000
0000
0000
0001
0000
0000
1000
0000
0000
0000
0000
0000
0020
0000
0000
0000
0000
0000
0030
0000
0000
0000
0000
0000
0200
0000
0000
0000
0300
0000
,
0002
0000
0000
0000
0000
0000
2000
0000
0000
0000
3000
0000
0003
0000
0000
0000
0000
0000
2000
0000
0000
0000
3000
0000
0200
0000
0000
0000
0000
0000
0320
0000
0000
0000
0030
0000
0002
0000
0000
0000
0000
0000
1003
0000
0000
0010
0000
0000
,
0200
0000
0000
0002
0000
0003
0300
0000
0000
0002
0000
0003
0000
0000
0000
0000
0000
0000
0000
0000
0000
0000
0000
0000
,
0000
0000
0000
0000
0000
0000
0000
0000
0000
0000
0000
0000
0M00
0M00
0M00
0M00
0M00
0M00
0M00
0M00
0M00
0000
0000
MMMM
M000
M000
M000
MMMM
000M
000M
000M
MMMM
,
0000
0000
MMMM
M00M
M00M
M00M
M00M
M00M
M00M
M00M
MMMM
0000
0000
0000
0000
0000
1000
0000
0100
0000
0010
0000
0001
0000
0100
0000
0001
0000
1000
0000
0010
0000
,
0100
0010
1000
0001
0010
0001
0100
0010
0100
0001
1000
0100
0010
0001
1000
0100
,
1000
0001
0010
0001
0100
0010
1000
0001
0100
0001
1000
0100
0010
0001
0100
0010
,
1000
0010
0100
0001
1000
0001
0100
0010
0100
0001
1000
0010
1000
0001
0100
0001
,
0010
0000
0000
0100
0000
0000
1000
0000
0000
0001
0000
0000
0200
0000
0000
0000
0300
0000
0200
0000
0000
0000
0300
0000
0001
0000
0000
0010
0000
0000
0001
0000
0000
0010
0000
0000
0001
0000
0000
1000
0000
0000
0010
0000
0000
0100
0000
0000
,
0010
1000
0001
0100
0001
1000
0010
0100
0001
0100
0010
1000
0001
1000
0100
0010
,
0001
1000
0100
1000
0010
0100
0001
0100
0010
1000
0001
1000
0100
0010
0001
0100
,
0010
0000
0000
1000
0000
0000
0010
0000
0000
0100
0000
0000
0001
0000
0000
1000
0000
0000
0001
0000
0000
0100
0000
0000
0020
0000
0000
0000
0000
0000
2000
0000
0000
0000
3000
0000
0000
0000
0000
0000
0000
0000
2000
0000
0000
0000
3000
0000
,
0000
0000
0000
2000
0000
3000
0000
0000
0000
2030
0000
3000
0000
0000
0000
0000
0000
0000
0000
0000
0000
0000
0000
0000
,
0000
0000
0000
0000
0000
0000
0000
0000
0000
0000
0000
0000
0M00
0M00
0M00
0M00
0M00
0M00
0M00
0M00
0000
0000
MMMM
M000
M000
M000
MMMM
M00M
M00M
M00M
MMMM
0000
,
0000
MMMM
0000
M00M
0000
M00M
0000
M00M
0000
M00M
0000
M00M
0000
M00M
0000
MMMM
0000
0000
0000
0000
0000
0000
0000
0000
0000
0000
0000
0000
0000
0000
0000
0000
0001
0000
0000
0000
1000
0000
0000
0000
0010
0000
0000
0000
0100
0000
0000
0000
0010
0000
0000
0000
1000
0000
0000
0000
0001
0000
0000
0000
0100
0000
0000
0000
,
0001
1000
0010
0100
0010
1000
0001
0010
0100
1000
0001
0010
0001
0100
0010
1000
,
0010
0100
0001
1000
0001
0100
0010
0100
0001
1000
0100
1000
0010
0100
0001
1000
,
0001
0100
0010
1000
0001
0100
0001
0010
0100
1000
0010
0100
0010
1000
0001
0100
,
0010
1000
0010
0100
0001
0100
0010
1000
0001
1000
0100
0010
0001
1000
0100
1000
,
0010
0100
0001
0100
0010
1000
0001
0100
0001
0010
0100
1000
0001
0010
0001
0100
,
0010
1000
0001
1000
0100
0010
0001
1000
0100
1000
0010
0100
0001
0100
0010
1000
,
0001
0000
0000
1000
0000
0000
0100
0000
0000
0010
0000
0000
0001
0000
0000
1000
0000
0000
0010
0000
0000
1000
0000
0000
0001
0000
0000
0100
0000
0000
0020
0000
0000
0000
0030
0000
0020
0000
0000
0000
0030
0000
2000
0000
0000
0000
3000
0000
,
0020
0000
0000
0000
0030
0000
0200
0000
0000
0000
0300
0000
0001
0000
0000
1000
0000
0000
0002
0000
0000
0000
0003
0000
0000
0000
0000
0000
0000
0000
0000
0000
0000
0000
0000
0000
0000
0000
0000
0000
0000
0000
0000
0000
0000
0000
0000
0000
,
0000
0000
0000
0000
0000
0000
0000
0000
0000
0000
0000
0000
0000
0000
0000
0000
0000
0000
0000
0000
0000
0M00
0000
0M00
0000
0M00
0000
0M00
0000
0M00
0000
0M00
0000
0M00
0000
0M00
0000
0M00
0000
0M00
0000
0000
0000
0000
0000
0000
MMMM
0000
M00M
0000
M00M
0000
M00M
0000
MMMM
0000
M00M
0000
M00M
0000
M00M
0000
M00M
0000
,
MMMM
0000
0000
0000
0000
0000
0000
MMMM
0000
M00M
0000
M00M
0000
M00M
0000
M00M
0000
M00M
0000
M00M
0000
M00M
0000
MMMM
0000
0000
0000
0000
0000
0000
0000
0000
1000
0000
0000
0000
0100
0000
0000
0000
1000
0000
0000
0000
0001
0000
0000
0000
0010
0000
0000
0000
0001
0000
0000
0000
0100
0000
0000
0000
0010
0000
0000
0000
,
1000
0010
0100
0001
1000
0001
0100
0010
0100
0001
1000
0010
1000
0100
0010
0001
,
1000
0100
1000
0001
0010
0001
0100
0010
1000
0001
0100
0001
1000
0100
0010
0001
,
0010
0100
1000
0001
0010
0001
0100
0010
0100
0001
1000
0100
0010
0001
1000
0100
,
1000
0010
0100
0001
1000
0000
0010
0000
0100
0001
1000
0001
0100
0010
0100
0001
,
1000
0010
1000
0100
0010
0001
1000
0100
1000
0001
0100
0010
0100
0001
1000
0010
,
1000
0001
0100
0001
0010
0100
1000
0001
0010
0001
0100
0010
1000
0010
0100
0001
,
1000
0001
0100
0010
1000
0010
0100
0001
1000
0001
0010
0100
1000
0001
0010
0001
,
0100
0000
0000
0010
0000
0000
1000
0000
0000
0001
0000
0000
2000
0000
0000
0000
0000
0000
0020
0000
0000
0000
0030
0000
3000
0000
0000
0000
0000
0000
0000
0000
0000
0000
0000
0000
0000
0000
0000
0000
0000
0000
0000
0000
0000
0000
0000
0000
,
0000
0000
0000
0000
0000
0000
0000
0000
0000
0000
0000
0000
0000
0000
0000
0000
0000
0000
0000
0000
0000
0000
0000
0000
0000
0000
0000
0000
0000
0000
0000
0000
MMMM
0000
000M
0000
000M
0000
000M
0000
MMMM
0000
M000
0000
M000
0000
M000
0000
MMMM
0000
0000
0000
0000
0000
0000
MMMM
0000
M00M
0000
M00M
0000
M00M
0000
M00M
,
0000
M00M
0000
M00M
0000
MMMM
0000
0000
0000
0000
0000
MMMM
0000
M00M
0000
M00M
0000
M00M
0000
M00M
0000
M00M
0000
M00M
0000
MMMM
0000
0000
0000
0000
0000
0000
1000
0000
0000
0000
0100
0000
0000
0000
0010
0000
0000
0000
0001
0000
0000
0000
0100
0000
0000
0000
0010
0000
0000
0000
1000
0000
0000
0000
0010
0000
0000
0000
,
0100
0001
1000
0001
0010
0100
1000
0001
0010
0001
0100
0010
0100
0001
1000
0010
,
1000
0001
0100
0010
1000
0010
0100
0001
1000
0001
0010
0100
1000
0001
0010
0001
,
0100
0010
0100
0001
1000
0010
0100
0001
0100
0010
1000
0001
2000
0000
0001
0000
,
0000
0000
0000
0000
3001
0000
0100
0000
0010
0000
0100
0000
0001
0000
1000
0001
1000
0000
0100
0000
0010
0000
0001
0000
0100
0000
0010
0000
0100
0000
0001
0000
,
1000
0010
1000
0001
0100
0010
0100
0001
1000
0100
1000
0010
0100
0001
1000
0100
,
0010
0001
1000
0100
1000
0001
0010
0001
0100
0010
0100
0001
1000
0010
1000
0001
,
0100
0010
0100
0001
1000
0100
0010
0001
1000
0010
0100
0001
2000
3000
0000
0200
,
0000
0300
0000
0020
0000
0000
0000
0000
0030
0000
0000
0000
0000
0000
0000
0000
,
0000
0000
0000
0000
,
0000
0000
0000
0000
,
0000
0000
0000
0000
,
0001
0000
0000
0000
0000
0000
0000
0000
0000
0000
0000
0000
0000
0000
0000
0000
0000
0000
0000
0000
0000
0000
0000
0000
1000
0000
0000
0000
0000
0000
0000
0000
0100
0000
0000
0000
0000
0000
0000
0000
0010
0000
0000
0000
0000
0000
0000
0000
0001
0000
0000
1000
0000
0000
0001
0000
0000
0100
0000
0000
0010
0000
0000
1000
0000
0000
0010
0000
0000
0100
0000
0000
0001
0000
0000
1000
0000
0000
0001
0000
0000
0100
0000
0000
0010
0000
0000
1000
0000
0000
0010
0000
0000
0100
0000
0000
,
0001
1000
0001
0010
0100
1000
0001
0010
0001
0100
0010
1000
0010
0100
0001
1000
0001
0100
0010
1000
0001
0100
0001
1000
0100
0010
0001
1000
0100
1000
0001
0010
,
0001
0100
0010
1000
0001
0100
0001
1000
0100
0010
0001
1000
0010
1000
0001
0100
0010
1000
0001
0100
0010
0100
0001
1000
0100
0010
0001
1000
0100
1000
0010
0100
,
0001
1000
0001
0100
0010
1000
0010
0100
0001
1000
0001
0100
0010
1000
0010
0100
0001
1000
0001
0010
0100
1000
0001
0010
0001
0100
0010
1000
0010
0100
0001
1000
,
0001
0100
0010
1000
0001
0100
0001
1000
0100
0010
0001
1000
0100
1000
0001
0010
0001
0100
0010
1000
0001
0100
0001
1000
0100
0010
0001
1000
0010
1000
0001
0100
,
0010
1000
0001
0100
0010
0100
0001
1000
0100
0010
0001
1000
0100
1000
0010
0100
0001
1000
0001
0100
0010
1000
0010
0100
0001
1000
0001
0100
0010
1000
0010
0100
,
0001
1000
0001
0010
0100
1000
0001
0010
0001
0100
0010
1000
0010
0100
0001
1000
0001
0100
0010
1000
0001
0100
0001
1000
0100
0010
0001
1000
0100
1000
0001
0010
,
0001
0100
0010
1000
0001
0100
0001
1000
0100
0010
0001
1000
0010
1000
0001
0100
0010
1000
0001
0100
0010
0100
0001
1000
0100
0010
0001
1000
0100
1000
0010
0100
,
0001
1000
0001
0100
0010
1000
0010
0100
0001
1000
0001
0100
0010
1000
0010
0100
0001
1000
0001
0010
0100
1000
0001
0010
0001
0100
0010
1000
0010
0100
0001
1000
,
0001
0100
0010
1000
0001
0100
0001
1000
0100
0010
0001
1000
0100
1000
0001
0010
0001
0100
0010
1000
0001
0100
0001
1000
0100
0010
0001
1000
0010
1000
0001
0100
,
0010
1000
0001
0100
0010
0100
0001
1000
0100
0010
0001
1000
0100
1000
0010
0100
0002
0000
0000
0000
0000
0000
0000
0000
0000
0000
0000
0000
0000
0000
0000
0000
,
0000
0000
0000
1000
,
0000
4000
3000
4000
,
0000
3000
2000
0000
,
0000
0000
0000
0000
0000
0000
0000
3003
,
0000
0000
0000
0000
;

//---------------dance-single - ----------------
#NOTES:
     dance-single:
     :
     Hard:
     9:
     0.485,0.558,0.194,0.076,0.333,371.000,23.000,9.000,0.000,0.000:
0000
0000
0000
0000
,
0000
0000
0000
0000
,
0000
0000
0000
0000
,
0000
0000
0000
0000
,
0000
0000
0000
0000
,
0000
0000
0000
0000
0000
0001
0000
0001
,
0000
0001
0000
0001
1010
0000
1001
0000
,
1010
1010
0110
0011
,
0101
0000
0000
0000
0011
0000
0000
0001
0100
0000
0010
0000
1000
0000
0100
0000
,
1000
0100
0010
0001
0100
0010
1000
0010
,
0100
0001
0010
0100
0110
0010
0100
1000
,
0100
0010
0001
0100
0010
1000
0010
0100
,
0001
0010
0100
1000
1100
0000
0000
0010
,
0110
0000
0010
0000
0000
0000
0010
0000
1010
0000
0010
0000
1000
0000
0000
0010
,
0100
0001
0000
0100
0000
0000
0000
0000
,
0000
0000
0000
0000
,
0000
0000
0000
0000
1000
0100
1000
0100
,
1000
0001
0100
0010
1000
0010
0100
0001
,
0010
0100
1000
0010
0100
0010
0100
0001
,
1000
0100
0010
0100
1000
0001
0100
0010
,
1000
0010
0100
0001
0010
0100
1000
0100
,
0010
0001
0100
0010
1000
0010
0100
0001
,
0010
0000
0001
0000
1000
0100
1000
0000
0010
0000
0100
0000
0001
0000
0100
0000
,
0010
0000
1000
0000
0001
0000
0000
0001
0200
0000
0010
0000
0000
0000
0001
0000
,
0000
0010
0000
0301
0000
0000
0000
0000
,
0000
0000
0000
0000
,
0000
0000
0000
0000
0001
0010
0001
0010
,
0001
1000
0010
1000
0010
0100
0001
0100
,
0001
0100
0010
0010
0010
1000
0100
1000
,
0001
0100
0010
1000
0100
0010
0100
1000
,
0001
0000
0001
0000
0100
0010
0100
0000
0010
0000
0100
0000
1000
0000
0100
0000
,
0010
0100
1000
0001
0100
0010
1000
0100
,
0010
0100
0010
0001
0100
0010
1000
0100
,
0010
0001
0100
0010
1000
0010
0100
0001
,
1000
0010
0100
0000
0000
0000
0000
0000
,
0000
0000
0000
0000
,
0000
0000
0000
0000
0000
0000
1000
0000
1000
0010
0000
0010
,
0100
0000
0100
0000
0000
0001
0000
0000
0001
0100
0010
1000
,
0010
0000
0100
0000
0000
1000
0100
0000
0010
0001
0000
0100
,
0010
0000
1000
0100
0000
0010
0000
0000
0001
1000
0010
1000
,
0001
0000
0000
0000
0100
0000
0010
0000
0000
0000
0000
0000
1000
0000
0000
0100
0000
0000
1000
0000
0000
0001
0000
0000
,
0100
0010
1000
0100
0010
0100
1000
0001
,
0100
0000
0000
0010
0000
0000
1000
0000
0010
0000
1000
0000
0010
0000
0000
0100
0000
0000
0001
0000
0000
0100
0000
0000
,
0010
1000
0010
0100
0001
1000
0100
0010
,
0100
0000
0000
0000
,
0000
0000
0000
0000
,
0000
0000
0000
0000
0000
0000
1000
0000
1000
0100
0000
0100
,
0010
0000
0010
0001
0000
0001
0100
0000
0100
0010
0000
0010
,
1000
0010
1000
0020
0000
0130
0001
0000
0000
0101
0000
0001
,
0100
0000
0100
0010
0000
0000
0002
0000
0000
2003
0000
0000
,
3020
0000
0000
0130
0001
0100
0001
0000
0010
0100
0000
1000
,
0100
0000
0010
0001
0100
0010
1000
0000
0010
0100
0000
0100
,
0001
0000
1000
0010
0000
0010
0100
0000
0001
0100
0000
0100
,
0010
0000
0010
1000
0000
1000
0001
0100
0010
1000
0000
0000
,
0010
0100
0000
0000
,
0000
0000
0000
0000
,
0000
0000
0000
0000
,
0000
0000
0000
0000
,
0000
0000
0000
0000
0000
0000
1000
0000
0001
0000
1000
0000
0001
0000
0000
0000
0001
0100
0001
0000
0000
0000
1000
0010
,
1000
0000
0001
0100
0010
1000
0100
0000
0010
0001
0000
0001
,
0100
0000
0100
0010
0000
1000
0020
0000
0000
0230
0000
0000
,
0302
0000
0000
0013
0000
0010
0100
0000
0100
1000
0000
1000
,
0100
0000
0000
1100
0000
0000
1000
0000
1000
0001
0000
0001
,
0100
0000
0000
0101
0000
0000
0010
0000
0010
1000
0000
1000
,
0010
0110
0101
0011
,
0101
0000
0000
0110
0000
0010
0100
0000
0100
0010
0000
0010
,
1000
0000
0000
1010
0000
0000
1000
0000
1000
0001
0000
0001
,
0100
0000
0000
0101
0000
0000
0010
0000
0010
1000
0000
1000
,
0010
1010
2000
0000
,
0000
0000
0000
3000
;

//---------------dance-single - ----------------
#NOTES:
     dance-single:
     :
     Edit:
     17:
     0.840,1.000,0.303,0.042,1.000,657.000,36.000,5.000,48.000,0.000:
0000
0000
0000
0000
,
0000
0000
0000
0000
,
0000
0000
0000
0000
,
MMMM
MMMM
MMMM
MMMM
,
MMMM
MMMM
MMMM
MMMM
,
MMMM
0000
MMMM
0000
0000
0001
0000
0001
,
0000
0001
0000
0001
1010
1000
1001
0001
,
0011
0010
0110
0100
1100
1000
1001
0001
,
0101
0000
0100
0000
0110
0000
0000
0001
0100
0000
0010
0000
1100
0000
0100
0000
,
1100
0100
0110
0010
0011
0001
1001
1000
,
1010
0100
0101
0001
0110
0010
1100
1000
,
1010
0010
0101
0100
1010
0100
0101
0100
,
1010
0100
0110
0010
1100
0000
0000
0010
,
0110
0000
0010
0000
0000
0000
0010
0000
1010
0000
0010
0000
1000
0000
0000
0010
,
0100
0001
0000
0100
0000
0000
MMMM
0000
,
MMMM
0000
0000
0000
,
0000
0000
0000
0000
0000
0000
0000
0000
0000
0000
0000
0000
1000
0010
0100
0001
1000
0100
0010
0100
1000
0001
0100
0010
,
1000
0001
0010
0100
1000
0100
0010
0100
1000
0001
0100
0010
1000
0001
0010
0100
1000
0100
0010
0100
1000
0001
0100
0010
,
1000
0100
0010
0100
1000
0001
0010
0100
1000
0100
0010
0001
0100
0010
0100
0001
0010
0100
1000
0100
0010
0100
1000
0001
,
0100
0010
1000
0100
0010
0001
0010
0100
1000
0001
0100
0010
1000
0100
0010
0100
1000
0001
0010
0100
1000
0100
0010
0100
,
1000
0001
0100
0010
1000
0100
0010
0100
1000
0001
0100
0010
1000
0100
0010
0100
1000
0001
0100
0010
1000
0100
0010
0001
,
0010
0100
1000
0001
0100
0010
1000
0100
0010
0100
1000
0001
0100
0010
1000
0100
0010
0100
1000
0001
0100
0010
1000
0100
,
0010
0000
0000
0000
0001
0000
0100
0000
0010
0000
1000
0000
0010
0000
0000
0100
0000
0000
1000
0000
0100
0000
0010
0000
1000
0000
0100
0000
0010
0000
0001
0000
0010
0000
0100
0000
1000
0000
0010
0000
0100
0000
0001
0000
0100
0000
0010
0000
,
1000
0000
0100
0000
0010
0000
0001
0000
0010
0000
0100
0000
1000
0000
0000
0000
0000
0000
0000
0000
0000
0001
0000
0000
0200
0000
0000
0000
0000
0000
0010
0000
0000
0000
0000
0000
0000
0000
0000
0000
0000
0000
0001
0000
0000
0000
0000
0000
,
0000
0010
0000
0301
0000
0000
0000
0000
,
0000
0000
0000
0000
,
0000
0000
0000
0000
0000
0000
0000
0000
0000
0000
0000
0000
0001
1000
0010
1000
0100
0010
0100
1000
0001
0100
0010
1000
,
0001
0010
0100
1000
0100
0010
0100
1000
0001
0100
0001
1000
0100
0010
0100
1000
0001
0100
0010
1000
0100
0010
0100
1000
,
0001
0010
0100
1000
0100
1000
0001
0100
0010
1000
0100
0010
0100
1000
0001
0100
0010
1000
0100
0010
0100
1000
0001
0100
,
0010
1000
0100
0010
0100
1000
0001
0010
0100
1000
0100
0010
0100
1000
0001
0100
0010
1000
0100
0010
0100
1000
0100
0010
,
0001
0000
0000
0000
0000
0000
0001
0000
0000
0000
0000
0000
0100
0000
0000
0010
0000
0000
0100
0000
0000
0000
0000
0000
0010
0000
1000
0000
0001
0000
0100
0000
0010
0000
1000
0000
0100
0000
0010
0000
0001
0000
0010
0000
0100
0000
1000
0000
,
0001
0100
0010
1000
0100
0010
0100
1000
0001
0100
0010
1000
0001
0010
0100
1000
0100
0010
0100
1000
0001
0100
0010
1000
,
0100
0010
0001
0010
0100
1000
0001
0100
0010
0100
0001
0100
0010
1000
0100
0010
0100
1000
0001
0100
0010
0100
0001
0010
,
0100
1000
0100
0010
0100
1000
0001
0100
0010
1000
0100
0010
0100
1000
0001
0100
0010
1000
0001
0010
0100
1000
0100
0010
,
0001
0000
0000
0000
,
0000
0000
0000
0000
,
0000
0000
0000
0000
0000
0000
1000
0010
1000
0010
0100
0010
,
0100
0001
0100
0010
1000
0001
0100
0010
1000
0100
0010
0001
,
0010
0100
1000
0100
0010
0001
0100
0010
1000
0010
0100
0001
,
0010
0100
1000
0100
0010
0001
0100
0010
1000
0010
1000
0100
,
0010
0001
0100
0010
1000
0010
0100
0001
1000
0100
1000
0001
,
0100
0010
1000
0100
0010
0100
1000
0001
0100
0010
1000
0001
,
0100
0010
1000
0100
0010
0100
1000
0001
0010
0100
1000
0100
,
0010
0100
1000
0001
0100
0010
1000
0100
0010
0100
1000
0100
,
0001
0000
0000
0000
,
0000
0000
0000
0000
,
0000
0000
0000
0000
0000
0000
1000
0100
1000
0100
0010
0100
,
0010
0001
0010
0001
0100
0001
0100
0010
0100
0010
1000
0010
,
1000
0000
0010
0000
1000
0000
0010
0100
0010
0100
0010
0000
0100
0000
0010
0000
1000
0000
0100
0000
0010
0000
0001
0000
,
0100
0010
0100
0010
1000
0100
0010
0001
1000
0100
0010
0100
,
1000
0100
0010
0001
0010
0100
1000
0010
0100
0001
1000
0100
,
0010
0100
1000
0001
0100
0010
1000
0100
0010
0100
1000
0001
,
0100
0010
1000
0100
0010
0100
1000
0001
0100
0010
1000
0100
,
0010
0100
1000
0001
0100
0010
1000
0100
0010
0100
0000
0000
,
0010
0100
0000
0000
,
0000
0000
0000
0000
,
0000
0000
0000
0000
,
0000
0000
0000
0000
,
0000
0000
0000
0000
0000
0000
1000
0000
0001
0000
1000
0000
0001
0000
0000
0000
0001
0100
0001
0000
0000
0000
1000
0010
,
1000
0000
0001
0100
0010
1000
0100
0000
0010
0001
0000
0001
,
0100
0000
0100
0010
0000
1000
0020
0000
0000
0230
0000
0000
,
0302
0000
0000
0013
0000
0010
0100
0000
0100
1000
0000
1000
,
0100
0000
0000
1100
0000
0000
1000
0000
1000
0001
0000
0001
,
0100
0000
0000
0101
0000
0000
0010
0000
0010
1000
0000
1000
,
0010
0110
0101
0011
,
0101
0000
0000
0110
0000
0010
0100
0000
0100
0010
0000
0010
,
1000
0000
0000
1010
0000
0000
1000
0000
1000
0001
0000
0001
,
0100
0000
0000
0101
0000
0000
0010
0000
0010
1000
0000
1000
,
0010
1010
2000
0000
,
0000
0000
0000
3000
;

//---------------dance-single - ----------------
#NOTES:
     dance-single:
     :
     Medium:
     5:
     0.285,0.382,0.025,0.034,0.093,230.000,3.000,4.000,0.000,0.000:
0000
0000
0000
0000
,
0000
0000
0000
0000
,
0000
0000
0000
0000
,
0000
0000
0000
0000
,
0000
0000
0000
0000
,
0000
0000
0000
0000
0000
0001
0000
0001
,
0000
0001
0000
0001
0100
0000
0010
0000
,
1000
0001
0100
0010
,
1000
0100
0100
1000
,
0001
0100
0010
1000
,
0001
0010
0100
1000
,
0001
0100
0010
1000
,
0100
0000
0010
0001
0010
0000
0100
0000
,
0110
0000
1001
0010
,
1000
0000
0000
0100
0000
0000
0000
0000
,
0000
0000
0000
0000
,
0000
0000
0000
0000
1000
0001
1000
0000
,
0010
0100
0010
0000
0100
0000
0001
0000
,
0100
0000
0010
0000
1000
0010
1000
0000
,
0001
0100
0001
0000
0100
0000
0100
0000
,
0010
0010
1000
1000
,
0010
0100
0001
0010
,
0100
0000
1000
0000
0001
1000
0001
0000
,
0100
0010
0100
0000
0001
0010
0000
0100
,
0000
1000
0000
0001
0000
0000
0000
0000
,
0000
0000
0000
0000
,
0000
0000
0001
1000
,
0010
0100
0001
0010
,
0100
0000
1000
0001
1000
0000
0010
0000
,
0100
0001
0010
0100
,
1000
0000
0001
1000
0001
0000
0100
0000
,
0010
1000
0100
0010
,
0001
1000
0000
0010
0100
0000
0001
0000
,
0100
0010
1000
0001
,
1000
0100
0000
0000
,
0000
0000
0000
0000
,
0000
0000
1000
0010
,
0100
0000
0001
0000
0000
0001
0000
0000
0000
0001
0000
0000
,
0010
0000
0100
0000
0000
0000
0100
0000
0000
0001
0000
0000
,
0010
0000
0000
0100
0000
0010
0000
0000
0000
1000
0000
0000
,
0001
0100
0010
1000
,
0010
0100
0001
0010
,
0100
1000
0001
0100
,
0010
1000
0001
1000
,
0100
0000
0000
0000
,
0000
0000
0000
0000
,
0000
0000
1000
0100
,
0010
0001
0100
0010
,
1000
0000
0000
0020
0000
0030
0001
0000
0000
0101
0000
0000
,
0100
0010
2000
3010
,
0002
0103
0001
0100
,
0010
1000
0010
0100
,
0001
0010
0100
1000
,
0010
1000
0001
1000
,
0010
0100
0000
0000
,
0000
0000
0000
0000
,
0000
0000
0000
0000
,
0000
0000
0000
0000
,
0000
0000
0000
1000
0001
1000
0001
0000
0000
0001
0000
0000
,
1000
0000
0000
1000
0010
1000
0100
0000
0000
0001
0000
0000
,
0100
0010
1000
0100
,
0010
0000
0000
0010
0000
0010
0100
0000
0100
1000
0000
1000
,
0100
0000
0000
0000
0000
0000
1000
0000
1000
0001
0000
0001
,
0100
0000
0000
0000
0000
0000
0010
0000
0010
1000
0000
1000
,
0010
0000
1000
0001
,
0100
0000
0000
0010
0000
0010
0100
0000
0100
0010
0000
0010
,
1000
0000
0000
0010
0000
0000
1000
0000
1000
0001
0000
0001
,
0100
0000
0000
0001
0000
0000
0010
0000
0010
1000
0000
1000
,
0010
0010
2000
0000
,
0000
0000
0000
3000
;

//---------------dance-single - ----------------
#NOTES:
     dance-single:
     :
     Easy:
     3:
     0.220,0.316,0.067,0.000,0.000,175.000,8.000,0.000,0.000,0.000:
0000
0000
0000
0000
,
0000
0000
0000
0000
,
0000
0000
0000
0000
,
0000
0000
0000
0000
,
0000
0000
0000
0000
,
0000
0000
0000
0000
,
0000
0000
1000
0100
,
1000
0100
0010
0001
,
0010
0001
0100
0010
,
1000
0010
0100
0001
,
0010
0100
1000
0001
,
0100
0010
1000
0010
,
0100
0001
0010
0000
,
0010
0000
0100
1000
,
0001
0000
0000
0000
,
0000
0000
0000
0000
,
0000
0000
1000
0010
,
0100
0001
0010
0100
,
1000
0001
0100
0010
,
1000
0001
0100
0001
,
0010
0001
0100
0100
,
0010
0010
1000
0001
,
0100
0010
1000
0100
,
0010
0001
1000
0000
,
0000
0000
0000
0000
,
0000
0000
0000
0000
,
0000
0000
0001
1000
,
0001
1000
0010
0100
,
0010
0100
0001
0010
,
0001
0010
0100
1000
,
0100
1000
1001
0010
,
0010
0000
0100
0100
,
0100
0000
0001
0000
,
1000
0000
0001
1000
,
0001
0000
1001
0000
,
0000
0000
0000
0000
,
0000
0000
1000
0001
,
0100
0000
0010
1000
,
0010
0000
0100
0100
,
0100
0000
0000
0000
,
0010
0000
1000
0001
,
0100
0010
1000
0100
,
0010
0001
0001
0100
,
0010
1000
0001
0100
,
0010
0000
0000
0000
,
0000
0000
0000
0000
,
0000
0000
1000
0001
,
0100
0010
1000
0001
,
1000
0000
0010
0100
,
0010
0000
1000
0001
,
1000
0000
0010
0000
,
0010
0000
0100
0000
,
0100
0000
0001
1000
,
0001
1000
0010
0000
,
0100
0000
0000
0000
,
0000
0000
0000
0000
,
0000
0000
0000
0000
,
0000
0000
0000
0000
,
0000
1000
0001
1000
,
0001
0100
0010
1000
,
0010
0100
0001
0001
,
0100
1000
0100
0001
,
0100
0110
0010
1000
,
0010
1010
1000
0001
,
1000
1001
0010
0010
,
0100
0100
0010
0100
,
0010
0110
1000
1000
,
0100
0011
0100
1000
,
0010
0110
0000
0000
;

//---------------dance-single - ----------------
#NOTES:
     dance-single:
     :
     Beginner:
     1:
     0.061,0.113,0.025,0.000,0.000,48.000,3.000,0.000,0.000,0.000:

0000
0000
0000
0000
,
0000
0000
0000
0000
,
0000
0000
0000
0000
,
0000
0000
0000
0000
,
0000
0000
0000
0000
,
0000
0000
0000
0000
,
0000
0000
1000
0000
,
0000
0000
0010
0000
,
0000
0000
0100
0000
,
0000
0000
0001
0000
,
0000
0000
0100
0000
,
0000
0000
0010
0000
,
0000
0000
1000
0000
,
0000
0000
0010
0000
,
0000
0000
0000
0000
,
0000
0000
0000
0000
,
0000
0000
0010
0000
,
0000
0000
0100
0000
,
0000
0000
1000
0000
,
0000
0000
0001
0000
,
0000
0000
0100
0000
,
0000
0000
0010
0000
,
0000
0000
1000
0000
,
0000
0000
0010
0000
,
0000
0000
0000
0000
,
0000
0000
0000
0000
,
0000
0000
1000
0000
,
0000
0000
0010
0000
,
0000
0000
0100
0000
,
0000
0000
0001
0000
,
0000
0000
0100
0000
,
0000
0000
0010
0000
,
0000
0000
1000
0000
,
0000
0000
0010
0000
,
0000
0000
0001
0000
,
0000
0000
0000
0000
,
0000
0000
1000
0000
,
0000
0000
0010
0000
,
0000
0000
0100
0000
,
0000
0000
0001
0000
,
0000
0000
0100
0000
,
0000
0000
0100
0000
,
0000
0000
0010
0000
,
0000
0000
0001
0000
,
0000
0000
0000
0000
,
0000
0000
0000
0000
,
0000
0000
1000
0000
,
0000
0000
0001
0000
,
0000
0000
0100
0000
,
0000
0000
0010
0000
,
0000
0000
1000
0000
,
0000
0000
0001
0000
,
0000
0000
0100
0000
,
0000
0000
0010
0000
,
0000
0000
0000
0000
,
0000
0000
0000
0000
,
0000
0000
0000
0000
,
0000
0000
0000
0000
,
0000
0000
0000
1000
,
0000
0000
0000
0001
,
0000
0000
0000
0000
,
0000
0000
0000
0000
,
0000
1001
0000
0000
,
0000
1001
0000
0000
,
0000
1001
0000
0000
,
0000
0000
0000
0000
,
0000
0010
0000
0000
,
0000
1000
0000
0000
;
