#TITLE:Lawn Wake IV;
#SUBTITLE:(Black);
#ARTIST:The Flashbulb;
#TITLETRANSLIT:;
#SUBTITLETRANSLIT:;
#ARTISTTRANSLIT:;
#CREDIT:;
#BANNER:../bn.png;
#BACKGROUND:../veyron.png;
#LYRICSPATH:;
#CDTITLE:;
#MUSIC:02 - The Flashbulb - Lawn Wake IV (Black).ogg;
#OFFSET:-0.060;
#SAMPLESTART:65.990;
#SAMPLELENGTH:17.900;
#SELECTABLE:YES;
#DISPLAYBPM:217.000;
#BPMS:0.000=217.000,156.500=4000000.000,156.750=217.000;
#STOPS:;
#BGCHANGES:;
// cache tags:
#FIRSTBEAT:4.000;
#LASTBEAT:472.000;
#SONGFILENAME:Songs/Cirque du Veyron/Zaia - Lawn Wake IV (Black)/Lawn Wake IV (Black).sm;
#HASMUSIC:1;
#HASBANNER:1;
#MUSICLENGTH:148.584;
// end cache tags

//---------------dance-single - Zaia----------------
#NOTES:
     dance-single:
     Zaia:
     Challenge:
     15:
     1.000,1.000,0.081,0.626,1.000,986.000,12.000,93.000,0.000,2.000:
0000
0000
0000
0000
,
1000
0000
0000
0000
1000
0000
0000
0000
1000
0000
0000
0000
1000
0000
0001
0100
,
0001
0000
0000
0000
1000
0000
0000
0000
1000
0000
0001
0000
1000
0000
0000
0001
,
1000
0001
0001
0001
,
1010
0000
0000
0000
,
0010
0000
0000
0000
0010
0000
0000
0000
0010
0000
0000
0000
0010
0000
1000
0001
,
1000
0000
0000
0000
0010
0000
0000
0000
0010
0000
0100
0000
0010
0000
0000
0100
,
0010
0010
0010
0010
,
0110
0000
0000
0000
,
0100
0000
0000
0000
0100
0000
0000
0000
0100
0000
0000
0000
0100
0000
0010
1000
,
0010
0000
0000
0000
0100
0000
0000
0000
0100
0000
0001
0000
0100
0000
0000
0010
,
0100
0100
0100
0100
,
0101
0000
0000
0000
,
0001
0000
0000
0000
0001
0000
0000
0000
0001
0000
0000
0000
0001
0000
1000
0100
,
1000
0000
0000
0000
0001
0000
0000
0000
0001
0000
0010
0000
0001
0000
0000
1000
,
0001
0001
0001
0001
,
2002
0000
0003
0000
3001
0001
0000
0000
,
0100
0010
1000
0010
0100
0000
0001
1000
0001
0100
0001
1000
0100
0000
0010
0000
,
0100
0000
0000
0000
0010
0001
1000
0001
0100
0000
0010
0000
1000
0010
1000
0010
,
0100
0000
0000
0001
0000
0000
1000
0000
0200
0000
0000
0000
0310
0001
1000
0000
,
0001
0000
0000
0000
1000
0001
1000
0010
0100
0000
0000
0000
0002
0000
0000
0000
,
2003
0000
3000
0100
0010
0100
2000
0000
0000
3002
0000
0000
0023
0000
0000
0000
,
0031
0100
0001
1000
0000
0010
0100
0010
1000
0000
1001
0000
0000
0000
0000
0000
,
0001
0000
0010
0000
0100
0000
0010
0000
0001
0000
1000
0001
0010
0000
0100
0000
,
2000
0000
0000
0000
3001
0100
0010
0100
0001
0000
1000
0100
1000
0000
0001
0000
,
0100
0000
0100
0000
0010
0000
0000
1000
0001
1000
0010
0000
0000
0100
0000
0000
,
0002
0203
0302
2003
3200
2300
3002
0203
,
0310
0000
1000
0010
0100
0000
0001
0000
1000
0000
0001
0010
0001
0000
0000
0000
,
1000
0000
0001
0000
1000
0000
0001
0100
0010
0100
0001
0010
0100
0000
0000
0000
,
2000
0000
3001
0000
,
1000
0000
0001
0010
0001
0000
1000
0010
1000
0000
0001
0010
0002
0000
1003
0010
,
1000
0000
0000
0001
0010
0000
0000
0000
0110
0000
0000
0000
0000
0000
0000
0000
,
1000
0000
0100
0010
0100
0000
1000
0001
1000
0000
0010
0100
0010
0100
0001
0000
,
2000
0000
3100
0000
2000
0000
3001
0000
2000
0000
3010
0100
0001
0100
0010
0000
,
2000
0000
0000
0000
0000
0000
0000
0000
0000
0000
3001
0010
0001
1000
0001
0010
,
0200
0000
0320
0000
,
1032
0000
2000
0003
,
3001
0000
0000
1000
0000
0000
0001
0000
0000
1000
0000
0000
0002
0000
0000
0000
,
0000
0000
0000
0000
,
0000
0003
0000
0000
0000
0000
0000
0000
,
1000
0000
0001
0100
0010
0100
0001
0000
0000
0000
1000
0000
0100
0000
0000
0000
,
0010
0000
0100
0000
1000
0000
0010
0100
0001
0100
0010
1000
0001
0000
0000
0000
,
1000
0000
0100
0010
0001
0010
0100
0000
0000
0000
1000
0000
1000
0000
0000
0000
,
0001
0000
1000
0000
0010
0000
0100
0001
1000
0000
0100
0000
0020
0000
0000
0000
,
0130
0000
1000
0100
1000
0001
1000
0001
0100
0000
0010
0000
0100
0001
0100
0000
,
0010
0010
1000
0001
0001
0010
0210
0000
,
1300
0000
0100
1000
0001
0100
0001
0000
0000
0000
0100
0000
0010
0100
0010
0100
,
0001
1000
0001
0010
0100
1000
0001
1000
0010
0100
0001
1000
0001
0010
0001
1000
,
0020
0000
0000
0000
,
0130
0001
1000
0010
0100
0010
1000
0100
1000
0001
0100
0010
0100
0001
0010
0100
,
1000
0000
0000
0000
0000
0000
0000
0000
0001
0010
0100
0010
0001
0100
0010
1000
,
0001
1000
0010
0100
0001
0010
0100
1000
0010
1000
0001
0010
0100
1000
0001
1000
,
0200
0000
0320
0000
,
0032
0000
0203
0000
,
0310
0000
1000
0010
0100
0001
0010
0100
0010
0100
1000
0010
0100
0001
0100
0010
,
1000
0001
0010
0100
1000
0001
1000
0010
0100
0001
1000
0010
1000
0001
0010
0100
,
2000
0000
0000
0000
,
0000
0000
3002
0000
,
2003
0000
0000
0000
,
0000
0000
0000
3000
,
0001
0000
0100
0000
0010
0000
0100
0001
0100
0010
0100
0001
1000
0000
1000
0000
,
0100
0000
0010
0000
0100
0000
1000
0010
0100
0000
0001
0100
0001
0000
1000
0000
,
0010
0000
0100
0000
0001
0000
0010
0001
0100
0000
0010
0100
0001
0000
0010
0000
,
0001
0000
0100
0000
0010
0000
1000
0000
0100
0010
0001
1000
0100
0000
0010
0000
,
0100
0000
1000
0000
0001
0000
1000
0010
1000
0001
1000
0001
0100
0000
0100
0000
,
0001
0000
1000
0000
0100
0000
0010
0100
1000
0000
0001
1000
0001
0000
0100
0000
,
0010
0000
1000
0000
0100
0000
0010
0000
0100
0000
1000
0010
0100
0000
0010
0000
,
1000
0000
0100
0000
0010
0000
0001
0000
0100
0010
1000
0100
0010
0000
0001
0000
,
1001
1000
0100
0010
0100
1000
0001
0010
,
0001
1000
0010
0100
0001
0100
0010
1000
,
0001
1000
0010
0100
0010
0100
0001
1000
0100
1000
0010
0100
0001
1000
0100
0010
,
0100
0000
1000
0100
1000
0000
0001
1000
0001
0100
0010
0100
0002
0000
2003
0000
,
3101
0001
1000
0100
0010
0100
1000
0001
,
1000
0010
0100
0001
1000
0100
1000
0001
,
0010
0100
1000
0001
0100
0010
1000
0001
1000
0001
0010
0100
1000
0010
0100
0001
,
1000
0000
0010
0100
0010
0000
0100
0000
0001
0000
1000
0100
1000
0000
0001
0000
,
0020
0000
0000
0000
,
0230
0000
0000
0000
,
1300
0000
0001
0100
0010
1000
0100
0010
0100
1000
0001
0100
0001
0100
0010
1000
,
0100
0010
0001
1000
0010
0100
0010
1000
0002
0000
0000
0000
2003
0000
0000
0000
,
3200
0000
0000
0000
0320
0000
0000
0000
0130
1000
0001
0100
0001
1000
0100
0010
,
0002
0000
0000
0000
2003
0000
0000
0000
3010
0100
0001
0100
0010
1000
0100
0010
,
0002
0000
2003
0000
3020
0000
0130
0001
1000
0001
0100
0010
0100
0001
0010
0100
,
1000
0001
1000
0010
0100
0010
1000
0001
0010
0001
1000
0100
1000
0001
0100
0010
,
2000
0000
0000
0000
3001
0010
0100
1000
0001
0010
0001
1000
0010
0100
0001
1000
,
0002
0000
0000
0000
0103
0010
1000
0010
0100
0001
1000
0100
0010
0001
1000
0010
,
0100
0001
0010
0100
1000
0010
0100
0001
0010
0100
1000
0001
0100
0001
1000
0010
,
1000
0100
0010
0100
1000
0010
0100
0010
1000
0100
0010
0001
0100
0010
0100
0001
,
2000
0000
3200
0000
0320
0032
2003
0000
,
3010
0100
0001
0010
0100
0010
0001
0100
0010
1000
0010
0100
0002
0000
0203
0000
,
0320
0000
0000
0000
2030
0000
0000
0000
3100
0010
0100
1000
0010
0100
0001
0100
,
0020
0000
0230
0000
0302
0023
0230
2300
,
3020
0230
0302
0023
,
0230
0000
0000
0000
1300
0001
0010
0001
,
1000
0100
1000
0001
0010
0001
0100
0010
1000
0100
1000
0001
1000
0001
0100
0010
,
1000
0001
0010
0100
1000
0001
1000
0100
0010
0001
0100
0010
1000
0100
1000
0001
,
0010
0001
0100
0001
0010
0100
1000
0010
,
0100
0000
0001
0000
0100
0000
0010
0000
1000
0100
0010
0001
0100
0010
1000
0001
,
1000
0010
0100
0001
1000
0100
0010
0100
1000
0001
0010
0001
0100
0010
1000
0100
,
1000
0001
1000
0010
0100
0001
1000
0100
1000
0001
0010
0100
1000
0001
1000
0001
,
0020
0000
0000
0000
0130
1000
0001
0100
0001
1000
0100
0010
0001
0100
0010
1000
,
0002
0000
0000
0000
0103
0010
1000
0010
0100
0001
0010
0100
1000
0001
1000
0010
,
0100
0001
0010
0100
1000
0001
1000
0100
0010
0100
1000
0001
1000
0001
1000
0100
,
0020
0230
2300
3020
,
0230
0000
0302
0000
0203
0302
0023
0032
,
0103
0010
0100
0010
1000
0001
0100
0010
1000
0001
1000
0001
0020
0000
0032
0000
,
2003
0000
3200
0000
1300
0001
1000
0001
0010
0100
0010
0001
1000
0010
0100
0010
,
0100
0001
1000
0100
1000
0001
0010
0001
1000
0010
0100
0001
1000
0100
0010
0001
,
1000
0010
0100
0001
0010
0001
1000
0100
0010
0001
0100
0001
1000
0100
0010
0001
,
1000
0010
0100
0001
0010
0001
1000
0010
0100
0001
0010
0001
1000
0100
0010
0002
,
0000
0000
0000
0000
0000
0000
1003
0010
0100
0001
1000
0001
0010
0100
1000
0001
,
0100
0010
1000
0001
1000
0100
1000
0001
0100
0010
1000
0010
0100
0001
1000
0001
,
0020
0000
0000
0000
0130
1000
0000
0100
,
1000
0010
0100
0000
,
0101
0000
0000
0000
,
2002
0000
0000
0000
,
0000
0000
0000
0000
,
0000
0000
0000
0000
,
3003
0000
0000
0000
;
