#TITLE:KI-SE-KI;
#SUBTITLE:(IIDX Red Edit);
#ARTIST:BeForU;
#TITLETRANSLIT:;
#SUBTITLETRANSLIT:;
#ARTISTTRANSLIT:;
#CREDIT:Otakxel (^^)V;
#BANNER:kiseki.png;
#BACKGROUND:KISEKI BEFORU-BN.png;
#LYRICSPATH:;
#CDTITLE:;
#MUSIC:BeForU - KI-SE-KI (IIDX Red Edit).mp3;
#OFFSET:-0.380;
#SAMPLESTART:50.490;
#SAMPLELENGTH:12.000;
#SELECTABLE:YES;
#BPMS:0.000=155.000;
#STOPS:;
#BGCHANGES:;
// cache tags:
#FIRSTBEAT:16.000;
#LASTBEAT:260.000;
#SONGFILENAME:Songs/toune 5/KISEKI (IIDX Red Edit)/BeForU - KI-SE-KI (IIDX Red Edit).sm;
#HASMUSIC:1;
#HASBANNER:1;
#MUSICLENGTH:106.248;
// end cache tags

//---------------dance-single - ----------------
#NOTES:
     dance-single:
     :
     Hard:
     8:
     0.597,0.581,0.273,0.207,0.089,393.000,29.000,22.000,0.000,0.000:
0000
0000
0000
0000
,
0000
0000
0000
0000
,
0000
0000
0000
0000
,
0000
0000
0000
0000
,
0001
0020
0100
0000
0000
0001
0031
0000
,
0010
2000
0100
0000
0000
0001
3001
0000
,
1000
0200
0010
0000
0000
0010
0310
0000
,
0001
0100
0010
0100
1000
0100
0001
0000
,
1000
0000
0000
0100
0000
0000
0010
0000
0001
0000
0000
0100
0000
0000
0010
0000
,
1000
0000
0000
0100
0000
0000
1000
0000
0001
0000
0000
0010
0000
0000
0001
0000
,
2000
0010
0100
3001
,
1000
0100
0010
0002
0100
0100
0103
0000
,
0001
0000
0000
0010
0000
0000
0100
0000
1000
0000
0000
0010
0000
0000
0100
0000
,
0001
0000
0000
1000
0000
0000
0100
0000
0010
0000
0000
0001
0000
0000
1000
0000
,
0020
0100
0001
1030
,
0100
1000
0001
0020
0100
0100
0130
0000
,
0010
0001
1000
0000
1100
0000
1100
0000
,
0010
1000
0100
0010
0001
0000
1001
0000
,
0010
1000
0001
0000
0101
0000
0101
0000
,
1000
0010
0100
0001
1000
0000
1001
0000
,
0010
0001
1000
0100
0010
0001
2000
0000
,
3010
1000
0100
0010
0100
1000
0002
0000
,
0013
0001
0100
1000
0100
0001
0020
0000
,
0031
1000
0001
1000
0100
0010
0001
1000
,
0200
0000
1300
0000
0010
0100
1000
0000
,
0010
0100
0001
0000
0010
0100
1000
0000
,
0010
0001
0100
0001
0010
0100
1000
0000
,
0010
1000
0010
0100
0001
1000
0001
0000
,
0100
0010
1000
0100
0001
0000
1001
0000
,
0010
0100
0001
0100
1000
0000
1001
0000
,
0010
0001
0010
0001
0100
0001
0100
0001
,
1000
0000
0001
0000
1000
0000
0100
0000
1000
0000
0100
0000
0010
0100
0010
0000
,
2002
0003
3002
1003
,
0010
1000
0100
0010
0001
1000
0010
0100
,
0002
0000
0000
0000
0003
0000
1000
0001
1000
0000
0000
0000
1001
0000
0000
0000
,
0010
1000
0010
0100
0001
0010
0001
1000
,
0100
0000
0000
0010
0000
0000
0200
0000
0000
0000
0000
0000
0310
0000
0000
0000
,
0001
0010
0011
0000
1000
0100
1100
0000
,
0010
1000
0001
0010
0100
1000
1001
0000
,
2010
3100
0012
0103
,
0001
0000
0000
1000
0000
0000
0010
0000
0100
0000
0000
0000
1001
0000
0000
0000
,
0010
0001
0100
0010
1000
0001
0010
0100
,
2000
0000
0000
0000
3000
0000
0001
1000
0001
0000
0000
0000
1001
0000
0000
0000
,
0010
0001
0010
0100
1000
0010
1000
0001
,
0100
0000
0000
0010
0000
0000
0200
0000
0000
0000
0000
0000
0310
0000
0000
0000
,
1000
0010
1010
0000
0001
0100
0101
0000
,
0010
0001
1000
0010
0100
0001
1001
0000
,
0012
0103
2010
3100
,
1000
0000
0000
0001
0000
0000
0010
0000
0100
0000
0000
0000
1001
0000
0000
0000
,
0001
0100
1000
0100
0001
0010
0001
1000
,
0100
0001
1000
0010
0001
1000
0001
1000
,
0010
0000
0000
0101
0000
0000
0010
0000
0010
0000
0000
1100
0000
0000
0010
0000
,
0010
0001
1000
0100
0010
0001
1001
0000
,
0010
0001
0100
0010
1000
0100
0010
0001
,
1000
0010
0100
0001
0010
0001
1000
0100
,
0010
0100
1000
0001
0010
0001
0100
0010
,
1000
0000
0000
0001
0000
0000
1000
0000
0000
0000
0010
0000
0110
0000
0000
0000
,
0001
0100
0010
1000
0100
0010
0001
0100
,
0010
1000
0100
0010
0001
0100
0010
1000
,
0001
0010
1000
0001
0100
1000
0010
0001
,
0100
0001
0010
0001
1000
0001
1001
0000
,
1000
0100
0010
0001
0100
0010
1000
0100
,
0010
0001
0100
0010
1000
0100
0010
0001
,
1000
0100
0001
1000
0010
0001
0100
0001
,
0010
0000
0001
0000
0100
0000
1000
0000
0100
0000
0001
0000
1000
0001
1000
0000
,
1001
0000
0000
0000
;

//---------------dance-single - ----------------
#NOTES:
     dance-single:
     :
     Easy:
     4:
     0.321,0.336,0.075,0.207,0.000,209.000,8.000,22.000,0.000,0.000:
0000
0000
0000
0000
,
0000
0000
0000
0000
,
0000
0000
0000
0000
,
0000
0000
0000
0000
,
1000
0000
0100
0000
,
0001
0000
0100
0000
,
1000
0000
0001
0000
,
0200
0000
0020
0330
,
0001
0000
1000
0000
,
0100
0000
0010
0000
,
0002
1000
1000
1003
,
0200
0010
0010
0310
,
1000
0000
0001
0000
,
0010
0000
0100
0000
,
2000
0001
0001
3001
,
0200
0010
0010
0310
,
1000
0100
0001
0100
,
1000
0001
1001
0000
,
0001
0100
1000
0100
,
0001
1000
1001
0000
,
0010
0001
1000
0100
,
0010
0100
1001
0000
,
0010
1000
0001
0100
,
0010
2000
0000
0000
,
3001
0000
0100
0000
,
0010
0000
1000
0000
,
0001
0100
0010
1000
,
0100
0010
0001
1001
,
0010
0010
0200
0300
,
0100
0100
0020
0030
,
1000
0001
0100
0010
,
1000
0001
0010
0100
,
2002
0000
0000
3003
,
0001
0100
0001
0100
,
0020
0000
1000
0130
,
1000
0100
1000
0100
,
0001
0100
0001
0100
,
2000
0000
0100
3100
,
0020
0000
0001
0031
,
1000
0100
0001
0100
,
1000
0001
0010
1001
,
1000
0100
1000
0100
,
0020
0000
0001
0130
,
0001
0100
0001
0100
,
1000
0100
1000
0100
,
0002
0000
0100
0103
,
0020
0000
1000
1030
,
0001
0100
1000
0100
,
0001
1000
0010
1001
,
0010
0001
1000
0100
,
0010
0001
1000
0001
,
0100
0010
1000
0001
,
0010
0100
1000
0001
,
1000
0100
0010
0001
,
1000
0010
0100
0001
,
0100
1000
0001
0010
,
1000
0001
2000
3001
,
0001
0100
0010
1000
,
0100
0010
0001
1000
,
0002
1000
1000
1003
,
0200
0010
0010
0310
,
1000
0100
0010
0001
,
0100
0010
1000
0001
,
2000
0001
0001
3001
,
0200
0010
0010
0310
,
1001
0000
0000
0000
;

//---------------dance-single - Copied from----------------
#NOTES:
     dance-single:
     Copied from:
     Medium:
     6:
     0.468,0.428,0.433,0.226,0.000,278.000,46.000,24.000,0.000,0.000:
0000
0000
0000
0000
,
0000
0000
0000
0000
,
0000
0000
0000
0000
,
0000
0000
0000
0000
,
1000
0100
0020
0031
,
0001
0100
0020
1030
,
1000
1100
0001
0011
,
1000
0100
0010
1001
,
0002
0100
0010
1003
,
2000
0100
0010
3001
,
0100
0101
0010
1010
,
0001
0000
1000
0000
0001
1000
0100
0000
,
2000
0100
0010
3001
,
0002
0100
0010
1003
,
0100
1100
0010
0011
,
1000
0000
0001
0000
1000
0001
0100
0000
,
0010
0001
0100
0000
0010
0000
0010
0000
,
0010
1000
0100
0000
0010
0000
0010
0000
,
0001
1000
0100
0000
0100
1000
0001
0000
,
0010
0010
0011
1100
,
0010
1000
0100
0000
0010
0000
0010
0000
,
0010
0001
0100
0000
0010
0000
0010
0000
,
1000
0001
0100
0000
0100
0001
1000
0000
,
0010
0010
1010
0101
,
2000
0000
0100
0000
3100
0010
0001
0000
,
0002
0000
0100
0000
0103
0010
1000
0000
,
0010
0001
1000
0000
0010
1000
0100
0000
,
0010
0000
1001
0000
0100
0010
0001
0000
,
0010
1000
0200
0000
0010
0000
0310
0000
,
0010
0001
0200
0000
0010
0000
0310
0000
,
0001
0010
0100
0000
1000
0010
0100
0000
,
0001
1000
0100
0010
0002
0000
0000
0000
,
1003
0000
0020
0130
,
0001
0000
0101
0000
0010
1000
0001
0000
,
0100
0000
1000
0000
0010
1000
0001
0000
,
0100
0001
1000
0000
0010
0100
1000
0000
,
0100
1100
0010
0011
,
2002
3000
0010
0103
,
2002
0003
0010
3100
,
0002
0000
1003
0000
0100
0010
0001
0000
,
0100
0010
1000
0001
0100
0000
1001
0000
,
1000
0000
1100
0000
0010
0001
1000
0000
,
0100
0000
0001
0000
0010
0001
1000
0000
,
0100
1000
0001
0000
0010
0100
0001
0000
,
0100
0101
0010
1010
,
2002
3000
0010
0103
,
2002
0003
0010
3100
,
2000
0000
3001
0000
0100
0010
1000
0000
,
0100
0010
0001
1000
0100
0000
1001
0000
,
0100
0101
0010
1010
,
1000
1100
0001
0011
,
1000
1001
0001
1001
,
0100
0110
0010
0110
,
0001
0011
0100
1100
,
1000
1010
0100
0101
,
0100
0110
0010
0110
,
0001
1001
1000
1001
,
0020
0100
1000
0031
,
0200
0010
0001
1300
,
0101
0000
1000
0100
,
0011
1100
1001
1001
,
0100
1000
0100
0010
,
0001
0010
0100
1000
,
0001
0100
1000
0000
1000
0100
0001
0000
,
0001
0100
1000
0100
0001
1000
0100
0000
,
1001
0000
0000
0000
;
