#TITLE:V;
#SUBTITLE:EXoduz Violation;
#ARTIST:GITAROO MAN VS. WICK;
#TITLETRANSLIT:;
#SUBTITLETRANSLIT:;
#ARTISTTRANSLIT:;
#CREDIT:;
#BANNER:../Banner.png;
#BACKGROUND:../Background.png;
#LYRICSPATH:;
#CDTITLE:;
#MUSIC:V.ogg;
#OFFSET:1.910;
#SAMPLESTART:60.940;
#SAMPLELENGTH:12.000;
#SELECTABLE:YES;
#DISPLAYBPM:151.000;
#BPMS:0.000=150.500;
#STOPS:;
#BGCHANGES:;
// cache tags:
#FIRSTBEAT:5.000;
#LASTBEAT:372.250;
#SONGFILENAME:Songs/EXoduz Violation/V/V.sm;
#HASMUSIC:1;
#HASBANNER:1;
#MUSICLENGTH:146.688;
// end cache tags

//---------------dance-single - Blank----------------
#NOTES:
     dance-single:
     Blank:
     Challenge:
     14:
     1.000,1.000,0.729,1.000,1.000,1197.000,107.000,199.000,0.000,20.000:

0000
0000
0000
0000
,
0000
2000
3002
0203
,
0320
2030
3200
0320
,
0032
2003
3020
0230
,
0302
0023
0230
2300
,
3020
0000
0000
0030
0022
0000
0000
0033
2020
0000
0000
3030
0202
0000
0000
0303
,
0022
0000
0000
0033
0220
0000
0000
0330
2002
0000
0000
3003
2200
0000
0000
3300
,
0022
0000
0030
2003
0002
0000
0000
3003
0022
0000
0000
0033
2200
0000
0000
3300
,
2002
0000
0000
3003
2002
0000
0000
3003
0220
0000
0000
0330
0022
0000
0000
0033
,
0202
0000
0300
2003
0002
0000
0000
3003
2200
0000
0000
3300
2020
0000
0000
3030
,
0202
0000
0000
0303
0022
0000
0000
0033
0220
0000
0000
0330
2020
0000
0000
3030
,
0202
0000
0300
0023
0200
0000
0000
0330
2020
0000
0000
3030
0220
0000
0000
0330
,
2020
0000
0000
3030
0202
0000
0000
0303
0202
0000
0000
0303
0220
0000
0000
0330
,
1001
0000
0000
0002
2003
3001
1000
0010
0100
0001
0010
0100
1000
0001
0010
0001
,
0010
0100
1000
0010
0100
0010
0100
0010
1000
0100
0010
0100
1000
0001
1000
0001
,
1000
0010
0100
0002
0023
0130
0010
0001
0100
0010
1000
0100
0010
0001
1000
0100
,
0010
0100
1000
0010
0100
0001
0010
0100
0010
0001
0100
0001
0100
0001
0010
0100
,
1000
0001
0010
0200
2300
3001
1000
0010
0100
0001
0010
0001
0010
0100
1000
0010
,
0100
0001
0100
0010
1000
0100
0010
0001
1000
0100
0010
0001
0010
0001
0010
0100
,
1000
0000
0000
0010
0000
0000
0100
0000
0000
0002
0000
0000
0023
0000
0100
0030
1000
0000
0001
0000
0010
0000
0100
0000
1000
0000
0010
0000
0100
0000
0010
0000
0100
0000
0010
0000
1000
0000
0100
0000
0010
0000
0001
0000
0010
0000
0100
0000
,
0010
0001
1000
0001
1000
0010
0100
0001
0010
0100
0010
0001
0100
0010
0100
0010
1000
0100
0010
0001
1000
0001
1000
0001
,
0100
0010
1000
0100
0010
0001
1000
0001
2000
3020
0130
0001
0010
0100
1000
0001
0010
0100
1000
0010
0100
0010
0100
0010
,
1000
0100
0010
0001
1000
0100
0010
0001
0010
0001
0100
0001
0100
0001
0010
0100
1000
0100
1000
0010
0100
0010
0100
0010
,
1000
0000
0100
0000
0010
0000
0001
0000
1000
0000
0100
0000
0010
0000
0000
0001
0000
0000
1000
0000
0000
0010
0000
0000
0100
0000
0000
0001
0000
0000
0010
0000
0000
0100
0000
0000
1000
0000
0000
0100
0000
0000
1000
0000
0000
0010
0000
0000
,
1000
0100
0010
0001
1000
0100
0010
0001
0100
0001
0010
0100
1000
0010
0100
0001
,
1000
0010
1000
0010
1000
0010
0100
0001
0100
0001
0010
0100
1000
0010
1000
0100
,
0010
0000
0000
0001
0000
0000
1000
0000
0000
0100
0000
0000
0010
0000
0001
0000
0010
0000
0100
0000
1000
0000
0100
0000
0010
0000
0001
0000
0010
0000
0100
0000
1000
0000
0010
0000
0100
0000
0001
0000
0010
0000
0001
0000
0010
0000
0100
0000
,
1000
0000
0010
0000
0100
0000
0010
0000
0100
0000
0010
0000
0100
0000
0000
0010
0000
0000
0000
0000
0000
0000
0000
0000
0000
0000
0000
1001
0000
0000
0000
0000
0000
0000
0000
0000
0000
0000
0000
0110
0000
0000
0000
0000
0000
0000
0000
0000
,
0000
0011
0000
0000
0000
0100
0010
0001
1000
0001
1000
0010
0100
0001
0010
0100
,
1000
0001
0010
0100
1000
0010
1000
0100
0010
0001
1000
0010
1000
0010
0100
0001
,
0100
0001
0010
0100
1000
1001
0000
1010
0000
0110
0000
0011
0000
0011
0011
0110
,
1100
0000
0000
1100
0000
0000
1001
0000
0000
1001
0000
0000
1000
0000
0001
0000
0100
0000
0010
0000
0000
0000
0000
0000
0000
0000
0000
1100
0000
0000
0000
0000
0000
0000
0000
0000
0000
0000
0000
0011
0000
0000
0000
0000
0000
0000
0000
0000
,
0000
0101
0000
0000
0000
1010
0000
0000
0000
0110
0000
0000
0000
0011
0000
0000
,
0000
0110
0000
0000
0000
1000
0010
1000
0001
1000
0100
0010
0100
1000
0010
0100
,
0001
0010
0100
1000
0001
0010
0100
1000
0010
0100
0010
1000
0001
1000
0100
1000
,
0010
0100
0001
0010
0100
2000
3200
2300
3200
2300
3200
2300
3200
2300
3200
2300
,
3200
0000
2300
0000
3200
0000
2300
0000
3200
0000
1300
0001
1000
0001
1000
0001
1000
0001
1000
0001
1000
0001
1000
0001
1000
0001
1000
0001
1000
0001
1000
0001
,
1000
0001
1000
0001
0000
0000
0000
0000
0000
0000
0000
1010
0000
0000
0000
0000
0000
0000
0000
0101
0000
0000
0000
0000
0000
0000
0000
0011
0000
0000
0000
0000
,
0000
0000
0000
1100
0000
0000
0000
0000
0000
0000
0000
0110
0000
0000
0000
0000
0000
0000
0000
1010
0000
0000
0000
0000
0000
0000
0000
0101
0000
0000
0000
0000
,
0000
0000
0000
0011
0000
0000
0000
0000
0000
0000
0000
2202
0000
0000
0000
3303
0000
0000
0000
2022
0000
0000
0000
3033
0000
0000
0000
2220
0000
0000
0000
3330
,
0000
0000
0000
0222
0000
0000
0000
0333
0000
0000
0000
2022
0000
0000
0000
3033
0000
0000
0000
2202
0000
0000
0000
3303
0000
0000
0000
0222
0000
0000
0000
0333
,
0000
0000
0000
2202
0000
0000
0000
3303
0000
0000
0000
2022
0000
0000
0000
3033
0000
0000
0000
2202
0000
0000
0000
3303
0000
0000
0000
2220
0000
0000
0000
3330
,
0000
0000
0000
0222
0000
0000
0000
0333
0000
0000
0000
2022
0000
0000
0000
3033
0000
0000
0000
0222
0000
0000
0000
0333
0000
0000
0000
2202
0000
0000
0000
3303
,
0000
0000
0000
2022
0000
0000
0000
3033
0000
0000
0000
2022
0000
0000
0000
3033
0000
0000
0000
2022
0000
0000
0000
3033
0000
0000
0000
0222
0000
0000
0000
0333
,
0000
0000
0000
2222
0000
0000
0000
3333
0000
0000
0000
0000
1000
0000
0001
0000
0100
0000
0010
0000
0100
0000
0010
0000
1000
0000
0100
0000
0010
0000
0001
0000
,
1000
0100
0010
0001
0100
0010
0100
0000
1100
0000
1100
0000
0110
0000
0110
0000
,
0011
0000
0011
0000
0110
0000
0100
0001
1000
0010
0100
0010
0100
0001
0010
0100
,
1000
0100
0010
0001
1000
0010
1000
0000
1010
0000
1010
0000
0110
0000
0110
0000
,
1010
0000
1010
0000
1100
0000
0100
0010
0001
1000
0010
1000
0001
0100
0001
0010
,
0100
1000
0001
0010
0100
1000
0010
0000
0110
0000
0110
0000
1001
0000
1001
0000
,
1010
0000
1010
0000
0101
0000
0001
0010
0100
1000
0001
0010
0100
1000
0010
0100
,
0001
1000
0010
0100
0001
1000
0010
0000
0110
0000
0110
0000
1010
0000
1010
0000
,
0101
0000
0101
0000
0011
0000
0010
0100
1000
0001
0010
0100
1000
0010
0100
0001
,
0010
0000
0000
0100
0000
0000
1000
0000
0000
0001
0000
0000
0010
0000
0000
0100
0000
0000
1000
0000
0001
0000
1000
0000
0001
0000
1000
0000
0010
0000
0100
0000
0010
0000
0100
0000
0001
0000
0010
0000
0100
0000
1000
0000
0001
0000
0010
0000
,
0100
1000
0010
1000
0010
0100
0010
0100
0001
0010
0100
1000
0001
0010
0001
0010
0100
1000
0010
0100
0010
0100
0001
0010
,
0100
0000
0010
0000
0001
0000
0100
0000
0010
0000
0100
0000
0010
0000
0100
0000
0001
0000
0010
0000
0000
0100
0000
0000
1000
0000
0000
0000
0000
0000
0010
0000
0000
0100
0000
0000
0010
0000
0000
0000
0000
0000
0100
0000
0000
0010
0000
0000
,
0100
0000
0010
1000
0010
0000
1000
0100
0010
0001
1000
0010
1000
0001
0100
0001
,
0010
0100
1000
0001
1000
0001
2000
0000
0000
0000
0000
0000
0000
3000
0000
1000
,
0001
1000
0010
0100
0010
0100
0001
0010
0100
1000
0001
0010
0001
1000
0010
0100
,
0001
0100
0001
0010
0100
1000
0001
0010
0100
1000
0001
0010
0100
1000
0001
0010
,
0100
1000
0001
0010
0100
1000
0001
0020
0000
0000
0000
0000
0000
0000
0000
0130
,
1000
0001
1000
0001
1000
0010
0100
0001
0010
0100
1000
0001
0010
0100
1000
0010
,
0100
0000
0000
0010
0000
0000
0100
0000
0000
0001
0000
0000
0100
0000
0000
0010
0000
0000
1000
0000
0000
0010
0000
0000
1000
0000
0001
0000
1000
0000
0010
0000
0100
0000
0010
0000
0100
0000
0001
0000
0010
0000
0100
0000
1000
0000
0001
0000
,
0010
0000
0100
0000
1000
0000
0010
0000
0100
0000
0010
0000
0100
0000
0001
0000
0100
0000
0010
0000
1000
0000
0001
0000
0010
0000
0000
0100
0000
0000
1000
0000
0000
0010
0000
0000
1000
0000
0000
0001
0000
0000
0100
0000
0000
0001
0000
0000
,
1000
0100
1000
0100
1000
0100
1000
0001
0010
0001
0010
0001
1000
0010
1000
0001
,
0100
0001
0010
0100
1000
0010
0100
0010
1000
0100
0010
0001
0010
0100
0010
0001
,
0100
0000
0000
0001
0000
0000
0010
0000
0000
0100
0000
0000
1000
0000
0000
0001
0000
0000
1000
0000
0000
0010
0000
0000
0100
0000
0001
0000
0100
0000
0001
0000
0100
0000
0010
0000
0100
0000
0010
0000
0100
0000
0001
0000
0100
0000
0001
0000
,
0100
0000
0001
0000
0100
0000
0010
0000
0100
0000
0010
0000
0100
0000
0001
0000
0100
0000
0001
0000
0100
0000
0001
0000
0100
0000
0000
0010
0000
0000
0100
0000
0000
0010
0000
0000
0100
0000
0000
0010
0000
0000
0100
0000
0000
0010
0000
0000
,
0100
0010
0100
0010
0100
0000
0020
0000
0230
0000
2300
0000
3002
0000
0203
0000
,
0320
0000
2030
0000
3002
0000
0013
0100
1000
0001
0010
0100
1000
0010
0100
0001
,
1000
0010
0100
0001
0010
0100
2000
0000
3002
0000
0203
0000
0310
0000
2000
0000
,
3100
0000
0010
0000
0002
0000
1003
0001
1000
0001
1000
0010
0100
0001
0010
0100
,
1000
0001
0010
0100
1000
0010
0200
0000
2300
0000
3020
0000
0230
0000
0302
0000
,
0023
0000
0230
0000
0320
0000
0031
1000
0001
1000
0010
0100
0010
0100
0001
0010
,
0100
1000
0010
0100
0001
0010
0100
0000
2000
0000
3020
0000
0230
0000
0302
0000
,
0023
0000
0032
0000
0023
0000
0130
1000
0001
1000
0001
1000
0010
0100
0010
0100
,
0001
0000
0000
0010
0000
0000
0001
0000
0000
0010
0000
0000
0001
0000
0000
0010
0000
0000
0001
0000
0010
0000
0100
0000
1000
0000
0001
0000
0010
0000
0100
0000
1000
0000
0001
0000
0100
0000
0010
0000
1000
0000
0001
0000
0100
0000
0010
0000
,
1000
0001
1000
0001
1000
0010
0100
0010
0100
0001
0010
0100
0010
0001
0100
0010
1000
0100
0010
0100
1000
0010
0100
0001
,
0010
0000
0100
0000
0010
0000
0001
0000
1000
0000
0001
0000
1000
0000
0001
0000
1000
0000
0001
0000
0000
0010
0000
0000
0100
0000
0000
1000
0000
0000
0001
0000
0000
1000
0000
0000
0001
0000
0000
1000
0000
0000
0010
0000
0000
0100
0000
0000
,
0010
0100
0001
0010
0100
1000
0001
0010
0100
1000
0010
0100
0010
0100
0001
0100
,
0010
1000
0100
0010
0001
1000
0100
0020
0000
0000
0000
0000
0000
0000
0000
0031
,
1000
0001
1000
0010
0100
0001
0010
0100
1000
0001
0010
0001
1000
0010
1000
0001
,
0100
0010
1000
0100
0010
0001
0010
0001
0100
0001
0010
0100
1000
0001
0010
0100
,
1000
0010
1000
0010
1000
0001
1000
0002
0000
0000
0000
0000
0000
0000
0000
1003
,
0001
1000
0010
0100
0010
0100
0001
0010
0100
1000
0001
0010
0001
1000
0010
1000
,
0010
0100
1000
0100
0010
0001
0100
0001
0010
0100
1000
0001
0010
0001
1000
0001
,
1000
0000
0000
0000
0000
0000
0000
0000
0000
0000
0000
0000
0010
0000
0000
0000
0000
0000
0000
0000
0000
0000
0000
0000
0100
0000
0000
0000
0000
0000
0000
0000
0000
0000
0000
0000
0001
0000
0000
0000
0000
0000
0000
0000
0000
0000
0000
0000
0010
0000
0000
0000
0000
0000
0000
0000
0000
0000
0000
0000
0100
0000
0000
0000
0000
0000
0000
0000
0000
0000
0000
0000
1000
0000
0000
0000
0000
0000
0000
0000
0000
0000
0000
0000
0001
0000
0000
0000
0000
0000
1000
0000
0000
0000
0000
0000
0010
0000
0000
0000
0000
0000
0000
0000
0001
0000
0000
0000
0000
0000
0000
0000
1000
0000
0000
0000
0000
0000
0000
0000
0001
0000
0000
0000
0000
0000
0000
0000
1000
0000
0000
0000
0000
0000
0000
0000
0010
0000
0000
0000
0000
0000
0000
0000
0100
0000
0000
0000
0000
0000
0000
0000
0010
0000
0000
0000
0000
0000
0000
0000
0100
0000
0000
0000
0000
0000
0000
0000
0001
0000
0000
0000
0000
0000
0000
0000
0100
0000
0000
0000
0000
0000
0000
0000
0010
0000
0000
0000
0000
0000
0000
0000
,
0100
0010
1000
0100
0010
0001
1000
0001
1000
0001
1000
0010
0100
0001
0010
0001
0010
0001
1000
0010
1000
0010
0100
0001
,
0100
0001
0100
0010
1000
0100
0010
0001
0010
0001
1000
0010
1000
0001
0100
0001
1000
0100
0010
0001
1000
0100
0010
0001
,
1000
0001
1000
0001
1000
0010
0100
0010
0100
0001
0010
0100
1000
0001
0010
0100
1000
0010
0100
0010
0100
0010
1000
0100
,
0010
0000
0001
0000
0010
0000
0001
0000
1000
0000
0010
0000
1000
0000
0001
0000
0100
0000
0010
0000
0000
0220
0000
0000
0000
0000
0000
0000
0000
0000
0000
0000
0000
0000
0000
0000
0000
0000
0000
0000
0000
0000
0000
0000
0000
0000
0000
0000
,
0000
0000
0000
0000
,
0000
0000
0000
0000
0000
0000
0000
0300
,
0000
0030
0000
0000
0000
0000
0000
0000
0000
0000
0000
0000
0000
0000
0000
0000
;
