#TITLE:Cock and ball torture;
#SUBTITLE:;
#ARTIST:Enema Bulldozer;
#TITLETRANSLIT:;
#SUBTITLETRANSLIT:;
#ARTISTTRANSLIT:;
#CREDIT:;
#BANNER:tipos1cerdocochino88a8agm8.banner.png.jpg;
#BACKGROUND:tipos1cerdocochino88a8agm8 copy.bg.png.jpg;
#LYRICSPATH:;
#CDTITLE:CDTITLE.jpg;
#MUSIC:Enema Bulldozer - Cock and Ball Torture.mp3;
#OFFSET:0.000;
#SAMPLESTART:100.000;
#SAMPLELENGTH:12.000;
#SELECTABLE:YES;
#BPMS:0.000=65.060,30.250=32.840,38.250=65.060,54.125=32.840,66.000=131.400,124.750=191.000,148.000=16.420,150.000=65.060,157.750=98.560;
#STOPS:;
#BGCHANGES:;
// cache tags:
#FIRSTBEAT:9.750;
#LASTBEAT:163.625;
#SONGFILENAME:Songs/Definitive Keyboard Megapack/Enema Bulldozer - Cock and Ball Torture(Leone510)/Enema Bulldozer - Cock and Ball Torture.sm;
#HASMUSIC:1;
#HASBANNER:1;
#MUSICLENGTH:133.355;
// end cache tags

//---------------dance-single - ----------------
#NOTES:
     dance-single:
     :
     Hard:
     15:
     1.000,1.000,1.000,1.000,1.000,505.000,284.000,192.000,0.000,64.000:

0000
0000
0000
0000
,
0000
0000
0000
0000
,
0000
0000
0000
0000
0000
0000
0000
0000
0000
0000
0000
0000
0000
0000
0000
0000
0000
0000
0000
0000
0000
0000
0000
0000
0000
0000
0000
0000
0000
0000
0000
0000
0000
0000
0000
0000
0000
0000
0000
0000
0000
0000
0000
0000
0000
0000
0000
0000
0000
0000
0000
0000
0000
0000
0000
0000
0000
0000
0000
0000
0000
0000
0000
0000
0000
0000
0000
0000
0000
0000
0000
0000
0000
0000
0000
0000
0000
0000
0000
0000
0000
0000
0000
0000
1100
0000
0000
0000
0000
0000
0000
0000
0000
0000
0000
0000
0001
0000
0000
0000
0000
0000
0000
0000
0000
0000
0000
0000
1010
0000
0000
0000
0000
0000
0000
0000
0000
0000
0000
0000
0000
0000
0000
0000
0010
0000
0000
0000
0000
0000
0000
0000
0000
0000
0000
0000
0000
0000
1100
0000
0000
0000
0000
0000
0000
0000
0000
0000
0000
0000
0001
0000
0000
0000
0000
0000
0000
0000
0000
0000
0000
0000
0110
0000
0000
0000
0000
0000
0000
0000
0000
0000
0000
0000
0000
0000
0001
0000
0000
0000
0000
0000
0000
0000
0000
0000
0000
0000
0000
0000
0000
0000
,
1100
0011
0100
0010
0001
1100
0110
0011
0010
1100
0010
0001
1001
0100
0011
1000
,
0000
0101
0000
0000
0000
1000
0000
0000
0000
0000
0110
0000
0000
0000
0001
0000
0000
0000
1000
0000
0000
0000
0011
0000
0000
0000
0100
0000
0000
0000
0011
0000
0000
0000
1000
0000
0000
0000
0110
0000
0000
0000
0001
0000
0000
0000
1000
0000
0000
0000
1010
0000
0000
0000
0100
0000
0000
0000
0001
0000
0000
0000
0110
0000
,
0000
0000
0010
0000
0110
0000
1000
0000
0011
0000
1100
0000
0001
0000
1100
0000
0002
0000
2000
0003
3020
0000
0230
0000
0302
0000
0023
0000
2030
0000
3000
0000
,
0020
0000
0000
0000
0000
0000
0000
0000
0000
0000
0000
0000
0130
0000
0000
0000
0000
0000
0000
0000
0000
0000
0000
0000
0000
0000
0000
0000
0000
0000
0000
0000
0000
0000
0000
0000
0220
0000
0000
0000
0000
0000
0000
0000
0000
0000
0000
0000
0330
0000
0000
0000
0000
0000
0000
0000
0000
0000
0000
0000
0000
0000
0000
0000
0202
0000
0000
0000
0000
0000
0000
0000
0000
0000
0000
0000
0000
0000
0000
0000
0303
0000
0000
0000
0000
0000
0000
0000
0001
0000
0000
0000
0000
0000
0000
0000
0000
0000
0000
0000
0000
0000
0000
0000
0000
0000
0000
0000
0000
0000
0000
0000
0002
0000
0000
0000
0000
0000
0000
0000
0000
0000
0000
0000
0000
0000
0000
0000
2000
0000
0000
0000
0000
0000
0000
0000
0000
0000
0000
0000
0000
0000
0000
0000
0003
0000
0000
0000
0000
0000
3020
0000
0000
0000
0000
0000
0000
0000
0000
0000
0000
0000
0200
0000
0000
0000
0000
0000
0030
0000
0000
0000
0000
0000
0002
0000
0000
0000
0000
0000
0000
0000
0000
0000
0000
0000
0000
0000
0000
0000
0000
0000
,
0300
0023
0000
2030
0000
3200
0000
0020
0300
0032
0000
0020
0003
0230
0000
0000
0000
0000
0010
0301
1001
0010
1100
0022
0000
0033
1000
0101
0001
0110
2002
0000
,
3003
0000
0000
0000
0000
0000
0000
0000
0000
0000
0000
0000
0000
0000
0000
0000
0001
0000
0000
0000
0000
1100
0000
0000
0000
0000
0000
0000
0010
0000
0000
0000
0000
0101
0000
0000
0000
0000
0000
0001
0000
0000
0000
0000
0000
2200
0000
0000
0000
0000
0000
0000
0000
0000
0000
0000
0000
3300
0000
0000
0000
0000
0000
1001
0000
0000
0000
0000
0000
0010
0000
0000
0000
0000
0000
0110
0000
0000
0000
0000
0000
1000
0000
0000
0000
0000
0000
0022
0000
0000
0000
0000
0000
0000
0000
0000
0000
0000
0000
0000
0000
0000
0033
0000
0000
0000
0000
0000
1100
0000
0000
0000
0000
0000
0101
0000
0000
0000
0000
0000
0010
0000
0000
0000
0000
0000
0001
0000
0000
0000
0000
0000
1000
0000
0000
0000
0000
0000
0022
0000
0000
0000
0000
0000
0000
0000
0000
0000
0000
0000
0033
0000
0000
0000
0000
0000
1000
0000
0000
0000
0000
0000
0200
0000
0000
0000
0000
0000
0011
0000
0000
0000
0000
0000
0310
0000
0000
0000
0000
0000
2200
0000
0000
0000
0000
0000
0000
0000
0000
0000
0000
0000
,
3300
0000
0000
0000
0000
0010
0000
0001
0000
1001
0000
0010
0000
1100
0000
0022
0000
0000
0000
0033
0000
1000
0000
0110
0000
1010
0000
0001
0000
0220
0000
0000
0330
0000
0000
0000
1100
0000
0000
0000
0010
0000
0000
0000
0101
0000
0000
0000
1100
0000
0000
0000
0010
0000
0000
0000
0101
0000
0000
0000
1001
0000
0000
0000
,
0010
0110
1000
0011
0100
0011
0010
1100
1001
0010
0110
1100
0010
0101
0011
0010
,
1100
0001
0101
0001
1010
0011
1000
0101
1010
0011
1000
0101
0110
1100
0011
1100
,
0010
0101
0010
1100
0001
0011
1100
0010
1001
0100
1010
0100
1100
0010
1001
0011
,
0100
0000
0010
0000
1010
0000
0001
0000
0011
0000
0100
0001
1010
0100
0001
1100
0000
0001
1100
0010
0110
0001
2020
0000
3030
0010
1100
0001
0011
2200
0000
0000
,
3300
0000
0000
0010
0000
1001
0000
0100
0000
0011
0000
0001
0000
2200
0000
0000
0000
3300
0001
0000
1001
0000
0010
0000
1100
0000
0022
0000
0000
0000
0033
0000
0000
0000
1001
0000
0110
0000
0001
0000
1100
0000
0010
0000
2020
0000
0000
0000
3030
0000
0000
0100
0000
1001
0000
0010
0000
0120
0000
2002
0030
0000
3003
0000
,
0000
0000
1100
0000
0010
0000
0101
0000
0010
0000
1100
0000
0000
0022
0000
0000
0033
0000
0010
0000
1010
0000
0100
0000
1001
0000
0220
0000
0000
0000
0330
0000
0000
0000
0100
0000
2100
0000
0100
0000
0120
0000
3100
0000
0232
0000
0000
0000
0303
0000
0010
0000
0210
0000
0012
0000
0310
0000
2020
0000
0003
0000
3030
0000
,
0100
0000
0000
0000
0000
0000
0120
0000
0000
0000
0000
0000
0130
0000
0000
0000
0000
0000
0102
0000
0000
0000
0000
0000
0100
0000
0000
0000
0000
0000
0223
0000
0000
0000
0000
0000
0000
0000
0000
0000
0000
0000
0330
0000
0000
0000
0000
0000
2001
0000
0000
0000
0000
0000
0001
0000
0000
0000
0000
0000
3201
0000
0000
0000
0000
0000
0001
0000
0000
0000
0000
0000
0311
0000
0000
0000
0000
0000
1100
0000
0000
0000
0000
0000
0000
0000
0000
0000
0011
0000
0000
0000
0000
0000
0000
0000
0020
0000
0000
0000
0000
0000
0000
0000
0000
0000
0000
0000
0000
0000
0000
0000
0000
0000
0000
0000
0000
0000
0000
0000
1130
0000
0000
0000
0000
0000
0000
0000
0000
0000
0000
0000
0000
0000
0000
0000
0000
0000
0000
0000
0000
0000
0000
0000
0021
0000
0000
0000
0000
0000
0000
0000
0000
0000
0000
0000
0000
0000
0000
0000
0000
0000
0000
0000
0000
0000
0000
0000
1230
0000
0000
0000
0000
0000
0000
0000
0000
0000
0000
0000
0000
0000
0000
0000
0000
0000
0000
0000
0000
0000
0000
0000
,
0301
0110
1200
0311
1100
0002
0113
0200
,
1301
1200
0311
0110
0002
1203
1310
0200
,
0301
0000
2010
0000
3101
0000
0021
0000
1030
0000
0012
0000
2103
3010
0201
0010
,
1310
0000
0000
0001
0000
0000
0110
0000
0000
0000
0000
0000
1200
0000
0000
0000
0000
0000
0310
0000
0000
0000
0000
0000
0120
0000
0000
0000
0000
0000
0031
0000
0000
0000
0000
0000
2200
0000
0000
3300
0000
0000
0000
0000
2200
0000
0000
0000
,
3300
0000
0000
2200
0000
0000
0000
0000
3300
0020
0000
0000
0000
0000
0000
0131
0000
0000
0000
0000
0000
1200
0000
0000
0000
0000
0000
1310
0000
0000
0000
0000
0022
0000
0000
0000
0000
0000
0033
2000
0000
0000
0000
0000
0000
3000
0000
0000
,
0000
0000
0210
0000
0000
2301
0000
0000
3011
0000
0000
1200
0000
0300
0022
0000
0033
0000
0022
0000
0033
0000
0022
0000
,
0033
0000
0000
0000
0000
0000
2000
0000
0000
0000
0000
0000
0000
0000
0000
0000
0000
0000
0000
0000
0000
0000
0000
0000
0120
0000
0000
0000
0000
0000
0030
0000
0000
0000
0000
0000
3000
0000
0000
0000
0000
0000
0000
0000
0000
0000
0000
0000
0021
0000
0000
0000
0000
0000
0000
0000
0000
0000
0000
0000
0000
0000
0000
0000
0000
0000
0030
0000
0000
0000
0000
0000
1200
0000
0000
0000
0000
0000
0000
0000
0000
0000
0000
0000
0000
0000
0000
0000
0000
0000
0300
0000
0000
0000
0000
0000
0010
0000
0000
0000
0000
0000
0000
0000
0100
0000
0000
0000
0000
0000
0000
0000
0010
0000
0000
0000
0000
0000
0000
0000
0100
0000
0000
0000
0000
0000
0000
0000
0010
0000
0000
0000
0000
0000
0000
0000
0100
0000
0000
0000
0000
0000
0000
0000
0010
0000
0000
0000
0000
0000
0000
0000
0000
0000
0000
0000
0000
0000
0000
0000
0000
0000
0000
0000
0000
0000
0000
0000
1000
0000
0000
0000
0000
0000
0000
0000
0000
0000
0000
0000
0101
0000
0000
0000
0000
0000
0000
0000
0000
0000
0000
0000
,
0010
1001
0110
0001
1010
0100
1100
0011
0100
1001
0110
0001
1100
0010
1001
0100
,
0001
1010
0110
0001
1001
0011
0100
0011
0010
1010
0100
0011
0100
1001
0010
0101
,
1001
0010
1100
0101
0010
1100
0001
0110
0101
1000
0011
0100
0011
0010
1100
0001
,
1010
1001
0101
0010
1100
0001
0110
0101
0010
1010
0001
1100
0110
0001
1010
0100
,
0022
0000
0033
0000
0000
0000
0022
0000
0033
0000
0000
0000
0022
0000
0033
0000
2100
0000
0000
0011
3000
0000
0120
0000
0000
1130
0000
0000
0000
0000
0020
0000
,
0000
0000
0000
2030
0000
0000
0000
0000
3000
0000
0000
0000
1020
0000
0000
0000
0132
0000
0000
0000
1203
0000
0000
0000
0311
0000
0000
0000
2200
0000
0000
3300
,
0000
2200
0000
0000
3300
0000
2200
0000
0000
3300
0011
0000
0000
1200
0000
0000
0312
0000
0000
0000
1203
0000
0000
0000
0311
0000
0000
0000
0000
1100
0000
0000
,
0000
0000
0000
0011
0000
0000
0000
0000
0000
0220
0000
0000
0000
0000
0000
0000
0000
0000
2032
0000
0000
3000
0000
0000
0300
0000
0000
2203
0000
0000
0000
0000
0000
0000
0000
0000
3022
0000
0000
0030
0000
0300
0000
0000
0000
2020
0000
0000
,
0000
3000
0000
0000
0000
0000
2233
0000
0000
0000
0000
0000
0000
0000
0000
0022
0000
0000
3030
0000
0000
0300
0000
0000
0223
0000
0000
0000
0000
0000
0030
0000
0000
2002
0000
0000
0300
0000
0000
3000
0000
0000
2020
0000
0000
0000
0000
0000
,
3030
0210
0003
0300
2020
0000
0030
0022
3000
0000
2200
0003
3030
0322
0000
0000
,
2233
0000
0000
0021
0300
0000
3232
0000
0000
2320
0003
0030
0210
0000
3000
0322
,
0000
0030
2200
0000
0303
0220
0000
0030
0322
3000
0003
0202
0000
0330
2200
0003
,
0000
3012
0000
0003
0021
0300
0000
2032
0000
3000
0213
0000
0000
1320
0000
0030
,
0011
0100
1000
0010
0100
0010
0000
0010
0001
1000
0001
1000
0010
0000
0000
0100
0001
1010
0000
0110
0001
0000
0011
0000
0010
0100
0010
1001
0010
1100
0001
0110
1000
0000
0000
0000
0110
0000
0000
0000
0001
0000
0000
0000
1100
0000
0000
0000
0011
0000
0000
0000
0100
0000
0000
0000
1001
0000
0000
0000
0010
0000
0000
0000
,
1100
0100
1010
0101
1000
0011
1100
0001
1100
0010
0101
0001
0110
1001
0101
0011
,
0100
0000
0011
0000
0010
0000
1001
0000
0100
0000
0011
0000
0000
0000
0001
0000
0000
0010
0000
0000
0100
0000
1000
0000
0000
0010
0000
0000
0100
0000
0000
1000
,
0000
0000
0100
0000
0000
1000
0000
0000
0100
0000
0000
1000
0000
0000
0100
0000
0000
1000
0000
0000
0100
0000
0000
1000
0000
0000
0202
0000
0000
0303
0000
0000
;
