#TITLE:Revelation Of Sigma;
#SUBTITLE:;
#ARTIST:Capcom;
#TITLETRANSLIT:;
#SUBTITLETRANSLIT:;
#ARTISTTRANSLIT:;
#CREDIT:;
#BANNER:Revelation Of Sigma.png;
#BACKGROUND:Revelation Of Sigma BG.png;
#LYRICSPATH:;
#CDTITLE:!XMaxX.png;
#MUSIC:Revelation Of Sigma.mp3;
#OFFSET:0.000;
#SAMPLESTART:8.500;
#SAMPLELENGTH:18.500;
#SELECTABLE:YES;
#BPMS:0.000=119.600,14.000=147.940;
#STOPS:12.500=1.760
;
#BGCHANGES:;
// cache tags:
#FIRSTBEAT:0.000;
#LASTBEAT:282.000;
#SONGFILENAME:Songs/keyboard/Revelation Of Sigma (Megaman X)/Revelation Of Sigma.sm;
#HASMUSIC:1;
#HASBANNER:1;
#MUSICLENGTH:119.544;
// end cache tags

//---------------dance-single - ----------------
#NOTES:
     dance-single:
     :
     Challenge:
     8:
     0.588,0.531,0.535,0.912,0.021,319.000,64.000,109.000,0.000,0.000:
2000
3002
0203
0320
,
2030
3200
0320
0032
,
0003
0200
0000
0000
0000
0300
0020
0000
0000
0000
0030
0000
2000
0000
0000
0000
,
3000
2002
0000
3003
2000
0000
0000
3001
,
0001
0001
0001
0000
0101
0000
0110
0000
,
1010
0000
0000
1000
1000
1000
2000
0000
,
3020
0000
0230
0000
0302
0000
0003
1000
,
1000
1000
1000
0000
1001
0000
0011
0000
,
0110
0000
0000
0100
0100
0100
0020
0000
,
2030
0000
3002
0000
2003
0000
0000
0001
,
0001
0001
0001
0000
3100
0000
0100
0000
,
0020
0000
0000
1000
1000
1000
1000
0000
,
1030
0000
0001
0000
2002
0000
3003
0001
,
0001
0001
0001
0000
0101
0000
1010
0000
,
1001
0000
0000
1000
1000
1000
1000
0000
,
1010
0000
0101
0000
1001
0000
0000
0002
,
1000
1000
1000
0000
1000
0000
0100
0000
,
1003
0000
0000
1000
1000
1000
2000
0000
,
3200
0000
0320
0000
0032
0000
0003
1000
,
1000
1000
1000
0000
1010
0000
0101
0000
,
1001
0000
0000
0001
0001
0001
0001
0000
,
1001
0000
0000
0000
1000
0100
0010
0001
2000
0000
0000
0000
0000
0000
3001
0000
,
0001
0100
0100
0000
0110
0000
1010
0000
,
1100
0000
0000
1000
1000
1000
2000
0000
,
3002
0000
0023
0000
0230
0000
0300
1000
,
1000
0001
0001
0000
0101
0000
0110
0000
,
1010
0000
0000
1000
1000
1000
1100
0000
,
1001
0101
0002
0023
,
2030
3200
0302
0023
,
0230
0302
2003
3002
,
2003
3002
2003
3200
,
0302
0023
2030
3200
,
0302
0023
0230
2300
,
3002
0000
2003
0000
3002
0000
0003
1000
,
1000
0001
0001
0000
0101
0000
0110
0000
,
1010
0000
0000
1000
1000
0001
0001
0000
,
1001
0000
0101
0000
0002
0000
0000
1003
,
1000
1000
1000
0000
1010
0000
0110
0000
,
0101
0000
0000
0001
0001
0001
0002
0000
,
0203
0000
0320
0000
2030
0000
3000
0001
,
0001
0001
0001
0000
1001
0000
1100
0000
,
0110
0000
0000
0010
0010
0010
0200
0000
,
0302
0000
2003
0000
3002
0000
0000
1000
,
1000
1000
1000
0000
0013
0000
0010
0000
,
0200
0000
0000
0001
0001
0001
0001
0000
,
0301
0000
1000
0000
2002
0000
3003
1000
,
1000
1000
1000
0000
1010
0000
0101
0000
,
1001
0000
0000
0001
0001
0001
0001
0000
,
0101
0000
1010
0000
1001
0000
0000
2000
,
0001
0001
0001
0000
0001
0000
0010
0000
,
3001
0000
0000
0001
0001
0001
0002
0000
,
0023
0000
0230
0000
2300
0000
3000
0001
,
0001
0001
0001
0000
0101
0000
1010
0000
,
1001
0000
0000
1000
1000
1000
1000
0000
,
1001
0000
0000
0000
0001
0010
0100
1000
0002
0000
0000
0000
0000
0000
1003
0000
,
1000
0010
0010
0000
0110
0000
0101
0000
,
0011
0000
0000
0001
0001
0001
0002
0000
,
2003
0000
3200
0000
0320
0000
0030
0001
,
0001
1000
1000
0000
1010
0000
0110
0000
,
0101
0000
0000
0001
0001
0001
0011
0000
,
1001
1010
2000
3200
,
0302
0023
2030
3200
,
0320
2030
3002
2003
,
3002
2003
3002
0023
,
2030
3200
0302
0023
,
2030
3200
0320
0032
,
2003
0000
3002
0000
2003
0000
3000
0001
,
0001
1000
1000
0000
1010
0000
0110
0000
,
0101
0000
0000
0001
0001
1000
1000
0000
,
1001
1010
2002
0000
,
0000
0000
3003
0000
;
