#TITLE:Click Clock Wood;
#SUBTITLE:Banjo-Kazooie;
#ARTIST:Rareware;
#TITLETRANSLIT:;
#SUBTITLETRANSLIT:;
#ARTISTTRANSLIT:;
#CREDIT:;
#BANNER:ccw-bn.png;
#BACKGROUND:ccw-bg.png;
#LYRICSPATH:;
#CDTITLE:kyka06.png;
#MUSIC:ClickClockWoods.mp3;
#OFFSET:-0.780;
#SAMPLESTART:32.359;
#SAMPLELENGTH:12.500;
#SELECTABLE:YES;
#BPMS:0.000=95.000;
#STOPS:;
#BGCHANGES:;
// cache tags:
#FIRSTBEAT:0.000;
#LASTBEAT:104.000;
#SONGFILENAME:Songs/new/BK - Click Clock Wood/ccw.sm;
#HASMUSIC:1;
#HASBANNER:1;
#MUSICLENGTH:70.478;
// end cache tags

//---------------dance-single - ----------------
#NOTES:
     dance-single:
     :
     Hard:
     5:
     0.302,0.277,0.227,0.000,0.326,133.000,16.000,0.000,0.000,0.000:
1001
0000
0000
0000
0000
0010
0001
0000
0000
0000
0000
0000
,
0010
0000
0000
0000
0000
0100
0010
0000
0000
0000
0000
0000
,
0001
0000
1000
0010
0000
0100
0010
0000
0010
1000
0000
0100
,
0010
0000
0001
0100
0000
0110
0000
0000
0000
0001
0000
0000
,
0100
0000
0000
0001
0000
0000
0010
0000
1000
0100
0000
0110
,
0001
0000
0000
0000
0000
1000
0010
0000
0000
0100
0000
0000
,
0001
0000
0100
0010
0000
0010
0001
0000
1000
0010
0000
0100
,
0010
0000
0010
0001
0000
0101
0000
0000
0000
0010
0000
0000
,
0001
0000
0000
0010
0000
1000
0010
0000
0001
1000
0000
0110
,
0001
0000
0000
0000
0000
0010
0100
0000
0000
0000
0000
0000
,
0001
0000
0001
0010
0000
1000
0010
0000
0100
0001
0000
0001
,
0010
0000
1000
0010
0000
0011
0000
0000
0000
0010
0000
0000
,
0001
0000
0000
0010
0000
0000
0100
0000
1000
0001
0000
0011
,
0100
0000
0000
0000
0000
0010
0001
0000
0000
0010
0000
0000
,
0010
0000
1000
0010
0000
0010
0100
0000
0001
0010
0000
0001
,
0100
0000
0010
1000
0000
1010
0000
0000
0000
0001
0000
0000
,
0100
0000
0000
0001
0000
0000
0001
0000
0010
1000
0000
0110
,
0010
0000
0000
0000
0000
0001
0010
0000
0000
0000
0000
0000
,
0100
0000
0000
0000
0000
0000
0101
0000
0001
0010
0000
0000
,
0100
0000
0000
0001
0000
0000
0010
0000
0000
0000
0000
0001
,
0100
0000
0000
0000
0000
0000
0001
0000
0001
0010
0000
0000
,
0100
0000
0000
0001
0010
0001
0010
0000
0000
0100
0000
0000
,
0001
0000
0000
0000
0000
0000
0101
0000
0010
0001
0000
0000
,
0010
0000
0000
0100
0000
0000
0001
0000
0000
0100
0000
0010
,
0001
0010
0001
0100
,
0011
1001
0110
0011
,
0101
0000
0000
0000
;

//---------------dance-single - ----------------
#NOTES:
     dance-single:
     :
     Medium:
     3:
     0.229,0.258,0.213,0.000,0.106,98.000,15.000,0.000,0.000,0.000:
1001
0000
1100
0000
,
0101
0000
0110
0000
,
1000
0100
1000
0010
,
0100
0000
0000
0000
0000
1001
0000
0000
0000
1000
0000
0000
,
0001
0000
0000
0010
0000
0000
0100
0000
0000
0100
0000
0100
,
1000
0000
0000
0000
0000
0100
0010
0000
0000
0000
0000
0000
,
1000
0001
0010
0100
,
0010
0000
0000
0000
0000
1001
0000
0000
0000
1000
0000
0000
,
0100
0000
0000
0010
0000
0000
0001
0000
0000
1000
0000
1000
,
0100
0000
0000
0000
0000
0010
0001
0000
0000
0000
0000
0000
,
1000
0010
1000
0100
,
0010
0000
0000
0000
0000
0110
0000
0000
0000
1000
0000
0000
,
0001
0000
0000
0100
0000
0000
0010
0000
0000
0010
0000
0010
,
1000
0000
0000
0000
0000
0100
0010
0000
0000
0001
0000
0000
,
1000
0010
1000
0100
,
0100
0000
0000
0100
0000
0100
0000
0000
0000
0001
0000
0000
,
1000
0000
0000
0010
0000
0000
1000
0000
1000
0001
0000
0001
,
1000
0000
0000
0000
0000
0100
0010
0000
0000
0000
0000
0000
,
1001
0000
1000
0010
,
0100
0000
0000
0010
0000
0000
1100
0000
0000
0000
0000
1000
,
0001
0000
0010
0100
,
1000
0000
0000
1000
0000
1000
0001
0000
0000
0100
0000
0000
,
1001
0000
1000
0010
,
0100
0001
0010
0100
,
1000
0001
0100
0010
,
1100
0011
0101
0110
,
1001
0000
0000
0000
;

//---------------dance-single - ----------------
#NOTES:
     dance-single:
     :
     Challenge:
     6:
     0.559,0.516,1.000,0.000,0.362,138.000,138.000,0.000,0.000,0.000:
1001
0000
0000
0000
0000
1010
0011
0000
0000
0000
0000
0000
,
0110
0000
0000
0000
0000
1100
0110
0000
0000
0000
0000
0000
,
1001
0000
0101
1010
0000
0011
0110
0000
0110
1001
0000
1100
,
0110
0000
0011
1100
0000
1010
0000
0000
0000
1001
0000
0000
,
1100
0000
0000
0011
0000
0000
0110
0000
1100
1100
0000
0011
,
0011
0000
0000
0000
0000
0110
0110
0000
0000
1100
0000
0000
,
0011
0000
1010
1010
0000
0101
0101
0000
0110
0110
0000
1010
,
1010
0000
0101
0101
0000
0011
0000
0000
0000
1010
0000
0000
,
0101
0000
0000
0110
0000
1001
1010
0000
1001
0110
0000
1010
,
0101
0000
0000
0000
0000
1100
1100
0000
0000
0000
0000
0000
,
1001
0000
0110
0110
0000
1100
1100
0000
0011
0011
0000
0110
,
0110
0000
1100
1100
0000
0011
0000
0000
0000
0110
0000
0000
,
1001
0000
0000
1010
0000
0000
1100
0000
0011
1001
0000
0110
,
1100
0000
0000
0000
0000
0011
1001
0000
0000
0110
0000
0000
,
0110
0000
1010
0110
0000
1010
0101
0000
0101
1010
0000
1010
,
1100
0000
0110
1001
0000
0110
0000
0000
0000
1001
0000
0000
,
1100
0000
0000
0011
0000
0000
0101
0000
0101
0011
0000
1100
,
0110
0000
0000
0000
0000
1001
1010
0000
0000
0000
0000
0000
,
1100
0000
0000
0000
0000
1010
1001
0000
0110
0110
0000
0000
,
1100
0000
0000
0011
0000
0000
0110
0000
0000
0000
0000
0101
,
1100
0000
0000
0000
0000
0000
0011
0000
0101
0110
0000
0000
,
1100
0000
0000
1001
0110
1001
0110
0000
0000
1100
0000
0000
,
0011
0000
0000
0000
0000
1100
0011
0000
0110
1001
0000
0000
,
0110
0000
0000
1100
0000
0000
0011
0000
0000
1100
0000
0110
,
1001
0000
0000
0110
0000
0000
1001
0000
0000
1100
0000
0011
,
0110
0000
1010
0101
0000
0110
1001
0000
0000
0110
0000
0000
,
1001
0000
0000
0000
;

//---------------dance-single - ----------------
#NOTES:
     dance-single:
     :
     Easy:
     1:
     0.130,0.166,0.014,0.014,0.057,62.000,1.000,1.000,0.000,0.000:
1000
0000
1000
0000
,
0001
0000
0001
0000
,
1000
0000
0010
0000
,
0100
0000
0000
0000
0000
1000
0000
0000
0000
0000
0000
0000
,
0001
0000
0000
0000
0000
0000
0100
0000
0000
0000
0000
1000
,
0000
0000
0001
1000
,
0010
0000
0010
0000
,
0100
0000
0000
0000
0000
0001
0000
0000
0000
0000
0000
0000
,
0010
0000
0000
0000
0000
0000
0100
0000
0000
0000
0000
1000
,
0000
0000
0100
0000
,
0010
0000
1000
0000
,
0100
0000
0000
0000
0000
0010
0000
0000
0000
0000
0000
0000
,
0001
0000
0000
0000
0000
0000
1000
0000
0000
0000
0000
0001
,
0000
0000
1000
0100
,
0010
0000
0010
0000
,
1000
0000
0000
0000
0000
0001
0000
0000
0000
0000
0000
0000
,
1000
0000
0000
0000
0000
0000
0010
0000
0000
0000
0000
0010
,
0000
0000
1000
0000
,
0100
0000
0010
1000
,
0010
1000
0100
0000
,
1000
0000
0100
0010
,
0002
0000
0000
1000
0000
0000
1000
0000
0000
1000
0000
0003
,
1000
0000
0010
0000
,
0100
0000
1000
0000
,
0001
0000
0010
0000
,
1000
0100
0010
0001
,
0110
0000
0000
0000
;
