#TITLE:Angels and Demons;
#SUBTITLE:;
#ARTIST:Angra;
#TITLETRANSLIT:;
#SUBTITLETRANSLIT:;
#ARTISTTRANSLIT:;
#CREDIT:;
#BANNER:Angels and Demons-bn.png;
#BACKGROUND:Angels and Demons-bg.png;
#LYRICSPATH:;
#CDTITLE:;
#MUSIC:Angels and Demons.ogg;
#OFFSET:-0.125;
#SAMPLESTART:20.873;
#SAMPLELENGTH:16.600;
#SELECTABLE:YES;
#BPMS:0.000=205.000;
#STOPS:126.000=0.585
;
#BGCHANGES:;
// cache tags:
#FIRSTBEAT:0.000;
#LASTBEAT:844.500;
#SONGFILENAME:Songs/Beast Aoreo BEAST! 2/Angels and Demons - [Aoreo]/Angels and demons.sm;
#HASMUSIC:1;
#HASBANNER:1;
#MUSICLENGTH:250.984;
// end cache tags

//---------------dance-single - Hard----------------
#NOTES:
     dance-single:
     Hard:
     Challenge:
     15:
     1.000,1.000,0.478,0.339,1.000,2108.000,120.000,85.000,21.000,0.000:
1000
0100
0010
0100
1000
1000
0001
0100
,
0000
0100
0000
0100
0001
0010
0100
1000
,
0010
0100
0001
0001
1000
0010
0000
0010
,
0000
0010
0100
0001
0101
0100
0010
1000
,
1100
0100
0010
0011
0000
0101
0000
1010
,
1000
0100
1100
1000
0010
0100
0101
0001
,
0010
0110
0000
1100
0000
1001
0001
0100
,
0110
0000
0000
0101
0000
0000
1001
0000
,
1000
0100
1100
0000
1000
0001
0101
0000
,
0110
0000
0000
1001
0000
0000
1100
0000
,
0100
1000
1001
0000
0001
0100
0101
0000
,
0001
0001
0100
0010
1000
1000
0100
0110
,
0000
0000
0011
0000
0000
0000
0001
0100
0001
0100
0010
1000
0010
0000
1000
0000
,
0100
1000
0001
0001
0100
0110
0000
1010
,
0000
0000
1000
0010
0100
0001
0010
0100
1000
0000
0100
0000
1000
0000
0010
0000
,
0100
0000
0100
0000
0001
0000
0011
0000
0000
0000
0110
0000
0000
0000
0100
1000
,
0100
1000
0001
0100
0001
0000
0100
0000
0010
0000
1000
0000
0001
0000
0001
0000
,
0010
0110
0000
1100
0000
0100
0100
1000
,
0001
0100
0001
0100
0010
1000
0010
1000
0001
1000
0001
1000
0010
1000
0010
0100
,
0010
0100
0001
0010
0100
1000
0100
1000
0010
0100
0010
0100
0001
1000
0001
0010
,
0100
1000
0010
0100
0001
0100
0001
0100
0001
1000
0001
1000
0100
1000
0100
0010
,
0100
0010
0001
0010
0001
0100
0001
0100
0010
1000
0010
1000
0001
1000
0100
0010
,
0001
0100
0010
1000
0001
0100
0010
1000
0010
1000
0001
0100
0001
0010
0100
1000
,
0001
1000
0100
1000
0100
1000
0001
1000
0001
0100
0001
0100
0010
1000
0001
0010
,
0100
1000
0010
0100
0001
0010
0100
1000
0010
0100
0001
1000
0100
1000
0100
0010
,
0001
1000
0100
0010
0001
0100
0001
0100
0010
1000
0010
1000
0001
1000
0001
0010
,
0100
1000
0010
0100
0001
0001
0010
0110
,
0000
0000
1100
0000
0000
0000
1000
0100
1000
0001
1000
0001
0100
0000
0010
0000
,
0100
0001
0010
0010
0100
1100
0000
1001
,
0000
0001
0100
0100
1010
1000
0010
0110
,
0100
0000
0001
0000
1000
0001
1000
0001
1000
0000
0100
0010
0100
0010
0100
0000
,
0010
0001
0010
0001
0100
0001
1000
0010
1M0M
0000
0000
0000
0000
0000
0000
0000
,
1010
1000
0001
0010
0100
1000
0020
1000
,
1030
0010
0200
0001
0301
0010
0100
1000
,
0200
1000
1300
0010
0100
0010
2000
0001
,
3001
1000
0200
1000
1300
0010
0100
0001
,
0200
0010
0310
0100
0001
0010
0200
1000
,
1300
0010
0200
0010
0310
1000
0001
1000
,
0001
0100
0001
0100
0001
0100
0010
1000
0010
1000
0010
1000
0001
1000
0001
1000
,
0010
0100
0010
0100
0001
1000
0001
1000
0010
0100
0010
0100
0001
1000
0010
0100
,
0001
0010
0110
0100
1000
0010
0110
0100
,
0001
1000
1001
0001
0010
0100
1100
1000
,
0001
0000
0100
0000
0110
0000
0010
0000
1000
0010
1000
0001
1000
0000
0001
1000
,
0001
1000
1000
0010
0010
0100
0100
0001
,
1MM1
1000
0100
0010
0100
1000
0002
0100
,
0103
0001
2000
0001
3001
0010
0100
1000
,
0020
0100
0130
0010
1000
0001
0020
0100
,
0130
1000
0020
0100
0130
0001
1000
0100
,
0020
0001
0031
0010
0001
0100
0020
0100
,
0130
0010
2000
0001
3001
0010
0100
1000
,
0001
1000
0001
1000
0001
1000
0010
0100
0010
0100
0001
1000
0001
1000
0100
0010
,
0001
1000
0100
1000
0100
1000
0100
0010
0001
0100
0001
0100
0010
1000
0001
1000
,
0010
1000
1001
0001
0010
0100
1100
1000
,
0010
0100
0101
0001
1000
0010
1010
1000
,
0010
0100
0110
0010
1000
0001
1001
1000
,
0100
0010
0011
0001
0010
0010
0100
0100
,
1001
0000
MMMM
0000
1001
0001
0100
0010
,
1000
0100
1000
0001
0010
0100
1000
0001
,
1000
1000
0100
0100
0010
0010
0001
0001
,
1000
1000
0010
0010
0100
0100
0001
0001
,
0010
0010
0100
0100
1000
1000
0010
0010
,
0100
0100
0001
0001
1000
1000
0100
0100
,
0020
0000
0000
0000
,
0032
0000
0000
0000
0103
0100
0010
0010
,
1000
1000
0100
0100
0110
0010
0001
0100
,
0101
0001
0100
0010
1010
1000
0100
0010
,
0010
0001
0100
0010
1000
0001
1000
0100
,
1000
0010
1000
0001
0010
0001
0100
0001
,
1001
1000
0100
1000
0010
1000
0001
1000
,
1010
0010
0100
0001
0100
0010
0100
0001
,
1001
1000
0100
0010
0100
1000
0100
0010
,
0100
1000
0010
0100
0001
1000
0001
1000
,
1001
0001
0100
0010
1000
0100
0010
0001
0010
0100
1000
0010
,
1000
0010
0100
0001
0100
0001
1000
0010
1000
0010
0100
0001
,
0100
0000
0202
0000
,
0000
0000
0000
0000
0000
0000
0000
0000
0000
0000
0000
0000
0000
0000
0000
M000
00M0
0000
0000
0000
0000
0000
0000
0000
0303
0000
0000
0000
0000
0000
0000
0000
0000
0000
0000
0000
0000
0000
0000
0000
0000
0000
0000
0000
0000
0000
0000
0000
,
1001
0000
0000
0000
0000
0000
0001
0000
0000
0000
0000
0000
0100
0000
0000
0000
0000
0000
0010
0000
0000
0000
0000
0000
2000
0000
0000
0000
3000
0000
0100
0000
0000
0000
0000
0000
1000
0000
0000
0000
0000
0000
0010
0000
0000
0100
0000
0000
,
0010
0000
0100
0000
0001
0000
0010
0000
0200
0300
1000
0100
1000
0000
0010
0000
,
0100
0000
0001
0000
1000
0000
0010
0000
0200
0300
0001
0000
1000
0000
0001
0000
,
2002
3003
2200
3300
,
1010
0010
0100
0001
1001
1000
0100
0010
,
0011
0001
0100
0010
1010
1000
0100
0010
,
0110
0100
1000
0001
0101
0100
0010
1000
,
2002
3003
2200
3300
,
0100
1000
0100
1000
0001
1000
0001
1000
0001
0100
0001
0100
0010
1000
0010
1000
,
0001
0010
0100
1000
0001
1000
0010
0100
0010
1000
0001
0100
0001
0010
0100
1000
,
0100
1000
0001
0100
0001
0010
0001
1000
0001
1000
0100
1000
0100
0010
0100
0010
,
0001
0010
0001
1000
0001
1000
0010
0100
0001
1000
0010
1000
0010
0100
0001
1000
,
0001
1000
1010
0010
0110
0100
0101
0001
,
1001
1000
1100
0100
0110
0010
0011
0001
,
1001
1000
1010
0010
0110
0100
1001
0001
,
0010
0001
0010
0100
1000
0010
1000
0010
0100
0001
1000
0001
1000
0000
0000
0000
,
0001
0100
0001
0100
0010
1000
0010
1000
0100
0010
0001
1000
0001
1000
0010
0100
,
0010
0100
0001
1000
0001
1000
0100
1000
0100
0010
0100
0010
0001
0010
0001
0100
,
0001
0100
0010
1000
0001
1000
0010
1000
0001
0010
0100
1000
0100
1000
0001
1000
,
0001
0000
0100
0001
0100
0000
0010
0000
0010
0000
0100
0000
0001
0000
1000
0000
,
0001
0100
0001
1000
1000
0010
0010
0100
,
0001
1000
0001
1000
0100
0010
0001
1000
0001
1000
0010
0100
0001
0100
0001
1000
,
0001
1000
0100
0010
0100
0010
0001
0010
0001
1000
0001
1000
0010
0100
0010
1000
,
0001
0100
0010
1000
0010
0100
0001
1000
0001
1000
0100
1000
0001
0100
0010
1000
,
0001
0000
1000
0100
1000
0000
0100
0000
0100
0000
0010
0000
0001
0000
0100
0000
,
0001
1000
0001
0100
0100
0010
0010
0000
,
1000
0001
0100
0010
1000
0001
1000
0010
0100
0001
1000
0001
1000
0010
0100
0010
,
1000
0001
1000
0001
0100
0001
0100
0001
1000
0100
0010
0001
1000
0010
0100
0001
,
0010
0000
0000
0000
0110
0100
1000
0001
,
0101
0100
0001
1000
1010
0010
1000
0100
,
0010
0000
0001
0000
0100
0000
0001
0000
0010
0000
0100
0000
1000
0000
0000
0100
0000
0000
1000
0000
0000
0010
0000
0000
,
0110
0000
0000
0100
0000
0000
0001
0000
0000
1000
0000
0000
0001
0000
0100
0000
0010
0000
1000
0000
0001
0000
0100
0000
,
0010
0100
0010
1000
0001
0100
0001
1000
0010
1000
0010
0100
0001
0100
0001
1000
,
0010
0100
0001
0010
0100
1000
0100
1000
0001
0100
0010
1000
0001
0100
0010
0100
,
0010
0000
0000
0000
0100
0000
0000
0000
0001
0000
0000
0000
1000
0000
0000
0000
0100
0000
0000
0000
0010
0000
0000
0000
0001
0000
0000
1000
0000
0000
0100
0000
0000
1000
0000
0000
0001
0000
0000
0100
0000
0000
0010
0000
0000
0100
0000
0000
,
0001
1000
0001
1000
0010
1000
0001
1000
0001
0010
0100
1000
0001
1000
0010
0100
,
0001
0000
0000
0000
0000
0000
0000
0000
0100
0000
0000
0000
0010
0000
0000
0000
1000
0000
0000
0000
0001
0000
0000
0000
1000
0000
0000
0001
0000
0000
1000
0000
0000
0001
0000
0000
1000
0000
0000
0000
0000
0000
0001
0000
0000
0100
0000
0000
,
0001
1000
0010
0000
1000
0001
0100
0001
0100
0000
0010
0000
1000
0000
0001
0000
,
0100
0000
0000
0000
0010
0000
0000
0000
1000
0000
0000
0000
0001
0000
0000
0000
0010
0000
0000
0000
0100
0000
0000
0000
1000
0000
0000
0100
0000
0000
1000
0000
0000
0001
0000
0000
1000
0000
0000
0100
0000
0000
1000
0000
0000
0001
0000
0000
,
1000
0000
0000
0100
0000
0000
1000
0000
0000
0001
0000
0000
1000
0000
0000
0100
0000
0000
1000
0000
0000
0001
0000
0000
1000
0000
0000
0000
0001
0000
0000
0000
0100
0000
0000
0000
0001
0000
0000
0000
0010
0000
0000
0000
0100
0000
0000
0000
,
1000
0000
0100
0000
0010
0000
0001
0000
0100
0000
0010
0000
0110
0000
0000
0100
0000
0000
0001
0000
0000
1000
0000
0000
,
1100
0100
1000
0010
0110
0100
0001
1000
,
1010
0000
0010
0000
0100
0000
0001
0000
0010
0100
0010
0100
1000
0001
1000
0001
,
0100
0010
1000
0001
0010
0100
1000
0001
1000
0010
0100
0001
0100
0001
1000
0010
,
1000
0100
0010
0001
0010
0100
1000
0001
2000
0000
0001
0000
3001
0000
0010
0000
,
0200
0000
1000
0000
1300
0000
0010
0000
1000
0000
0010
0000
0100
0000
0001
0100
,
0001
0000
0100
0000
0010
0000
0100
0000
0001
0000
1000
0000
0100
1000
0100
0010
,
0001
0010
0100
1000
0001
0100
0010
0100
0001
1000
0001
1000
0010
0100
0001
1000
,
0001
1000
0100
1000
0020
0100
0130
0001
,
1000
0100
1000
0000
0010
0000
0100
0001
2000
0000
0010
0000
3010
0000
0100
0001
,
0100
0010
2000
0100
3100
1000
0010
0100
,
0001
1000
0001
1000
0001
1000
0010
0100
0010
1000
0001
1000
0010
0100
0010
1000
,
0001
0000
0000
1000
0000
0000
0001
0000
0000
1000
0000
0000
0010
0000
0000
0100
0000
0000
0001
0000
0000
0010
0000
0000
0100
0000
0000
0000
1000
0000
0000
0000
0100
0000
0000
0000
1000
0000
0000
0000
0010
0000
0000
0000
0100
0000
0000
0000
,
0001
0010
0100
1000
0001
1000
0001
0100
0001
1000
0001
0100
,
0010
0100
0010
1000
0001
1000
0001
0010
0100
1000
0100
1000
,
0001
0000
0000
0000
0100
0000
0000
0000
0010
0000
0000
0000
0100
0000
0000
0010
0000
0000
0100
0000
0000
0001
0000
0000
1000
0000
0000
0000
0100
0000
0000
0000
0010
0000
0000
0000
0001
0000
0000
0000
0100
0000
0000
0000
0010
0000
0000
0000
,
4000
0000
0000
3000
0001
0000
0100
0001
0100
0000
0001
0000
1000
0000
0010
0000
,
0100
0001
0100
0010
1000
0001
1000
0100
2000
0000
0000
0000
0000
0000
3001
0100
,
0010
0000
0010
0000
0100
0000
0100
0000
0010
1000
0010
1000
0001
0010
0100
1000
,
0100
0010
0001
1000
0001
1000
0010
0100
0001
0100
0010
1000
0001
1000
0100
0010
,
0001
0000
0000
0000
1000
0000
0000
0000
0100
0000
0000
0000
0010
0000
0000
0000
0001
0000
0000
0000
1000
0000
0000
0000
0001
0000
0000
0010
0000
0000
0001
0000
0000
0100
0000
0000
0010
0000
0000
1000
0000
0000
0001
0000
0000
1000
0000
0000
,
0010
0100
0010
1000
0001
0010
0100
0010
0100
1000
0001
0010
0001
1000
0010
0100
,
0010
1000
0001
0010
0001
1000
0010
1000
0001
0000
0010
0000
0100
0000
1000
0000
,
0100
1000
0020
0100
0130
0001
2000
0010
,
3010
1000
0001
0010
0200
1000
1300
0100
,
1000
0010
0200
0001
0301
1000
0020
0100
,
0130
0010
1000
0001
0200
0001
0301
0100
,
0010
1000
0200
0010
0310
0100
0020
0001
,
0031
0000
0010
0000
0100
0000
1000
0000
0001
1000
0001
1000
0010
0100
0010
1000
,
0001
1000
0001
0100
0010
0100
0001
1000
0001
1000
0010
0100
0010
1000
0001
1000
,
0001
0100
0001
0010
0100
1000
0100
1000
0001
0000
0100
0000
0010
0000
1000
0000
,
0100
0010
0200
1000
1300
0100
0020
0001
,
0031
0100
0010
1000
0002
0100
0103
0001
,
1000
0100
0020
0001
0031
0010
0200
1000
,
1300
0010
0100
0001
2000
0010
3010
1000
,
0010
0100
0002
0010
0013
0001
0020
0100
,
0130
0000
0010
0000
0001
0000
1000
0000
0010
1000
0010
1000
0001
0100
0001
1000
,
0010
1000
0010
1000
0001
0010
0001
0100
0001
0100
0010
1000
0001
1000
0001
1000
,
0100
0010
0001
1000
0001
0100
0010
0100
0010
0000
0100
0000
0101
0000
0001
0000
,
0010
0100
1100
1000
0010
0100
0101
0001
,
1000
0010
1010
0100
0001
0010
0110
0100
,
1000
0001
0101
0100
0010
1000
1001
0001
,
0010
0100
1100
1000
0010
0100
0101
0001
,
1000
0010
0110
0100
0001
0010
0110
0100
,
1000
0001
0101
0100
0010
1000
1100
0100
,
0010
0001
0101
0100
0010
1000
1001
0001
,
0010
0100
1100
1000
0010
0100
0101
0001
,
1000
1001
0001
0010
0110
1000
0010
0100
,
0001
1000
0010
0100
0001
0010
1100
1000
,
0010
0110
0100
0001
0101
0100
0001
0010
,
0100
1000
0010
0100
0001
0000
MMMM
0000
,
1001
1000
0001
0010
0100
1000
0001
0100
,
0010
1000
0001
0010
0100
0100
1000
1000
,
0100
0100
0010
0010
0001
0001
0100
0100
,
0010
0010
1000
1000
0001
0001
0010
0010
,
0100
0100
0010
0010
0001
0001
0100
0100
,
0010
0010
1000
1000
0200
0000
0010
0000
,
1300
0010
0100
0000
0002
0000
1000
0000
,
0103
0001
0010
0010
0100
0100
1000
1000
,
1001
0001
0100
0010
1010
1000
0100
0010
,
0011
0001
0100
0001
0010
0100
0010
0001
,
1000
0100
1000
0010
0100
0001
0010
0100
,
0010
0100
1000
0001
0101
0100
0001
1000
,
0100
0010
0100
1000
1001
0001
0010
0100
,
1000
0010
0100
0001
0101
0100
0010
1000
,
0100
0000
0000
0010
0000
0000
0100
0000
0000
1000
0000
0000
0002
0003
2000
3000
0002
0003
0020
0030
0200
0300
2000
3000
,
0002
0003
0200
0300
0020
0030
2000
3000
0002
0003
0020
0030
0200
0300
1000
0000
0001
0000
1000
0000
0001
0000
0100
0000
,
0010
1000
0010
1000
0001
0100
0010
1000
0100
0010
0001
0100
,
0010
1000
0100
0010
0001
0010
0100
1000
0100
1000
0010
0100
,
0001
0100
0010
1000
0001
0010
0100
1000
0100
0010
0001
0100
,
0010
1000
0001
0100
0001
0100
0010
1000
0100
0010
0001
0100
,
0001
1000
0010
1000
0001
0010
0100
1000
0010
0100
0001
0010
,
0100
1000
0010
0100
0001
1000
0010
0100
0001
1000
0010
0100
,
0001
1000
0100
0010
0100
1000
0001
0100
0010
0100
0001
0010
,
0100
0010
0001
1000
0100
1000
0010
0100
0001
1000
0010
0100
,
M001
0010
0100
1000
0010
0100
M001
0010
0100
1000
0010
0100
,
M001
0010
0100
1000
0001
1000
0020
0000
0000
0130
0001
0100
,
0010
1000
0100
1000
0001
0010
0100
1000
0001
0100
0010
0100
,
0001
1000
0010
0100
0001
1000
0200
0000
0000
1300
0010
1000
,
0001
0100
0010
1000
0100
1000
0002
0000
0000
0103
0010
0100
,
0001
0010
0100
1000
0001
1000
0020
0000
0000
0130
0001
1000
,
0100
1000
0010
0100
0001
0100
0010
1000
0100
0010
0100
0010
,
0001
1000
0100
1000
0001
0100
M001
0010
0100
1000
0010
0100
,
M001
0010
0100
1000
0010
0100
M001
0010
0100
1000
0010
0100
,
M001
0010
0100
1000
0010
0100
0001
1000
0100
1000
0001
0100
,
0010
0100
0001
1000
0100
0010
0100
1000
0001
0100
0010
0100
,
0001
1000
0010
0100
0010
1000
0002
0013
0100
1000
0010
0100
,
0002
0013
0100
1000
0010
0100
0002
1003
0100
1000
0010
0100
,
0002
1003
0100
0010
0100
1000
0002
0103
0010
1000
0100
1000
,
0002
0103
0010
1000
0100
0010
0002
0103
0010
1000
0100
1000
,
0002
0103
0010
1000
0100
0010
0002
1003
0100
1000
0010
0100
,
0002
0013
0100
1000
0010
0100
0002
1003
0100
0010
0100
1000
,
0002
0000
1003
0000
0010
0000
0100
0000
0010
0000
1000
0000
0002
0000
0003
1000
0000
0000
0001
0000
0000
0001
0000
0000
,
0100
0100
0010
1010
0000
0101
0000
0011
,
0010
0100
0100
1000
0001
0100
0010
0010
,
1000
1000
0000
0000
0000
0000
0000
0000
;
