#TITLE:Agent Yoru wo Yuku;
#SUBTITLE:from IDOLM@STER;
#ARTIST:Makoto Kikuchi, Ami and Mami Futami, Ristuko Akizuki;
#TITLETRANSLIT:;
#SUBTITLETRANSLIT:;
#ARTISTTRANSLIT:;
#CREDIT:Darkmage;
#BANNER:agentyoruwoyuku-bn.png;
#BACKGROUND:agentyoruwoyuku-bg.png;
#LYRICSPATH:;
#CDTITLE:!darkmagetitle2.png;
#MUSIC:Agent Yoru wo Yuku.ogg;
#OFFSET:0.700;
#SAMPLESTART:55.930;
#SAMPLELENGTH:21.500;
#SELECTABLE:YES;
#BPMS:0.000=178.020;
#STOPS:;
#BGCHANGES:0.000=agentyoruwoyuku-bg.png=1.000=0=0=1,
99999=-nosongbg-=1.000=0=0=0 // don't automatically add -songbackground-
;
// cache tags:
#FIRSTBEAT:4.000;
#LASTBEAT:362.000;
#SONGFILENAME:Songs/Archmage and Dark0wl Hammer of Thor UltraHyperMegaPack/Agent Yoru wo Yuku/Agent Yoru wo Yuku.sm;
#HASMUSIC:1;
#HASBANNER:1;
#MUSICLENGTH:105.000;
// end cache tags

//---------------dance-single - Darkmage----------------
#NOTES:
     dance-single:
     Darkmage:
     Challenge:
     15:
     1.000,1.000,1.000,0.019,0.952,845.000,348.000,2.000,0.000,4.000:
0000
0000
0000
0000
,
1000
0000
0000
0001
0000
0000
1000
0000
,
0000
0001
0000
0000
0000
0000
0000
0000
,
0000
0000
0100
0000
,
1001
1010
0001
0101
0011
1000
0011
1100
,
0001
1010
0101
1000
0001
1000
0011
0100
,
1010
0110
0001
0110
0101
1000
0101
0011
,
0100
0011
1100
0001
1000
0001
0110
0001
,
1100
0110
1000
0110
0011
0100
0011
0101
,
0010
0101
1010
0001
1000
0001
1100
0010
,
1000
0001
0000
1000
0100
0010
0001
1000
,
0000
0000
0101
0000
1010
0000
0000
0000
1100
0000
0011
0000
1000
0100
1000
0100
,
0010
0001
0010
0100
1000
0010
0100
0001
,
0000
1000
0100
0010
0001
1000
0010
0100
,
0010
0000
1000
0001
0010
0000
1100
0011
,
0000
0000
1100
0000
0000
0000
0101
0000
1010
0000
0110
0000
0100
0010
0100
0010
,
1000
0000
0001
0000
0000
0010
0000
0100
,
1000
0100
0010
0100
0001
0000
0100
0010
,
0001
0000
1000
0010
0100
0001
0000
0101
,
0000
0000
0101
0000
0000
0000
0101
0000
0011
0000
1000
0100
1000
0100
0010
0001
,
1000
0000
0000
0001
0100
0010
1000
0100
0010
0001
1000
0000
0010
0000
0100
0000
,
0000
0010
1000
0100
0010
0001
1000
0000
,
0101
1000
0001
0100
0010
1000
0001
0000
,
1100
0000
0000
0000
0001
0000
0010
0000
0100
0010
0001
1000
0010
0100
0001
0100
,
1010
0000
1010
0000
1001
0000
1000
0101
,
0000
0000
0000
0101
0000
0000
1000
0000
0000
0100
0000
0000
0001
0000
0000
0010
0000
0000
0100
1000
0100
0010
0001
0010
,
0200
0000
0000
2300
0000
0000
3011
1100
,
0000
0000
0000
1000
0100
0010
0001
1000
,
0010
0000
0000
1000
0001
1000
0011
1100
,
0000
0000
0011
0000
0101
0000
1010
0000
0100
0010
0100
0010
1000
0001
1000
0001
,
1000
0100
1000
0010
0100
0010
0100
0001
0010
0001
0100
0010
0100
0001
0010
0100
,
1000
0100
1000
0010
0100
0010
0100
0001
0010
0001
0100
0010
0100
0001
0010
0100
,
1000
0100
1000
0010
0100
0010
0100
0001
0010
0001
0100
0010
0100
0001
0010
0100
,
1000
0100
1000
0010
0100
0010
0100
0001
0010
0001
0100
0010
0100
0001
0010
0100
,
1000
0100
0010
0100
1000
0010
0100
0001
0010
0001
0100
1000
0100
0010
1000
0001
,
1000
0100
0010
0100
0001
0100
1000
0010
0100
0001
0010
0100
0001
0100
0010
0001
,
1000
0010
0001
0010
0100
0001
1000
0100
0010
0100
0001
0100
1000
0010
0001
0010
,
0100
0001
0010
0100
0001
0100
0010
0001
1000
0010
0001
0010
0100
0010
1000
0100
,
1000
0100
1000
0100
0010
0001
0010
0001
1000
0100
1000
0100
0010
0001
0010
0001
,
1000
0010
1000
0010
0100
0001
0100
0001
1000
0010
1000
0010
0100
0001
0100
0001
,
1000
0001
1000
0001
0100
0010
0100
0010
1000
0001
1000
0001
0100
0010
0100
0010
,
1000
0100
0010
0001
1000
0100
0010
0001
1000
0010
0100
0001
1000
0010
0100
0001
,
1010
1100
1010
1100
0011
0101
0011
0101
,
1010
0101
1010
0101
0011
1100
0011
1100
,
0110
1001
0110
1001
1010
0110
1010
0110
,
0011
0000
0110
0000
0011
0000
0110
0000
0101
0000
0110
0000
1000
0001
1000
0001
,
1010
1010
1100
1100
0011
0011
0101
0101
,
0110
0110
1010
1010
1100
1100
0011
0011
,
1100
1100
0011
0011
0101
0101
1010
1010
,
0101
0000
0011
0000
0110
0000
1100
0000
0110
0000
0011
0000
1000
0100
0010
0001
,
0011
1100
0011
1100
1010
0011
1010
0011
,
1100
1010
1100
1010
0110
1010
0110
1010
,
0101
0011
0101
0011
1100
1010
1100
1010
,
0110
0000
1001
0000
0110
0000
1001
0000
1100
0000
0011
0000
0001
0010
0001
0010
,
1100
1100
1010
1010
0101
0101
0011
0011
,
1010
0000
1010
0000
1001
0000
1001
0000
0101
0000
0101
0000
1000
0001
1000
0001
,
0110
1001
0000
0011
1100
0000
1010
0101
,
0000
0000
0011
0000
1100
0000
0000
1000
0100
1000
0100
1000
0011
0100
1000
0100
,
0011
0100
1000
0010
0100
0001
1100
0010
0100
0001
1100
0001
0110
1000
0001
0100
,
1010
0100
0001
1000
0100
1000
0110
1000
0001
0100
1010
0001
1010
0100
0001
0010
,
1100
0010
0001
0100
0010
1000
0011
0100
1000
0001
1100
0010
1100
0001
1000
0100
,
0011
0100
1000
0001
0100
0010
1100
0010
0100
0001
0110
1000
0110
0001
0010
0001
,
1100
0010
0100
1000
0011
0100
1000
0001
1010
0001
1000
0100
0011
0100
1000
0001
,
0110
1000
0100
1000
0011
0100
1000
0001
1010
0000
0011
0000
0101
0000
1010
0000
,
0001
1100
1001
0100
1001
0110
0001
0110
,
1010
0000
0001
0000
1000
0100
1000
0010
0100
0001
0110
0000
0101
0000
1010
0000
,
0001
1100
0011
1000
0110
0011
0100
1010
,
0101
0000
1000
0010
0100
0001
1000
0000
0001
0000
1000
0000
0011
0000
1100
0000
,
0001
1010
0101
1000
0011
1100
0010
0101
,
1010
0000
0001
0100
0010
1000
0001
1000
0100
0000
1000
0000
0001
0000
0010
0000
,
0000
0100
1000
0010
0100
0001
0000
1100
,
0011
0000
0000
0000
0101
0000
1010
0000
1000
0100
1000
0100
1100
0000
1010
0000
,
1100
1010
0101
0011
0101
0011
1010
0011
,
1010
0011
0101
1100
0101
1100
1010
0101
,
1010
0101
0011
1100
0011
1100
0110
1001
,
0110
0000
1001
0000
1010
0000
0101
0000
0100
0001
0100
0001
1010
0000
1010
0000
,
1100
1100
0011
0011
0101
0101
1010
1010
,
1100
1100
0011
0011
1100
1100
0110
0110
,
0011
0011
0101
0101
0110
0110
1010
1100
,
0110
0000
0011
0000
0101
0010
1000
0001
0010
0001
1000
0010
0101
0000
0011
0000
,
1100
1010
0101
0011
1100
1010
0110
0101
,
1100
0011
0110
0101
1100
0011
1010
0101
,
0011
1100
1010
0101
0011
1100
1010
0101
,
0011
0000
0101
0000
1010
0000
1100
0000
0001
0010
0100
1000
0011
0000
0011
0000
,
1100
1100
1010
1010
0101
0101
0011
0011
,
1100
0000
1100
0000
1010
0000
1010
0000
1000
0100
1000
0100
0011
0000
0101
0000
,
0000
1010
1100
0000
0011
1100
0000
1010
,
1101
0000
0000
0000
0100
1000
0100
1000
0011
0000
1100
0000
0000
0000
1010
0000
,
0101
0000
0000
0000
0011
0000
1001
0000
0000
0000
1010
0000
1011
0000
0001
0100
,
0001
0000
0001
0100
0011
0000
1010
0000
0000
0000
1100
0000
0011
0000
0000
0000
,
0110
1001
0000
0110
1111
0000
0000
0000
;
