#TITLE:Black Realms Majesty;
#SUBTITLE:;
#ARTIST:Luca Turilli;
#TITLETRANSLIT:;
#SUBTITLETRANSLIT:;
#ARTISTTRANSLIT:;
#CREDIT:;
#BANNER:Black Realms Majesty bn.png;
#BACKGROUND:Black Realms Majesty bg.png;
#LYRICSPATH:;
#CDTITLE:cdtitle.png;
#MUSIC:Black Realms Majesty.mp3;
#OFFSET:-5.590;
#SAMPLESTART:63.760;
#SAMPLELENGTH:21.500;
#SELECTABLE:YES;
#BPMS:0.000=190.000;
#STOPS:;
#BGCHANGES:;
// cache tags:
#FIRSTBEAT:0.000;
#LASTBEAT:831.667;
#SONGFILENAME:Songs/Essential Sim Collection/(Skauert) Black Realms Majesty/Black Realms Majesty.sm;
#HASMUSIC:0;
#HASBANNER:1;
#MUSICLENGTH:100.000;
// end cache tags

//---------------dance-single - ----------------
#NOTES:
     dance-single:
     :
     Hard:
     13:
     1.000,1.000,1.000,0.970,1.000,2287.000,335.000,97.000,0.000,15.000:
1000
0010
0100
0002
0000
1003
0100
0010
0001
0020
0000
0130
,
1000
0100
0010
0001
0100
0010
2002
0000
0000
3113
0000
0000
,
0001
0100
0010
2000
0000
3001
0010
0100
1000
0200
0000
0310
,
0001
0010
0100
1000
0010
0100
1001
0110
1001
0110
1001
0110
,
1001
0100
0010
0001
0010
0100
0010
0001
1000
0010
0100
0001
,
0100
0010
0100
0001
0010
0100
2002
0000
0000
3113
0000
0100
,
1001
0010
0100
1000
0001
0100
0010
1000
0010
0100
0001
0100
,
0010
0100
0001
0010
0100
0010
1001
0110
1001
0110
1001
0110
,
1001
0100
0010
0100
0001
0010
0100
0010
0001
1000
0010
0100
,
0001
0100
0010
0100
0001
0100
2002
0000
0000
3113
0000
0100
,
1001
0010
0100
0010
0001
1000
0100
0010
0001
0100
0010
1000
,
0010
0100
0001
0100
0010
0100
1001
0010
0100
1001
0000
0000
,
1000
0001
1000
0001
1000
0001
1000
0001
1000
0010
1000
0010
1000
0010
1000
0010
,
1000
0100
1000
0100
1000
0100
1000
0100
0010
0001
0010
0001
0010
0001
0010
0001
,
0010
0100
0010
0100
0010
0100
0010
0100
0010
1000
0010
1000
0010
1000
0010
1000
,
0100
0001
0100
0001
0100
0001
0100
0001
0110
0000
1001
0000
0110
0000
1001
0000
,
0110
0011
1100
0110
0202
0000
2323
0000
,
3131
0000
0000
0000
0110
0000
0000
0000
1001
0000
0100
0010
0100
0010
0100
0000
,
1001
0000
0000
0000
1000
0010
0100
0000
0001
0100
0010
0000
1000
0010
0100
0000
,
1001
0000
0000
0000
0001
0100
0010
0000
1000
0010
0100
0000
0001
0100
0010
0000
,
1001
0000
0000
0000
1000
0010
0100
0000
0001
0100
0010
0000
1000
0010
0100
0000
,
1002
0000
0100
0000
1000
0003
0010
0000
,
0210
0000
0000
0000
0001
0000
0000
0000
0310
0000
1000
0100
0010
0001
0010
0100
,
1001
0000
0000
0000
1000
0100
0010
0000
0001
0010
0100
0000
1000
0100
0010
0000
,
1001
0000
0000
0000
0001
0010
0100
0000
1000
0100
0010
0000
0001
0010
0100
0000
,
1001
0000
0000
0000
1000
0100
0010
0000
0001
0010
0100
0000
1000
0100
0010
0000
,
1002
0100
0010
1000
0100
0010
1000
0103
,
2001
0010
0100
0001
0010
0100
0001
3010
,
1001
0000
0000
0000
1000
0100
1000
0000
0001
0010
0001
0000
1000
0100
1000
0000
,
1001
0000
0000
0000
0001
0010
0001
0000
1000
0100
1000
0000
0001
0010
0001
0000
,
1001
0000
0000
0000
1000
0100
1000
0000
0001
0010
0001
0000
1000
0100
1000
0000
,
2001
0000
0010
0000
0001
3000
0100
0000
,
0120
1000
0130
0110
,
1001
0000
0000
0000
0010
0100
0010
0000
0100
0010
0100
0000
0010
0100
0010
0000
,
1001
0000
0000
0000
1000
0001
1000
0000
0001
1000
0001
0000
1000
0001
1000
0000
,
0110
0000
0000
0000
0100
0010
0100
0000
0010
0100
0010
0000
0100
0010
0100
0000
,
2001
0010
0001
0100
0010
0100
0001
3010
,
1002
0100
1000
0010
0100
0010
1000
0103
,
1001
0000
0100
0010
0100
0000
1001
0000
1001
0000
0100
0000
1001
0000
0100
0010
,
0100
0000
0001
0010
0001
0000
1000
0000
0110
0000
1000
0000
0011
0000
0100
0010
,
1001
0000
0010
0100
0010
0000
1001
0000
0110
0000
1001
0000
1001
0000
0010
0100
,
1001
0000
0010
0100
0010
0000
1001
0000
1001
0000
0100
0000
0100
0000
0010
0100
,
1001
0000
0110
0000
0110
0000
1000
0000
0011
0000
1000
0000
0101
0000
0010
0100
,
1001
0000
0100
0010
1001
0000
0010
0000
1100
0000
0010
0000
0101
0000
0010
0100
,
1001
0000
0010
0100
0010
0000
1001
0000
0110
0000
1001
0000
0110
0000
1000
0100
,
0011
0000
0100
0010
0100
0000
0011
0000
1000
0000
0011
0000
1000
0000
0110
0000
,
1001
0100
0010
0001
0100
0010
1000
0100
0010
0001
1000
0010
0100
0001
0100
0010
,
0100
0001
0010
0100
1000
0010
0100
0001
0010
0100
1000
0001
0100
0010
1000
0010
,
0100
0010
1000
0100
1000
0001
0100
0010
1000
0001
0010
0001
1000
0010
0100
0001
,
1000
0100
1000
0001
0100
0010
1000
0001
0010
0001
1000
0010
0100
0001
0010
0100
,
1001
0010
0100
1000
0010
0100
0010
1000
0100
0010
0001
0100
0010
0100
0001
0010
,
0100
1000
0010
0100
0010
1000
0100
0010
0001
0100
0010
0100
0001
0100
0010
1000
,
0010
0100
0001
0100
0010
1000
0010
0100
0001
1000
0100
0010
0001
1000
0010
0100
,
0001
1000
0100
0010
0001
1000
0010
0100
0001
0010
0100
1000
0001
0100
0010
1000
,
0110
0001
1000
0100
0010
0001
0100
0010
1000
0100
0010
0001
0100
0010
1000
0010
,
0100
0001
0100
0010
1000
0010
0100
0001
0100
0010
1000
0100
1000
0010
0100
0010
,
0100
1000
0001
0010
0100
1000
0010
0100
0001
0010
0100
1000
0010
0100
0001
0100
,
0010
1000
0010
0100
0001
0100
0010
1000
0010
0100
0001
0010
0001
0100
0010
0100
,
1001
0010
0100
1000
0001
0010
0001
0100
0010
1000
0100
1000
0001
0010
0100
1000
,
0100
0010
0001
1000
0100
1000
0010
0100
0001
0010
0001
1000
0100
0010
0001
0010
,
1002
0100
0010
1000
0100
0010
1000
0103
,
2010
0001
0100
0010
0001
0100
0010
3001
,
1001
0110
1000
0000
1001
0000
0001
0110
,
0000
0110
1000
0010
1001
0100
0010
0100
,
1001
0100
0010
0001
0100
0010
1000
0010
0100
0001
0100
0010
,
0100
0001
0010
0100
1000
0100
2002
0000
0000
3113
0000
0100
,
1000
0010
0100
0001
0100
0010
1000
0001
0010
0100
1000
0010
,
0100
0001
0010
0001
1000
0100
0012
0100
0010
0103
0000
0010
,
0001
0010
0001
1000
0100
1000
0001
0010
0100
1000
0010
0100
,
0010
1000
0100
0010
0001
0010
2002
0000
0000
3113
0000
0100
,
1001
0010
0100
0010
0001
1000
0100
0010
0001
1000
0010
0100
,
0001
0100
0010
0100
0001
0010
2002
0000
0000
3003
0000
0010
,
1001
0010
0100
1001
0100
0010
1001
0010
0100
1001
0100
0010
,
1001
0010
0100
1001
0100
0010
2002
0000
0000
3113
0000
0100
,
1001
0100
0010
0001
0100
0010
1000
0010
0100
0001
0100
0010
,
1000
0100
1000
0001
0010
0100
1002
0100
1000
0103
0000
0010
,
1001
0100
0010
1001
0010
0100
1001
0100
0010
1001
0010
0100
,
1001
0100
0010
1001
0010
0100
2002
0000
0000
3113
0000
0010
,
1001
0010
0100
1000
0010
0100
0001
0100
0010
1000
0010
0100
,
0001
0010
0001
1000
0100
0010
2001
0010
3001
0110
0000
0000
,
2010
0001
0010
0001
0010
0000
0010
0000
,
3020
0100
0100
1000
0230
0000
0001
0000
,
2301
0000
0010
0000
3020
0000
1000
1000
,
1032
0000
0100
0103
1001
0110
1001
0110
,
1001
0000
0100
0000
0001
0000
0010
0000
2000
0000
0000
3000
0220
0000
0000
0330
,
1001
0000
0000
0000
0120
0000
0000
0030
0100
1000
0001
1000
0001
1000
0001
0010
,
1001
0000
0000
0000
0100
0010
0001
0000
1000
0010
0100
0000
0001
0010
0001
0000
,
0110
0000
0000
0000
0001
0010
0100
0000
1000
0010
0100
0000
0010
0100
0010
0000
,
1001
0000
0000
0000
0010
0100
1000
0000
0001
0100
0010
0000
1000
0100
1000
0000
,
2001
0010
0001
0100
0010
0001
3010
0000
,
2001
0000
0000
3000
1002
0000
0000
0003
,
0110
0000
0000
0000
0001
0010
0001
0000
1000
0010
0100
0000
0001
0010
0100
0000
,
1001
0000
0000
0000
0100
0010
0100
0000
0001
0100
0010
0000
1000
0100
0010
0000
,
0101
0000
0000
0000
1000
0010
0100
0000
0001
0010
0001
0000
1000
0100
0010
0000
,
1002
0100
0010
1000
0100
0010
1000
0103
,
2001
0010
0100
0001
0010
0100
3010
0000
,
1001
0000
0000
0000
1000
0100
1000
0000
0001
0010
0100
0000
0010
1000
0100
0000
,
1001
1100
0011
0110
,
1001
0000
0000
0000
0001
0100
0010
0000
1000
0100
0010
0000
0100
0010
0100
0000
,
2001
0010
0100
0001
0010
0100
3010
0000
,
2002
0000
0000
0000
3223
0000
0000
0330
,
1001
0000
0000
0000
0010
0001
0010
0000
0100
1000
0100
0000
0010
0001
0010
0000
,
1001
0000
0000
0000
1000
0010
0100
0000
0001
0100
0010
0000
1000
0010
0100
0000
,
1001
0000
0000
0000
0100
0010
0001
0000
0010
0100
1000
0000
0100
0010
0001
0000
,
0110
0001
0100
0010
1000
0001
0010
0100
,
1001
0000
0100
0000
0010
0000
0001
0000
1000
0000
0010
0000
0200
0000
0000
0300
,
1001
0000
0010
0100
0010
0000
1001
0000
0110
0000
0001
0000
0110
0000
1000
0100
,
1001
0000
0010
0100
1001
0000
0100
0000
1010
0000
0100
0000
1010
0000
0001
0010
,
1001
0000
0100
0010
0100
0000
0011
0000
1000
0000
0110
0000
1000
0000
0010
0100
,
1001
0000
0100
0010
1001
0000
0110
0000
1001
0000
0110
0000
1000
0001
1000
0010
,
0101
0000
1000
0100
1000
0000
0011
0000
0100
0000
1010
0000
0100
0000
0001
0010
,
1100
0000
1000
0100
0011
0000
0100
0000
1001
0000
0010
0000
1001
0000
0100
0010
,
1001
0000
0010
0100
0010
0000
1100
0000
0001
0000
0110
0000
1000
0000
0100
0010
,
1001
0000
0010
0100
1001
0000
0010
0000
1100
0000
0010
0000
0101
0000
0010
0000
,
1001
0100
0010
0001
0100
0010
1000
0100
1000
0001
0100
0010
1000
0010
0100
0010
,
0001
0010
0100
1000
0010
0100
0001
0010
0001
1000
0010
0100
0001
0100
0010
0100
,
1000
0100
0010
0001
1000
0010
0100
0001
1000
0100
0010
0001
1000
0010
0100
0010
,
0001
0010
0100
1000
0001
0100
0010
1000
0001
0010
0100
1000
0001
0100
0010
0100
,
1001
0010
0001
0100
0010
0100
0001
0010
0100
0010
0001
1000
0010
0100
0001
0010
,
1000
0100
1000
0010
0100
0010
1000
0100
0010
0100
1000
0001
0100
0010
1000
0100
,
1000
0010
0100
0001
1000
0010
0100
0001
0100
0010
0100
0001
0100
0010
1000
0100
,
0001
0100
0010
1000
0001
0100
0010
1000
0010
0100
0010
1000
0010
0100
0001
0010
,
1001
0100
0010
0100
0001
0010
0100
1000
0010
0100
0001
0100
0010
1000
0010
0100
,
0001
0010
0100
0010
1000
0100
0010
0001
0100
0010
1000
0010
0100
0001
0100
0010
,
1000
0100
0010
0100
1000
0001
0010
0100
0010
0001
1000
0100
1000
0010
0100
1000
,
0001
0010
0100
0010
0001
1000
0100
0010
0100
1000
0001
0010
0001
0100
0010
0100
,
1001
0010
0100
1000
0001
0100
0010
1000
0010
0100
0001
0010
0100
1000
0010
0100
,
1000
0100
0010
0001
1000
0010
0100
0001
0100
0010
1000
0100
0010
0001
0100
0010
,
2001
0010
0100
0001
0010
0100
0001
3010
,
1002
0100
0010
1000
0100
0010
1000
0103
,
1001
0110
1100
0000
0011
0000
1010
0000
,
0110
0011
1100
0110
1001
0000
0110
0000
,
1001
0000
0010
0100
1000
0000
0100
0010
,
1001
0010
0100
0010
2002
0000
0000
0000
,
3113
0000
0100
0010
0100
0000
0001
0010
,
2200
0000
0000
3300
0101
0110
1100
1010
,
1001
0000
0000
0000
0000
0000
0000
0000
0100
0000
0000
0000
0001
0000
0000
0000
0010
0000
0000
0000
0000
0100
1000
0000
0100
0000
0000
0000
0010
0000
0000
0000
,
1001
0010
0100
1000
0110
0000
0010
0000
,
2001
0000
0010
0001
0020
0000
0000
3030
,
0001
0001
0010
0010
0100
0100
1000
1000
,
0120
0030
1000
0010
1200
0300
0001
0010
,
0101
0010
1000
0100
0021
0000
0000
0030
,
1200
0300
0001
0010
1200
0300
0020
0030
,
1002
0000
0000
0003
0110
0000
1100
0000
,
1002
0003
0100
0010
0002
0003
0100
0010
,
1100
0001
0010
0100
0021
0030
1200
0300
,
1001
0000
0100
0010
2000
3000
0120
0030
,
0101
0000
0010
0100
2002
0000
0000
3003
,
0010
0100
0010
0100
0010
0100
0010
0100
0010
0100
0010
0100
0010
0100
0010
0100
,
1000
0100
1000
0100
1000
0100
1000
0100
1000
0001
1000
0001
1000
0001
1000
0001
,
0010
0001
0010
0001
0010
0001
0010
0001
0010
0001
0010
0001
0010
0001
0010
0001
,
0010
0001
0010
0001
0010
0001
0010
0001
0010
0001
0010
0001
0010
0001
0010
0001
,
0010
1000
0010
1000
0010
1000
0010
1000
0010
1000
0010
1000
0010
1000
0010
1000
,
0100
1000
0100
1000
0100
1000
0100
1000
0100
0001
0100
0001
0100
0001
0100
0001
,
0100
0010
0100
0010
0100
0010
0100
0010
0100
0010
0100
0010
0100
0010
0100
0010
,
0100
0010
0100
0010
0100
0010
0100
0010
0100
0010
0100
0010
0100
0010
0100
0010
,
0100
1000
0100
1000
0100
1000
0100
1000
0100
1000
0100
1000
0100
1000
0100
1000
,
0100
0001
0100
0001
0100
0001
0100
0001
0100
0010
0100
0010
0100
0010
0100
0010
,
1000
0010
1000
0010
1000
0010
1000
0010
1000
0010
1000
0010
1000
0010
1000
0010
,
1000
0001
1000
0001
1000
0001
1000
0001
1000
0001
1000
0001
1000
0001
1000
0001
,
0010
0001
0010
0001
0010
0001
0010
0001
0010
0001
0010
0001
0010
0001
0010
0001
,
0010
0100
0010
0100
0010
0100
0010
0100
1000
0100
1000
0100
1000
0100
1000
0100
,
1001
0110
0000
0000
1100
0000
0011
0011
,
0000
0000
0110
0000
0100
1100
0100
0000
,
1000
0100
0010
0001
0010
0100
1000
0100
0010
0001
0010
0100
1000
0100
0010
0001
,
0010
0100
1000
0100
0010
0001
0010
0100
1000
0100
0010
0001
0010
0100
1000
0100
,
1000
0001
1000
0001
1000
0001
1000
0001
1000
0010
1000
0010
1000
0010
1000
0010
,
1000
0100
1000
0100
1000
0100
1000
0100
2002
0000
0000
0000
0000
0000
3003
0000
,
1001
1100
0101
0110
1010
0011
1001
1100
,
0101
1001
0011
0110
0011
1010
0110
1100
,
1001
0000
0010
0000
0100
0000
0001
0000
1000
0000
0010
0100
0010
0000
0100
0000
,
1010
0000
0100
0001
0010
0000
0100
0000
1001
0000
0010
0100
1000
0000
0110
0000
,
0001
0010
0100
1000
0100
0010
0001
0010
0100
1000
0100
0010
0001
0010
0100
1000
,
0100
0010
0001
0010
0100
1000
0100
0010
0001
0010
0100
1000
0100
0010
0001
0010
,
0001
1000
0001
1000
0001
1000
0001
1000
0001
0100
0001
0100
0001
0100
0001
0100
,
0001
0010
0001
0010
0001
0010
0001
0010
2002
0000
0000
0000
0000
0000
3003
0000
,
1001
1010
0011
0110
1001
0110
0011
1010
,
0110
0011
1001
1100
0101
0110
1100
0110
,
1001
0000
0010
0100
0020
0000
0030
0000
1100
0000
0001
0010
0002
0000
0003
0000
,
0110
0000
1000
0100
2000
0000
3000
0000
0110
0000
0001
0000
0100
0000
0010
0000
,
1100
0000
0010
0100
0020
0000
0030
0000
1001
0000
0100
0010
0200
0000
0300
0000
,
1001
0000
0010
0001
0020
0000
0030
0000
0001
0000
0100
0000
0010
0000
0100
0000
,
1001
0100
0010
0100
1000
0001
0100
0010
1000
0010
0100
0010
1000
0010
0100
0001
,
1000
0100
0010
0100
1000
0001
0100
0010
1000
0010
0100
0010
1000
0010
0100
0001
,
0100
0010
0100
0001
0010
0100
1000
0010
0100
0010
1000
0010
0100
0001
0010
0001
,
0010
0100
0010
1000
0100
0010
0001
0100
0010
0100
0001
0100
0010
1000
0100
1000
,
0110
0001
0010
0001
0100
0010
0100
0001
0010
0100
1000
0001
0100
0010
1000
0100
,
1000
0010
0100
0010
0001
0010
0001
1000
0100
0010
0001
1000
0010
0100
0001
0010
,
1000
0100
0010
0100
1000
0001
0100
0010
1000
0010
0100
0010
0001
0100
0010
1000
,
0001
0010
0100
0010
0001
1000
0010
0100
0001
0100
0010
0100
1000
0010
0100
0001
,
1010
0100
0010
0100
1000
0010
0100
0010
1000
0010
0100
0001
0100
0010
0100
0010
,
0001
0010
0100
0010
0001
0100
0010
0100
0001
0100
0010
1000
0010
0100
0010
0100
,
0001
0010
0100
1000
0001
0100
0010
1000
0001
0010
0100
1000
0010
0100
0001
0010
,
1000
0100
0010
0001
1000
0010
0100
0001
1000
0100
0010
0001
0100
0010
1000
0100
,
0001
0010
0001
0100
0010
0100
0001
0100
0010
1000
0010
0100
0010
1000
0100
1000
,
0001
0010
0001
1000
0100
1000
0001
0100
0010
1000
0010
0100
0010
1000
0100
0010
,
1001
0010
0100
1000
0100
0010
0001
0100
0010
1000
0100
1000
0001
0010
0100
1000
,
0001
0010
0100
0010
0001
1000
0100
0010
0001
0010
0100
1000
0010
0100
0001
0010
,
1001
0110
1000
0000
0011
0000
0110
1001
,
0100
0000
1001
0000
0010
0000
0000
0000
0110
0000
0000
0000
1000
0100
0010
0100
,
1001
0010
0100
1001
0100
0010
1001
0010
0100
1001
0100
0010
,
1001
0010
0100
1001
0100
0010
2002
0000
0000
3113
0000
0010
,
1001
0100
0010
0001
0100
0010
1000
0100
1000
0001
0010
0100
,
1000
0001
0100
0010
1000
0100
1001
0110
1001
0110
1001
0110
,
1001
0010
0100
1001
0100
0010
1001
0010
0100
1001
0100
0010
,
1001
0010
0100
1001
0100
0010
2002
0000
0000
3113
0000
0010
,
1001
0010
0100
0010
1000
0100
0010
0001
1000
0010
0100
0001
,
0100
0010
0100
0001
0010
0100
1001
0110
1001
0220
0000
0330
;
