#TITLE:Smell Yo Dick;
#SUBTITLE:Sexuality Violation;
#ARTIST:Riskay;
#TITLETRANSLIT:;
#SUBTITLETRANSLIT:;
#ARTISTTRANSLIT:;
#CREDIT:;
#BANNER:smell yo dick-bn.png;
#BACKGROUND:smell yo dick-bg.png;
#LYRICSPATH:;
#CDTITLE:;
#MUSIC:smell yo dick.ogg;
#OFFSET:-19.151;
#SAMPLESTART:20.000;
#SAMPLELENGTH:12.000;
#SELECTABLE:YES;
#BPMS:0.000=233.220;
#STOPS:;
#BGCHANGES:;
// cache tags:
#FIRSTBEAT:4.000;
#LASTBEAT:767.500;
#SONGFILENAME:Songs/Sexuality Violation 2/Smell Yo Dick - [NC.BadLieutenant]/smell yo dick.sm;
#HASMUSIC:1;
#HASBANNER:1;
#MUSICLENGTH:216.929;
// end cache tags

//---------------dance-single - NC.BadLieutenant----------------
#NOTES:
     dance-single:
     NC.BadLieutenant:
     Challenge:
     14:
     0.960,1.000,0.267,0.078,1.000,1383.000,58.000,17.000,0.000,0.000:
0000
0000
0000
0000
,
1000
0000
0000
0000
0010
0000
0100
0000
0000
0000
0001
0000
,
0020
0000
0000
0000
,
0031
1000
0010
0100
,
0002
0000
0000
0000
,
1003
0100
0010
0100
,
0010
0000
0001
1000
,
0010
0000
0100
0000
,
0100
0001
0000
1000
,
0001
0000
0000
0000
0100
0000
0010
0000
0000
0000
1000
0000
,
0200
0000
0000
1300
,
0001
1000
0100
1000
,
0020
0000
0000
0130
,
0010
1000
0010
0100
,
0010
1000
0100
0010
,
0001
0000
0100
0010
,
1000
0100
0000
0000
,
1000
0001
0101
0001
,
0020
0000
0000
0000
,
0031
0000
0000
0010
0000
0000
0110
0000
0000
0000
1000
0000
,
0002
0000
0203
0000
,
0310
0100
0101
0100
,
0010
1000
0001
1000
,
0100
0000
0110
0100
,
1000
0010
0000
0100
,
0001
1000
1100
1000
,
0020
0000
0000
0130
,
0001
0010
0011
1000
,
0100
0000
0000
0000
1000
0000
0001
0000
0000
0010
0000
0000
,
0001
0100
0101
1000
,
0001
1000
0100
1000
,
0010
1000
0010
0000
0100
0001
0100
0001
,
1000
0100
1000
0001
0100
0010
1000
0100
0010
0100
1000
0001
,
0010
0001
1000
0010
1000
0010
0100
0001
0010
0001
1000
0001
,
1000
0100
0010
0001
1000
0001
0100
0010
1000
0100
0010
0001
,
1000
0100
1000
0001
0100
0001
1000
0010
0100
0010
1000
0001
,
0100
0010
1000
0100
1000
0001
0010
0001
1000
0100
0010
0001
,
1000
0001
0100
0010
1000
0001
0100
0001
0010
0001
1000
0100
,
0010
0100
1000
0001
0100
0010
1000
0001
0100
0001
1000
0010
,
1000
0001
1000
0010
1000
0001
0100
0001
0010
0001
0010
0100
,
1000
0001
1000
0100
0010
0001
0010
0001
0100
0010
1000
0001
,
0100
0010
1000
0100
1000
0001
0100
0001
1000
0100
1000
0001
,
0010
0100
1000
0001
0010
0001
1000
0100
1000
0001
0100
0010
,
1000
0100
1000
0001
0100
0001
1000
0010
0100
0010
1000
0100
,
0010
0001
1000
0001
0010
0100
1000
0010
0100
0001
1000
0010
,
1000
0001
0100
0010
1000
0001
0100
0001
1000
0100
1000
0001
,
1000
0100
1000
0001
0010
0100
1000
0001
1000
0010
0100
0001
,
0010
0001
1000
0001
1000
0001
0100
0001
1000
0100
1000
0001
,
0010
0100
1000
0010
0100
0001
0100
0001
1000
0010
1000
0001
,
0010
0001
1000
0100
0010
0001
1000
0001
0100
0010
1000
0100
,
1000
0001
1000
0001
1000
0010
1000
0001
0100
0010
1000
0001
,
0100
0010
0100
0010
1000
0001
0010
0001
1000
0100
0010
0001
,
1000
0001
0100
0010
1000
0100
1000
0001
0010
0001
0100
0001
,
1000
0010
0100
0001
0010
0100
1000
0001
0010
0100
1000
0001
,
0100
0010
0100
0001
1000
0100
1000
0010
1000
0001
1000
0001
,
0010
0100
1000
0010
1000
0001
0010
0100
1000
0001
0100
0001
,
1000
0010
0100
0001
0100
0010
1000
0001
0010
0001
1000
0100
,
1000
0001
0010
0100
1000
0010
1000
0001
0010
0001
0100
0010
,
0100
0001
1000
0010
1000
0001
0100
0001
1000
0001
0100
0001
,
1000
0001
0010
0100
1000
0001
0010
0001
1000
0100
1000
0001
,
1000
0001
0100
0010
1000
0001
1000
0010
1000
0001
0010
0100
,
0010
0001
1000
0100
1000
0010
0100
0001
0010
0001
1000
0100
,
0010
0001
0100
0001
1000
0010
0100
0001
1000
0010
0100
0010
,
1000
0001
0100
0001
1000
0100
1000
0001
0010
0100
1000
0001
,
1000
0010
0100
0001
1000
0010
1000
0100
0010
0001
0100
0001
,
1000
0100
1000
0001
1000
0100
0010
0001
1000
0001
0010
0001
,
1000
0100
1000
0001
0100
0001
1000
0010
0100
0010
1000
0100
,
0010
0001
0100
0010
1000
0001
0010
0100
1000
0010
1000
0001
,
0100
0001
1000
0010
0100
0010
1000
0001
0010
0100
1000
0010
,
0100
0010
1000
0001
1000
0001
0010
0100
1000
0010
1000
0010
,
1000
0001
0100
0001
0010
0100
1000
0001
1000
0001
0010
0100
,
1000
0010
0100
0001
0100
0001
1000
0001
0100
0001
1000
0010
,
1000
0001
0010
0001
1000
0100
0010
0001
0100
0001
0100
0010
,
1000
0100
1000
0001
0100
0001
1000
0001
0100
0010
0100
0010
,
1000
0001
0010
0001
1000
0100
1000
0001
0010
0100
0010
0001
,
1000
0100
1000
0001
0010
0001
0100
0010
1000
0001
1000
0001
,
0100
0010
1000
0001
0010
0001
0100
0001
1000
0010
0100
0001
,
1000
0010
1000
0100
0010
0001
1000
0100
0010
0100
1000
0001
,
0010
0100
1000
0001
0010
0001
1000
0010
0100
0010
1000
0100
,
0010
0001
1000
0010
0100
0001
1000
0001
0010
0100
1000
0010
,
2000
0000
0010
0000
,
3001
0000
0000
0000
1000
0000
1100
0000
0000
0000
1000
0000
,
0020
0000
1000
0000
,
0130
0010
1010
0001
,
0020
0000
0100
0000
,
0031
0010
0110
0010
,
0100
0000
1001
0001
,
0100
0000
1010
0000
,
0010
1000
1010
0001
,
0010
0000
0000
0000
0100
0000
1100
0000
0000
0000
0001
0000
,
0200
0000
0001
0310
,
0100
0010
1010
0010
,
0200
0000
0010
0301
,
0010
0100
0010
0001
,
1000
0100
1000
0100
,
0010
0001
0010
0000
0001
1000
0010
1000
,
0010
0000
0100
0001
0101
0000
0001
0000
,
1000
0100
0110
0010
,
0001
0000
1000
0100
1100
0000
0001
0000
,
0010
0100
1100
1000
,
0010
0000
1000
0001
1001
0000
0001
0000
,
1000
0010
0101
0001
,
1000
0000
0100
0010
0100
0000
0010
0000
,
0001
1000
0001
0100
,
0001
0000
1000
0010
1010
0000
0010
0000
,
0100
0001
1001
1000
,
0001
0000
0010
0001
0011
0000
0010
0000
,
0100
1000
1100
1000
,
0001
0000
0100
0010
0110
0000
0010
0000
,
1000
0001
0011
0010
,
0001
0000
1000
0010
0100
0000
0001
0000
,
1000
0010
1000
0000
0100
1000
0100
1000
,
0001
1000
0100
1000
0010
0100
0001
1000
0001
0100
0010
1000
,
0001
0100
0001
1000
0100
0010
0100
1000
0010
1000
0001
1000
,
0100
1000
0001
0010
0001
0100
0010
1000
0001
0010
0100
1000
,
0001
0100
0010
1000
0100
1000
0001
0010
0001
0100
0010
0100
,
0001
1000
0010
0100
0001
1000
0001
0010
0100
1000
0010
0100
,
0001
1000
0100
1000
0001
0010
0100
0010
0001
0100
0010
1000
,
0001
0100
0001
1000
0010
0100
0010
0100
0001
1000
0100
0010
,
0001
0100
0001
1000
0100
1000
0001
0100
0001
1000
0010
0100
,
0010
1000
0001
0100
0010
1000
0100
1000
0100
0010
0001
1000
,
0100
1000
0001
0010
0001
1000
0100
0010
0001
1000
0001
0100
,
0010
1000
0001
0100
0001
0010
0100
1000
0010
1000
0001
0100
,
0001
0010
0100
1000
0010
0100
0001
1000
0001
1000
0100
0010
,
0001
1000
0100
1000
0001
0010
0001
0100
0010
0100
0010
1000
,
0100
0010
0001
1000
0100
1000
0001
0010
0100
1000
0010
0100
,
0001
0010
0100
0010
0001
1000
0100
1000
0001
1000
0001
0100
,
0001
1000
0001
0100
0010
1000
0001
0010
0100
1000
0010
1000
,
0001
0010
0001
1000
0010
0100
0010
1000
0100
1000
0001
0010
,
0001
0100
0010
1000
0001
1000
0010
0100
0001
0100
0001
1000
,
0100
0010
0100
1000
0001
0100
0010
0100
0001
0010
0100
1000
,
0001
1000
0100
0010
0001
0100
0010
1000
0001
0100
0001
1000
,
0100
0010
0100
1000
0010
0100
0001
1000
0001
0010
0100
1000
,
0001
0010
0001
0100
0010
1000
0001
0100
0001
1000
0001
0100
,
0001
1000
0100
0010
0001
1000
0010
0100
0001
0010
0001
1000
,
0100
0010
0100
1000
0001
0010
0001
0100
0010
1000
0001
0100
,
0010
1000
0001
0100
0010
0100
0001
0010
0100
1000
0001
1000
,
0100
0010
0001
1000
0100
1000
0001
0010
0001
0100
0010
1000
,
0001
1000
0010
1000
0001
0100
0001
1000
0010
0100
0001
0100
,
0010
1000
0001
0010
0100
1000
0010
1000
0001
1000
0001
0010
,
0001
0100
0010
1000
0010
1000
0100
1000
0001
0010
0100
1000
,
0001
0100
0010
1000
0100
1000
0001
0100
0001
0010
0100
1000
,
0001
1000
0001
0100
0010
1000
0100
1000
0001
0100
0001
0010
,
0100
1000
0001
0010
0100
1000
0010
1000
0001
0100
0010
0100
,
0002
0000
0000
0000
,
1003
0000
0000
0000
0010
0000
0100
0000
0000
0000
0001
0000
,
0020
0000
0000
0000
,
0031
0010
0100
0010
,
0200
0000
0000
0000
,
1300
0001
0100
0001
,
0010
0000
0001
1000
,
0100
0000
0010
0000
,
0010
0000
0001
0010
0011
0000
1000
0000
,
0010
0100
0101
1000
,
0001
0000
0010
0100
1100
0000
1000
0000
,
0010
0100
0101
1000
,
0001
0000
1000
0010
1010
0000
1000
0000
,
0001
0010
0110
1000
,
0001
0000
1000
0100
1000
0000
0010
0000
,
1000
0010
1000
0000
0001
0010
0001
0010
,
0100
1000
1100
0000
,
1000
0001
0011
0001
,
0020
0000
0100
0000
,
0031
0000
0000
0010
0000
0000
0110
0000
0000
0000
1000
0000
,
0010
0000
0110
0000
,
0010
0100
0101
0100
,
0001
0010
1100
1000
,
0001
0000
1001
0001
,
0010
0000
0001
0100
0110
0000
1000
0000
,
0001
0010
1100
0100
,
1000
0000
0001
0100
0101
0000
0001
0000
,
1000
0010
1010
1000
,
0001
0000
0010
0100
0110
0000
1000
0000
,
0001
0100
1010
1000
,
0100
0000
0010
0001
0011
0000
1000
0000
,
0001
0010
0001
0000
0100
0010
0100
0010
,
1000
0010
0100
0010
,
0000
1000
1100
0100
,
1000
0100
0010
0100
,
0000
1000
1010
0010
,
0100
0001
1000
0100
,
0000
1000
1100
0100
,
1000
0001
0100
0001
,
0000
0010
0110
0010
,
0001
0000
0100
0010
0110
0000
0100
0000
,
0001
0010
0011
0010
,
0001
0000
0010
0100
0110
0000
0010
0000
,
0001
0100
0101
0100
,
0001
0000
1000
0100
1100
0000
1000
0000
,
0010
0100
0110
0100
,
0010
0000
1000
0001
1001
0000
0001
0000
,
0010
0001
0010
0000
0001
0100
0001
0100
;

//---------------dance-single - NC.BadLieutenant----------------
#NOTES:
     dance-single:
     NC.BadLieutenant:
     Hard:
     9:
     0.583,0.619,0.267,0.138,0.032,797.000,58.000,30.000,0.000,0.000:

0000
0000
0000
0000
,
1000
0000
0000
0000
0010
0000
0100
0000
0000
0000
0001
0000
,
0020
0000
0000
0000
,
0031
1000
0010
0100
,
0002
0000
0000
0000
,
1003
0100
0010
0100
,
0010
0000
0001
1000
,
0010
0000
0100
0000
,
0100
0001
0000
1000
,
0001
0000
0000
0000
0100
0000
0010
0000
0000
0000
1000
0000
,
0200
0000
0000
1300
,
0001
1000
0100
1000
,
0020
0000
0000
0130
,
0010
1000
0010
0100
,
0010
1000
0100
0010
,
0001
0000
0100
0010
,
1000
0100
0000
0000
,
1000
0001
0101
0001
,
0020
0000
0000
0000
,
0031
0000
0000
0010
0000
0000
0110
0000
0000
0000
1000
0000
,
0002
0000
0203
0000
,
0310
0100
0101
0100
,
0010
1000
0001
1000
,
0100
0000
0110
0100
,
1000
0010
0000
0100
,
0001
1000
1100
1000
,
0020
0000
0000
0130
,
0001
0010
0011
1000
,
0100
0000
0000
0000
1000
0000
0001
0000
0000
0010
0000
0000
,
0001
0100
0101
1000
,
0001
1000
0100
1000
,
0010
1000
0010
0000
0100
0001
0100
0001
,
1000
0000
0100
0000
0010
0000
0000
0010
,
0000
0001
0100
0000
0010
0000
0000
0100
,
0000
0000
0001
0000
0100
0000
0000
0100
,
0000
0010
1000
0000
0100
0000
0000
0010
,
0000
0000
0001
0000
1000
0000
0100
0010
,
0000
0100
0010
0000
0001
0000
0000
0100
,
0000
0000
0001
0100
0001
0000
1000
0000
,
0100
0000
0010
0000
0001
0000
0000
1000
,
0000
0000
0000
0000
0001
0010
0001
0010
,
0100
1000
0100
0000
0010
0000
0000
0000
,
0001
0100
0000
0100
0000
0100
0001
0000
,
0010
0100
0001
0100
,
1000
0000
0001
0100
0000
0010
1000
0100
,
0010
1000
0010
0001
,
1000
0001
0000
0000
0010
0000
0001
0010
,
0001
1000
0010
0000
0100
0000
0010
0000
,
1000
0000
0001
0000
0010
0000
0000
0100
,
0000
0100
1000
0000
0010
0000
0000
0100
,
0000
0000
0001
0100
0001
0000
1000
0001
,
0000
1000
0001
0010
0100
0000
0010
0100
,
0000
0000
1000
0000
0001
0000
1000
0010
,
0000
0100
0010
0000
1000
0000
0000
0001
,
0000
0010
0100
0000
1000
0000
0001
0100
,
0000
0001
0100
0000
0010
0000
0000
1000
,
0000
0000
0001
0010
0001
0000
1000
0100
,
0000
0000
0010
0000
0010
0000
0000
0001
,
0000
0000
1000
0010
1000
0000
0001
0100
,
0000
0000
0100
0000
0010
0000
0000
1000
,
0000
0000
0001
1000
0001
0000
0010
0100
,
0000
0000
0100
1000
0001
0000
0000
0100
,
0000
0000
0010
1000
0010
0000
1000
0100
,
0000
0000
0100
1000
0001
0000
0000
0000
,
1000
0000
0001
0000
1000
0100
1000
0010
,
0000
0100
0010
0000
0100
0000
0000
0000
,
0001
0010
0100
0000
0100
0000
1000
0010
,
0000
1000
0010
0000
0100
0000
0000
0001
,
1000
0100
1000
0000
0010
0000
0100
0001
,
0000
0100
0001
0000
1000
0000
0000
0001
,
1000
0100
0000
1000
0100
0000
1000
0100
,
0000
1000
0100
0000
0010
0000
0000
0000
,
0001
0000
0100
0000
0010
1000
0010
0000
,
1000
0100
0000
0100
0000
0100
0000
0010
,
0001
0000
1000
0000
0010
0100
0010
0000
,
1000
0010
0000
0010
0000
0010
0000
0100
,
0001
0100
0001
0000
1000
0000
0001
0010
,
0000
0001
0010
0000
0100
0000
1000
0010
,
1000
0000
0001
0100
0000
0100
0001
0100
,
0001
0010
0200
0000
,
2300
0000
0010
0000
,
3001
0000
0000
0000
1000
0000
1100
0000
0000
0000
1000
0000
,
0020
0000
1000
0000
,
0130
0010
1010
0001
,
0020
0000
0100
0000
,
0031
0010
0110
0010
,
0100
0000
1001
0001
,
0100
0000
1010
0000
,
0010
1000
1010
0001
,
0010
0000
0000
0000
0100
0000
1100
0000
0000
0000
0001
0000
,
0200
0000
0001
0310
,
0100
0010
1010
0010
,
0200
0000
0010
0301
,
0010
0100
0010
0001
,
1000
0100
1000
0100
,
0010
0001
0010
0000
0001
1000
0010
1000
,
0010
0000
0100
0001
0101
0000
0001
0000
,
1000
0100
0110
0010
,
0001
0000
1000
0100
1100
0000
0001
0000
,
0010
0100
1100
1000
,
0010
0000
1000
0001
1001
0000
0001
0000
,
1000
0010
0101
0001
,
1000
0000
0100
0010
0100
0000
0010
0000
,
0001
1000
0001
0100
,
0001
0000
1000
0010
1010
0000
0010
0000
,
0100
0001
1001
1000
,
0001
0000
0010
0001
0011
0000
0010
0000
,
0100
1000
1100
1000
,
0001
0000
0100
0010
0110
0000
0010
0000
,
1000
0001
0011
0010
,
0001
0000
1000
0010
0100
0000
0001
0000
,
1000
0010
1000
0000
0100
1000
0100
1000
,
0001
0000
0100
0000
0001
0000
1000
0100
,
1000
0100
2000
0000
3020
0000
0000
0130
,
0001
0000
1000
0100
0010
0000
0001
0010
,
0001
0000
1000
0000
0020
0000
0000
0130
,
0001
1000
0100
1000
0010
0000
0100
0001
,
0010
0000
0010
0000
0001
0000
0000
1000
,
0001
0010
0001
0010
0100
0000
1000
0010
,
0100
0100
0002
0000
,
1003
0100
0010
0100
1000
0000
0001
0100
,
0000
0001
0100
0000
0020
0000
0000
0000
,
1030
0010
0100
0010
1000
0000
0001
0010
,
0000
0001
0010
0000
0200
0000
0000
0010
,
0301
1000
0100
1000
0010
0000
0100
0001
,
0000
0100
0001
0000
2000
0000
3001
0010
,
0001
0000
0100
0010
1000
0010
0000
0100
,
0000
0001
0010
0000
0200
0000
0000
0000
,
1300
0001
2000
0000
,
3010
0100
0020
0000
,
1030
0000
0001
0010
0001
0000
1000
0001
,
0100
0000
0001
0000
0200
0000
0000
0310
,
1000
0100
1000
0000
0001
0000
0000
0000
,
1000
0100
1000
0100
1000
0000
0001
0000
,
0010
0100
0010
0100
0010
0000
0001
0000
,
0100
0010
0100
0010
0100
0000
0001
1000
,
0001
0000
0001
0000
0010
0000
0000
0100
,
1000
0001
1000
0000
0010
0000
0100
0010
,
1000
0000
0000
0100
0000
0000
0100
0000
0000
0000
0010
0000
0001
0000
0010
0000
,
0001
1000
0010
0100
,
0010
0000
1000
0001
0000
0001
0000
0010
,
0000
0010
0100
0000
1000
0000
0000
0000
,
0010
1000
0010
0000
1000
0100
0000
0100
,
0000
0010
0001
0000
0020
0000
0000
0000
,
0032
0000
0000
0000
,
1003
0000
0000
0000
0010
0000
0100
0000
0000
0000
0001
0000
,
0020
0000
0000
0000
,
0031
0010
0100
0010
,
0200
0000
0000
0000
,
1300
0001
0100
0001
,
0010
0000
0001
1000
,
0100
0000
0010
0000
,
0010
0000
0001
0010
0011
0000
1000
0000
,
0010
0100
0101
1000
,
0001
0000
0010
0100
1100
0000
1000
0000
,
0010
0100
0101
1000
,
0001
0000
1000
0010
1010
0000
1000
0000
,
0001
0010
0110
1000
,
0001
0000
1000
0100
1000
0000
0010
0000
,
1000
0010
1000
0000
0001
0010
0001
0010
,
0100
1000
1100
0000
,
1000
0001
0011
0001
,
0020
0000
0100
0000
,
0031
0000
0000
0010
0000
0000
0110
0000
0000
0000
1000
0000
,
0010
0000
0110
0000
,
0010
0100
0101
0100
,
0001
0010
1100
1000
,
0001
0000
1001
0001
,
0010
0000
0001
0100
0110
0000
1000
0000
,
0001
0010
1100
0100
,
1000
0000
0001
0100
0101
0000
0001
0000
,
1000
0010
1010
1000
,
0001
0000
0010
0100
0110
0000
1000
0000
,
0001
0100
1010
1000
,
0100
0000
0010
0001
0011
0000
1000
0000
,
0001
0010
0001
0000
0100
0010
0100
0010
,
1000
0010
0100
0010
,
0000
1000
1100
0100
,
1000
0100
0010
0100
,
0000
1000
1010
0010
,
0100
0001
1000
0100
,
0000
1000
1100
0100
,
1000
0001
0100
0001
,
0000
0010
0110
0010
,
0001
0000
0100
0010
0110
0000
0100
0000
,
0001
0010
0011
0010
,
0001
0000
0010
0100
0110
0000
0010
0000
,
0001
0100
0101
0100
,
0001
0000
1000
0100
1100
0000
1000
0000
,
0010
0100
0110
0100
,
0010
0000
1000
0001
1001
0000
0001
0000
,
0010
0001
0010
0000
0001
0100
0001
0100
;
