#TITLE:Poison;
#SUBTITLE:;
#ARTIST:Groove Coverage feat. Nightcore;
#TITLETRANSLIT:;
#SUBTITLETRANSLIT:;
#ARTISTTRANSLIT:;
#CREDIT:owenviau1;
#BANNER:../owenviau1 Simfiles 5-bn.png;
#BACKGROUND:../owenviau1 Simfiles 5-bg.png;
#LYRICSPATH:;
#CDTITLE:../ov1_title.png;
#MUSIC:Nightcore - Poison.mp3;
#OFFSET:-0.356;
#SAMPLESTART:61.885;
#SAMPLELENGTH:29.999;
#SELECTABLE:YES;
#DISPLAYBPM:166.740;
#BPMS:0.000=166.740,19.000=166.730,20.000=166.740;
#STOPS:;
#BGCHANGES:;
// cache tags:
#FIRSTBEAT:35.000;
#LASTBEAT:509.000;
#SONGFILENAME:Songs/owenviau1 Simfiles 5/Poison - [owenviau1] v1.3/Poison.sm;
#HASMUSIC:1;
#HASBANNER:1;
#MUSICLENGTH:183.693;
// end cache tags

//---------------dance-single - ----------------
#NOTES:
     dance-single:
     :
     Hard:
     9:
     0.760,0.901,0.114,0.724,0.117,823.000,21.000,133.000,5.000,3.000:
0000
0000
0000
0000
,
0000
0000
0000
0000
,
0000
0000
0000
0000
,
0000
0000
0000
0000
,
0000
0000
0000
0000
,
0000
0000
0000
0000
,
0000
0000
0000
0000
,
0000
0000
0000
0000
,
0000
0000
0000
0000
0000
0000
0010
0100
,
0001
1000
0001
0010
0001
0100
0010
1000
,
0001
0010
0100
1000
0010
0100
0001
1000
,
0001
0010
0001
1000
0010
0100
0001
0010
,
0100
1000
0010
0100
0001
1000
0001
0010
,
0001
0100
0010
1000
0100
1000
0001
0100
,
0010
1000
0100
0010
0001
0100
0010
1000
,
0100
1000
0001
0100
0010
1000
0001
0010
,
0001
0000
0100
0000
0010
0000
1000
0001
1000
0000
0001
0000
1001
0000
0010
0000
,
0100
0001
1000
0001
0010
0001
0100
0010
,
1000
0100
1000
0001
0100
0010
1000
0100
,
0010
0001
0100
0010
1000
0100
1000
0010
,
0100
0001
1000
0001
0010
0001
1000
0010
,
0100
0001
0010
0100
1000
0010
0100
0001
,
1000
0001
0010
0001
0100
0010
1000
0100
,
1000
0001
0100
0010
1000
0100
0010
0001
,
0100
0001
1000
0100
0010
0001
1002
0000
,
0000
M000
0000
M000
,
0000
M000
0000
1003
,
2000
3200
0301
1000
,
0002
0000
0000
0000
2003
0000
0000
0000
3010
0000
1000
0001
1000
0000
0000
0000
,
0020
0230
0301
1000
,
0002
0000
0000
0000
2003
0000
0000
0000
3100
0000
0001
0100
0001
0000
0000
0000
,
2000
3020
0130
0001
,
2000
0000
0000
0000
3200
0000
0000
0000
0310
0000
0001
1000
0001
0000
0000
0000
,
0020
0230
1300
0010
,
0002
0000
0203
0000
0301
1000
1002
0003
,
2000
3200
0320
0032
0003
0020
0230
2300
,
3002
0003
0200
2300
3020
0030
2000
3000
,
0200
0320
0032
2003
3000
0020
0230
0302
,
0023
0030
0200
2300
3002
0003
2000
3000
,
0200
0320
0032
0203
0300
2000
3020
0230
,
0302
0003
0020
0230
2300
3000
0002
0003
,
0020
0230
0302
2003
3000
0200
0320
0032
,
0003
2000
3020
0230
0300
0020
1031
0000
,
1000
0100
0010
0001
0000
1000
0001
0010
,
0100
0001
0010
0100
1000
0010
0100
0001
,
1000
0001
0010
0001
1000
0010
0100
0001
,
0010
0100
1000
0010
0100
0001
1000
0001
,
0010
0001
0100
0010
1000
0100
1000
0001
,
0100
0010
1000
0100
0010
0001
0100
0010
,
1000
0000
0100
0000
1000
0000
0001
0000
0100
0000
0010
0000
1000
0100
1000
0000
,
0001
0010
0100
1000
0001
0100
0020
0000
,
1031
0001
0010
0100
1000
0001
0100
1000
,
0010
0100
0001
1000
0001
0010
0001
1000
,
0010
0100
0001
0010
0100
1000
0010
0100
,
0001
1000
0001
0010
0001
0100
0010
1000
,
0100
1000
0001
0100
0010
1000
0100
0010
,
0001
0100
0010
1000
0100
1000
0001
0100
,
0010
1000
0100
0001
0010
0100
1000
0001
,
0100
0001
1000
0100
0010
0001
1010
0010
,
0100
0001
1000
0001
0010
0001
0100
0010
,
1000
0100
1000
0001
0100
0010
1000
0100
,
0010
0001
0100
0010
1000
0100
1000
0010
,
0100
0001
1000
0001
0010
0001
1000
0010
,
0100
0001
0010
0100
1000
0010
0100
0001
,
1000
0001
0010
0001
0100
0010
1000
0100
,
1000
0001
0100
0010
1000
0100
0010
0001
,
0100
0001
1000
0100
0010
0001
1001
0010
,
0100
0010
1000
0001
0010
0001
0100
0010
,
1000
0100
1000
0001
0100
0010
1000
0100
,
0010
0001
0100
0010
1000
0100
1000
0010
,
0100
0001
1000
0001
0010
0001
1000
0010
,
0100
0001
0010
0100
1000
0010
0100
0001
,
1000
0001
0010
0001
0100
0010
1000
0100
,
1000
0001
0100
0010
1000
0100
0010
0001
,
0100
0001
1000
0100
0010
0001
1001
0000
,
2000
3000
0020
0000
0000
0030
0000
0000
,
0002
0000
0003
0000
2000
0000
0000
0000
0000
0000
0000
0000
3M00
000M
0000
0000
,
0020
0030
0200
0000
0000
0000
0300
0000
,
2000
3000
0002
0000
0000
0000
1103
0000
,
0101
1001
0110
1010
,
0101
0000
1001
0000
0110
0000
1000
0010
,
1000
0001
0100
0010
1000
0001
0010
0001
,
0100
0000
0000
0010
0000
0000
1000
0000
0000
0100
0000
0000
0010
0000
0000
0001
0000
0000
0010
0000
0100
0000
1000
0000
,
0001
0100
0010
1000
0100
0010
0001
0000
0000
1001
0000
1000
,
0100
0000
0100
0010
0000
0010
0001
0000
0001
1000
0010
0100
,
0001
0000
0000
0010
0100
1000
0001
0000
0000
0010
0000
0010
,
0100
0000
0100
1000
0000
1000
0001
0000
0001
0100
0000
0100
,
0010
0000
0010
1000
0000
1000
0100
0000
0100
0010
0000
0010
,
0001
0000
0001
0100
0000
0100
0010
0000
0010
1000
0000
1000
,
0001
0000
0001
0010
0000
0010
0100
0000
0100
1000
0000
1000
,
0010
0000
0010
0100
0000
0100
0001
0000
0001
0010
0000
0010
,
0001
0000
0000
0000
0001
0000
1000
0000
0000
0000
1000
0000
0010
0000
0000
0000
0000
0000
0200
0000
0000
0300
0000
0000
,
2000
0000
0000
3002
,
0000
0000
0003
0000
0020
0030
0200
0000
,
2300
0000
3002
0203
0000
0320
0000
2030
,
0000
3200
0000
0300
0020
0000
0032
0003
,
2000
3200
0320
0032
0003
0020
0230
2300
,
3002
0003
0200
2300
3020
0030
2000
3000
,
0200
0320
0032
2003
3000
0020
0230
0302
,
0023
0030
0200
2300
3002
0003
2010
3000
,
0200
0320
0032
0203
0300
2000
3020
0030
,
0200
0302
0023
0230
0300
2000
3200
0300
,
0020
0230
0302
0003
0200
0320
2030
3200
,
0320
0032
0000
0000
0013
1000
1010
0000
,
1000
0010
0100
0001
0000
1000
0001
0010
,
0100
0001
0010
0100
1000
0010
0100
0001
,
1000
0001
0010
0001
1000
0010
0100
0001
,
0010
0100
1000
0010
0100
0001
1000
0001
,
0010
0001
0100
0010
1000
0100
1000
0001
,
0100
0010
1000
0100
0010
0001
0100
0010
,
1000
0100
1000
0001
0100
0010
1000
0100
,
0001
0010
0100
1000
0001
0100
1001
0001
,
0010
0100
1000
0001
0100
1000
0010
0100
,
0001
1000
0001
0010
0001
1000
0010
0100
,
0001
0010
0100
1000
0010
0100
0001
1000
,
0001
0010
0001
0100
0010
1000
0100
1000
,
0001
0100
0010
1000
0100
0010
0001
0100
,
0010
1000
0100
1000
0001
0100
0010
1000
,
0100
0001
0010
0100
1000
0001
0100
0001
,
1000
0100
0010
0001
1000
0010
0011
0100
,
1000
0001
0010
0001
0100
0010
1000
0100
,
1000
0001
0100
0010
1000
0100
0010
0001
,
0100
0010
1000
0100
1000
0010
0100
0001
,
1000
0001
0010
0001
1000
0010
0100
0001
,
0010
0100
1000
0010
0100
0001
1000
0001
,
0010
0001
0100
0010
1000
0100
1000
0001
,
0100
0010
1000
0100
0010
0001
0100
0001
,
1000
0002
0003
0000
0000
0000
0000
0000
;

//---------------dance-single - ----------------
#NOTES:
     dance-single:
     :
     Challenge:
     11:
     1.000,0.970,1.000,0.719,0.177,847.000,332.000,132.000,7.000,4.000:
0000
0000
0000
0000
,
0000
0000
0000
0000
,
0000
0000
0000
0000
,
0000
0000
0000
0000
,
0000
0000
0000
0000
,
0000
0000
0000
0000
,
0000
0000
0000
0000
,
0000
0000
0000
0000
,
0000
0000
0000
0000
0000
0000
1001
0010
,
0101
1000
0110
0100
1001
0010
1100
0001
,
0011
1000
0110
0001
1100
0010
0101
0010
,
1100
0001
0110
1000
0011
0100
1001
0001
,
0110
0001
1010
0100
1001
0001
0110
1000
,
0101
1000
0011
0001
1100
0001
0110
0100
,
1001
0010
0101
1000
0011
0010
1100
0010
,
0101
1000
0011
0100
1001
0010
1100
0010
,
0101
0000
0001
0000
1010
0000
0100
0010
0001
0000
1000
0000
1001
0000
0100
0000
,
0110
0001
1001
0010
0101
1000
0011
0001
,
1100
0001
1010
0100
0011
0100
1010
0100
,
1001
0100
0011
0001
1100
0001
0110
0010
,
0101
0010
1100
0100
0011
1000
0110
0100
,
1001
0100
1010
0001
1100
0100
0011
1000
,
0110
0010
1001
0010
0101
0010
1001
1000
,
0110
0001
1010
0001
0110
1000
0011
0100
,
1001
0000
0001
0000
0110
0000
1000
0100
0010
0000
0001
0000
1002
0000
0000
0000
,
0000
M000
0000
M000
,
0000
M000
0000
1003
,
2000
3200
0301
1100
,
0002
0000
0000
0000
2003
0000
0000
0000
3010
0000
0100
0001
1000
0000
0000
0000
,
0020
0230
0301
1010
,
0002
0000
0000
0000
2003
0000
0000
0000
3100
0000
0001
0100
0010
0000
0000
0000
,
2000
3020
0130
0101
,
2000
0000
0000
0000
3200
0000
0000
0000
0310
0000
0001
1000
0001
0000
0000
0000
,
0020
0230
1300
1010
,
0002
0000
0203
0000
0301
1000
1002
0003
,
2000
3200
0320
0032
0003
0020
0230
2300
,
3002
0003
0200
2300
3020
0030
2001
3000
,
0200
0320
0032
2003
3000
0020
0230
0302
,
0023
0030
0200
2300
3002
0003
2010
3000
,
0200
0320
0032
0203
0300
2000
3020
0230
,
0302
0000
0003
0000
0020
0000
0230
0000
2300
0000
3100
0010
2001
0000
3000
0000
,
0020
0230
0302
2003
3000
0200
0320
0032
,
0003
2000
3020
0230
0300
0020
1031
0000
,
1100
0110
0011
0101
0000
1000
1010
0001
,
0101
0010
1001
0100
0011
1000
1100
0001
,
0110
0100
1001
0010
0101
0100
1010
0001
,
1100
1000
0011
1000
0110
0100
1001
0100
,
1010
0001
1100
1000
0011
0100
1001
0010
,
0110
0001
1010
0100
1001
0010
0101
1000
,
0110
0000
0001
0000
1100
0000
0010
0000
1001
0000
0010
0000
1000
0100
0010
0000
,
0101
0110
0000
1100
0002
0000
0023
0000
,
1031
1100
0011
1000
0101
0010
1001
0010
,
0101
0100
1010
0001
1100
0010
0101
1000
,
0011
0001
1100
0010
0101
0100
1010
0100
,
1001
0100
0011
1000
0110
0001
1010
0001
,
1100
0100
0011
1000
0101
0100
1010
0001
,
1100
0001
0011
0100
1001
0010
0110
0001
,
1010
0100
1001
0010
0110
0001
1010
0100
,
1001
0010
1100
1000
0101
0010
1MM1
1000
,
0011
1000
0110
0100
1001
0100
1010
0001
,
1100
0010
0011
1000
0110
1000
0101
0010
,
1001
0010
1100
1000
0011
0100
1010
0001
,
0101
0010
1001
0100
0110
0001
1001
0100
,
0011
1000
0101
0100
1010
0001
1100
0001
,
0011
0100
1001
0010
0110
0001
1010
0100
,
1001
0010
0110
0001
1100
0010
0101
1000
,
0110
0000
0001
0000
1010
0000
1000
0001
0100
0000
0010
0000
1001
0000
0100
0000
,
0011
1000
0110
0100
1010
0100
1001
0010
,
0011
1000
0101
0100
1010
0001
1100
0010
,
0011
1000
0110
0100
1001
0100
1010
0001
,
1100
0000
0011
0100
1001
0100
1010
0010
,
0101
0010
1001
1000
0110
0001
1010
0100
,
0011
0001
1100
0001
0110
0100
1001
0100
,
1010
0000
1000
0000
0101
0000
1000
0000
0110
0000
0001
1000
0001
0000
0100
0000
,
0011
0000
1000
0000
0101
0000
0010
0000
1100
0000
0010
0100
1001
0000
0000
0000
,
2000
3000
0020
0000
0000
0030
0000
0000
,
0002
0000
0003
0000
2000
0000
0000
0000
0000
0000
0000
0000
3M00
000M
0000
0000
,
0020
0030
0200
0000
0000
0000
0300
0000
,
2000
3000
0002
0000
0000
0000
1103
0000
,
0101
1001
0110
1010
,
0101
0000
1001
0000
0110
0000
1100
0011
,
1001
0000
0110
0000
1010
0000
1001
0000
0101
0000
0110
0000
1000
0100
1000
0010
,
0100
0000
0000
0001
0000
0000
0100
0000
0000
0010
0000
0000
1000
0000
0000
0000
0000
0000
0010
0000
0000
0000
0000
0000
0100
0000
0000
0000
0000
0000
0001
0000
0000
0000
0000
0000
1000
0000
0000
0000
0001
0000
0000
0000
0100
0000
0000
0000
,
0001
1000
0100
0010
0001
1000
1001
0000
0000
1010
0000
0001
,
0101
0000
0100
0110
0000
0010
1010
0000
0000
1100
0010
0001
,
1001
0000
0000
1010
0010
0100
0101
0000
0000
1100
0000
0100
,
0110
0000
0010
0011
0000
0001
1001
0000
1000
1010
0000
0010
,
0110
0000
0100
0101
0000
0001
0011
0000
0010
0110
0000
0100
,
1100
0000
1000
1001
0000
0001
0101
0000
0100
0110
0000
0010
,
1010
0000
1000
1100
0000
0100
0110
0000
0010
0011
0000
0001
,
0101
0000
0000
0000
0000
0000
0000
0000
0100
0000
0000
0000
0110
0000
0000
0000
0000
0000
0000
0000
0010
0000
0000
0000
1010
0000
0000
0000
0000
0000
0000
0000
1000
0000
0000
0000
0100
0000
0000
0010
0000
0000
0001
0000
0000
1000
0000
0000
,
0010
0100
0001
1000
0001
0010
0100
1000
0100
0010
0001
0100
0020
0000
0030
0000
,
2000
0000
0000
3002
,
0000
0000
0003
0000
0020
0030
0200
0000
,
2300
0000
3002
0203
0000
0320
0000
2030
,
0000
3200
0000
0300
0020
0000
1032
0003
,
2000
3200
0320
0032
0003
0020
0230
2300
,
3002
0003
0200
2300
3020
0030
2001
3000
,
0200
0320
0032
2003
3000
0020
0230
0302
,
0023
0030
0200
2300
3002
0003
2010
3000
,
0200
0320
0032
0203
0300
2000
3020
0030
,
0200
0302
0023
0230
0300
2000
3200
0300
,
0020
0000
0230
0000
0302
0000
0003
0000
0020
0000
0130
1000
0001
0000
0200
0000
,
0320
0032
0000
0000
0103
1000
1010
0000
,
1100
0110
0101
1001
0000
1000
1010
0100
,
0011
1000
0110
0100
1001
0100
1010
0010
,
0101
1000
0011
0001
1100
0001
0110
0001
,
1010
0100
1001
0010
0101
0100
1010
0001
,
1100
0001
0011
0100
1001
0010
0110
0001
,
1010
0100
1001
0010
0101
1000
0011
0100
,
1010
0100
1001
0010
0101
1000
0110
0100
,
1010
0100
1001
0010
1000
0100
1001
0010
,
1100
0000
0001
1000
0010
0000
0100
0000
1001
0000
0100
0000
1010
0000
0010
0000
,
0101
1000
0110
0100
1010
0100
1001
0001
,
0110
0000
1000
0100
0010
0000
0100
0000
1001
0000
0010
0000
0101
0000
1000
0000
,
0011
0100
1100
0001
0110
1000
0101
0010
,
1001
0000
0010
0100
0001
0000
0100
0000
1010
0000
0100
0000
1001
0000
0010
0000
,
0110
1000
0101
0010
1100
0001
0110
0100
,
1001
0000
1000
0001
0100
0000
0010
0000
0101
0000
0100
0000
1010
0000
0001
0000
,
1100
0010
0011
1000
0110
0100
1001
0010
,
0101
0000
1000
0010
0100
0000
0001
0000
1010
0000
0001
0000
1100
0000
0100
0000
,
0011
0100
1001
0010
0101
1000
0110
0100
,
1010
0000
0001
0100
0010
0000
0001
0000
1100
0000
1000
0000
0011
0000
0100
0000
,
1010
0010
0101
0010
1001
0100
1010
0001
,
0110
0000
1000
0001
0010
0000
1000
0000
0011
0000
0100
0000
1001
0000
0001
0000
,
0110
1000
0101
0010
1001
0001
0110
0001
,
1100
0000
0010
0100
0001
0000
1000
0000
0011
0000
0100
0000
1010
0000
0001
0000
,
1010
0200
0300
0000
0000
0000
0000
0000
;
