#TITLE:do i smile?;
#SUBTITLE:;
#ARTIST:t+pazolite;
#TITLETRANSLIT:;
#SUBTITLETRANSLIT:;
#ARTISTTRANSLIT:;
#CREDIT:;
#BANNER:DIS-BN.png;
#BACKGROUND:;
#LYRICSPATH:;
#CDTITLE:;
#MUSIC:14 t+pazolite - do i smile.ogg;
#OFFSET:-0.068;
#SAMPLESTART:99.260;
#SAMPLELENGTH:12.000;
#SELECTABLE:YES;
#DISPLAYBPM:130.000:260.000;
#BPMS:0.000=130.000,62.000=260.000,64.000=520.000,66.000=260.000,128.000=520.000,130.000=260.000,194.000=130.000,328.000=65.000,329.000=130.000,335.000=65.000,336.000=132.500,337.000=135.000,338.000=137.500,339.000=140.000,340.000=145.000,341.000=147.500,342.000=150.000,343.000=152.500,344.000=155.000,345.000=157.500,346.000=160.000,347.000=162.500,348.000=165.000,349.000=167.500,350.000=170.000,351.000=175.000,352.000=180.000,353.000=185.000,354.000=190.000,355.000=195.000,360.000=210.000,364.000=220.000,368.000=230.000,372.000=240.000,374.000=245.000,376.000=250.000,378.000=255.000,380.000=260.000,382.000=265.000,384.000=270.000,385.000=275.000,386.000=280.000,387.000=285.000,388.000=290.000,389.000=295.000,390.000=300.000,392.000=305.000,394.000=310.000,396.000=315.000,400.000=320.000,430.000=160.000,431.000=174.620,432.500=185.200,434.000=191.880,435.500=210.500,437.000=238.940,438.500=261.560,440.000=277.780,441.500=285.800,443.000=305.220,444.500=323.040,446.000=342.459,447.500=360.299,449.000=382.919,450.500=404.739,452.000=420.959,453.500=405.759,455.000=435.579,456.500=462.998,458.000=493.618,459.500=532.818,461.000=569.617,462.500=600.817,464.000=632.016,465.500=660.016,467.000=686.416,468.500=712.815,470.000=740.015,471.500=767.214,473.000=794.414,474.500=820.813,476.000=847.213,477.500=872.813,479.000=900.012,480.500=924.812,482.000=1000.000,486.000=1100.000,493.000=1200.000,501.000=1300.000,505.000=1200.000,505.500=1100.000,506.000=1000.000,506.500=725.000,507.000=650.000,507.500=550.000,508.000=400.000,508.500=300.000,509.000=260.000,572.000=130.000,574.000=260.000,636.000=520.000,638.000=260.000,698.250=255.420,698.500=245.180,698.750=234.000,699.000=224.980,699.250=202.560,699.500=194.140,699.750=179.880,700.000=171.880,700.250=163.840,700.500=155.020,700.750=142.580,701.000=130.000,709.000=65.000,711.000=130.000,723.000=65.000,725.000=130.000,759.000=260.000,761.000=520.000,763.000=260.000,825.000=520.000,827.000=260.000;
#STOPS:64.000=0.058
,64.500=0.058
,65.000=0.058
,65.500=0.058
,128.000=0.058
,128.500=0.058
,129.000=0.058
,129.500=0.058
,509.000=0.231
,636.000=0.058
,636.500=0.058
,637.000=0.058
,637.500=0.058
,761.000=0.058
,761.500=0.058
,762.000=0.058
,762.500=0.058
,825.000=0.058
,825.500=0.058
,826.000=0.058
,826.500=0.058
;
#BGCHANGES:;
// cache tags:
#FIRSTBEAT:0.000;
#LASTBEAT:895.000;
#SONGFILENAME:Songs/SSSC Pack 2/do i smile - [Zarkonis]/do i smile.sm;
#HASMUSIC:1;
#HASBANNER:1;
#MUSICLENGTH:271.020;
// end cache tags

//---------------dance-single - Zarkonis----------------
#NOTES:
     dance-single:
     Zarkonis:
     Challenge:
     15:
     1.000,1.000,0.764,0.225,0.812,1742.000,207.000,61.000,327.000,14.000:



MMMM
0000
0000
0000
,
MMMM
0000
0000
0000
,
MMMM
0000
0000
0000
,
MMMM
0000
0000
0000
,
MMMM
0000
0000
0000
,
MMMM
0000
0000
0000
,
MMMM
0000
0000
0000
,
MMMM
0000
0000
0000
,
MMM1
0001
0001
0001
,
MM1M
0010
0010
0010
,
M1MM
0100
0100
0100
,
1MMM
1000
1000
1000
,
11M1
0010
0010
0010
,
1M11
0100
0100
0100
,
111M
0001
M111
1000
,
11M1
0000
1111
0000
2002
0000
0000
3000
,
1000
1000
1000
1000
1003
0001
1000
0100
,
1000
0010
0100
0010
1000
0001
0010
0100
,
1000
0001
1001
1000
1100
0100
0110
0000
,
2001
0000
0000
0001
0000
0000
3001
0000
0010
0000
0001
0010
0001
0000
1000
0010
,
1000
0001
0010
0100
1001
0000
1001
0000
,
0001
0010
0100
1000
0001
0100
0010
0100
,
0001
0010
0110
0100
1100
1000
1001
0000
,
1002
0000
0000
1000
0000
0000
1003
0000
0010
0000
1000
0010
1000
0000
0001
0010
,
0001
1000
0010
0100
1001
0000
1001
0000
,
1001
0001
0010
0100
1100
1000
0001
0100
,
0010
1000
1001
0001
0011
0010
0110
0000
,
1001
0000
0001
1000
0001
0000
1000
0000
0001
0000
1000
0100
1000
0000
0001
0100
,
0001
1000
1000
1000
1001
0000
1001
0000
,
1001
1000
0010
0100
0101
0001
1000
0100
,
0010
0001
1001
1000
1010
0010
0110
0000
,
1001
0000
1000
0001
1000
0000
0001
0000
2002
0000
0000
0000
0000
0000
0003
0000
,
0001
0001
0001
0001
3001
1000
0000
1100
,
0000
0001
0100
0010
1010
1000
1001
0001
,
0010
0000
0100
0000
1000
0100
1000
0100
1000
0000
0001
0000
0001
0000
1000
0000
,
2010
0000
0000
0010
0000
0000
3010
0000
1000
0100
1000
0000
0001
0100
0001
0100
,
0001
1000
1000
1000
1000
0001
0000
0011
,
0000
1000
0010
0100
0101
0001
1001
1000
,
0100
0000
0010
0000
0001
0010
0001
0010
0001
0000
1000
0000
1000
0000
0001
0000
,
0102
0000
0000
0100
0000
0000
0103
0000
0001
0010
0001
0000
1000
0010
1000
0010
,
1000
0001
0001
0001
0001
1000
0000
1010
,
0000
0001
0010
0100
1100
1000
1001
0001
,
0100
0000
0010
0000
1000
0010
1000
0010
1000
0000
0001
0000
0001
0000
1000
0000
,
2100
0000
0000
0100
0000
0000
3100
0000
1000
0010
1000
0000
0001
0010
0001
0010
,
0001
1000
1000
1000
1000
0001
0000
0101
,
0000
1000
0100
0010
0011
0001
1001
1000
,
0010
0000
0100
0000
0001
0100
0001
0100
0001
0000
1000
0000
1000
0000
0001
0000
,
0012
0000
0000
0010
0000
0000
0013
0000
0001
0000
0001
0000
1000
0000
0100
0000
,
1000
0000
0010
0000
0100
0000
0001
0000
1MM0
0100
1000
0100
1000
0100
1000
0100
,
0010
0010
0001
1000
0010
1000
0010
0100
0001
1000
0001
1000
0001
1000
0001
1000
,
0010
0010
0100
0001
0010
0001
0010
0100
1000
0010
1000
0010
1000
0010
1000
0010
,
0100
0100
0001
0010
0100
0010
0100
1000
0001
0100
0001
0100
0001
0100
0001
0100
,
0010
0010
1000
0100
0000
0010
0001
1000
0001
0010
0001
0010
0001
0010
0001
0010
,
0100
0100
1000
0001
0100
0001
0100
0010
1000
0001
1000
0001
1000
0001
1000
0001
,
0100
0100
0010
1000
0100
1000
0100
0010
0001
0100
0001
0100
0001
0100
0001
0100
,
0010
0010
1000
0100
0010
0100
0010
0001
1000
0010
1000
0010
1000
0010
1000
0010
,
0100
0100
0001
0010
0000
0100
1000
0001
0010
0000
0100
0000
0011
0000
1000
1000
,
0010
0100
0001
0010
0100
1000
0010
1000
0100
0000
0010
0000
1100
0000
0010
0000
,
0001
0001
0100
0010
1010
0000
0101
0000
0100
0000
0010
0000
0101
0000
1000
1000
,
0100
0010
0001
0100
0010
1000
0100
1000
0010
0000
0100
0000
1010
0000
0100
0000
,
0001
0001
0010
0100
1100
0000
0011
0000
0100
0000
0010
0000
1100
0000
0001
0001
,
0100
0010
1000
0100
0010
0001
0100
0001
0010
0000
0100
0000
0011
0000
0100
0000
,
1000
1000
0010
0100
0101
0000
1010
0000
0010
0000
0100
0000
1010
0000
0001
0001
,
0010
0100
1000
0010
0100
0001
0010
0001
0100
0000
0010
0000
0101
0000
0010
0000
,
1000
1000
0100
0010
0001
1000
0001
1000
0001
0000
1000
0000
1100
0000
0001
0100
,
0010
1000
0100
1000
0001
0010
0100
1000
0001
0000
1000
0000
1010
0000
0001
0010
,
0100
1000
0010
0100
0000
0010
0100
0010
1000
0000
0001
0000
0011
0000
1000
0010
,
0100
0001
0010
0001
1000
0100
0010
0001
1000
0000
0001
0000
0101
0000
1000
0100
,
0010
0001
0100
0010
0000
0010
0100
0001
1000
0000
0100
0000
0110
0000
0001
0100
,
0010
1000
0001
1000
0001
0010
0100
1000
0001
0000
0100
0000
0110
0000
1000
0100
,
0010
0001
1000
0001
0000
1000
0100
0010
0001
0000
0100
0000
0110
0000
1000
0100
,
0010
0001
1000
0001
1000
0010
0100
0001
1000
0000
0100
0000
0110
0000
1000
0001
,
1001
0000
1001
0000
1000
0010
0100
0001
1001
0000
1000
0000
1001
0000
0001
0100
,
0010
1000
0001
0010
0100
1000
0001
1000
0001
0000
0001
0000
1001
0000
1000
0100
,
0010
0001
1000
0010
0100
0001
1000
0001
1000
0000
1000
0000
1001
0000
0001
0010
,
0100
1000
0010
1000
0100
0010
0001
1000
0001
0000
0001
0000
1001
0000
1000
0010
,
0100
0001
0010
0100
0000
0100
1000
0001
1001
0000
1000
0000
1010
0000
0010
0100
,
0001
0010
0100
1000
0100
0010
0001
1000
0010
0000
0100
0000
0101
0000
0001
1000
,
0100
1000
0001
0100
0001
1000
0010
0100
0001
0000
1000
0000
1100
0000
0100
0010
,
0001
1000
0010
1000
0001
0010
0100
1000
0001
0000
1000
0000
1010
0000
0010
0100
,
0001
0000
0001
0000
1000
0000
0100
0000
0010
0001
0010
0000
0001
0000
1000
0000
1001
0000
0000
0000
0001
0000
0000
0000
0100
0000
0000
0000
0010
0000
1000
0000
,
1100
0100
0010
0001
1000
0010
1000
0001
0011
0000
1000
0000
1010
0000
0001
0000
,
0022
0000
0033
0000
1001
0000
1000
0000
0100
0000
0010
0001
0101
0100
0010
1000
,
0001
0010
0001
1000
1010
0000
0001
0000
0011
0000
1000
0000
2020
0000
3030
0000
,
1000
0100
1000
0100
2000
0000
0MMM
0000
3001
0100
0001
0100
0002
0000
MMM0
0000
,
0103
0001
0010
0001
0100
0010
1000
0001
0010
0100
1000
0001
2000
0000
0MMM
0000
,
3001
0100
0010
1000
0002
0000
MMM0
0000
1003
0100
0010
0001
2000
0000
0MMM
0000
,
3010
0100
0001
0100
0010
1000
0100
0010
0001
0010
0100
1000
0002
0000
MMM0
0000
,
1003
0010
0100
0010
2000
0000
0MMM
0000
3001
0010
0100
0010
0002
0000
MMM0
0000
,
1003
0010
1000
0010
0100
0001
0100
0001
1000
0100
1000
0100
0020
0000
MM0M
0000
,
0031
1000
0001
1000
0020
0000
0000
0000
1030
0001
1000
0001
0020
0000
0000
0000
,
0130
1000
0100
1000
0001
0100
0001
0100
0010
1000
0010
1000
0002
0000
0000
0000
,
1003
0100
1000
0100
2000
0000
0000
0000
3001
0010
0001
0010
0002
0000
0000
0000
,
1003
0001
1000
0001
1000
0001
1000
0001
1000
0001
1000
0001
2000
0000
0000
0000
,
3010
1000
0010
1000
0020
0000
0000
0000
0130
0001
0100
0001
0200
0000
0000
0000
,
0301
1000
0001
1000
0001
1000
0001
1000
0001
1000
0001
1000
0002
0000
0000
0000
,
1003
0100
1000
0000
0100
0000
0010
0000
0001
0010
0001
0000
1000
0000
0010
0000
,
1000
0001
1000
0000
0001
1000
0001
0000
1000
0001
1000
0000
0000
0000
0000
0000
,
0001
0010
0001
0000
0010
0000
0100
0000
1000
0100
1000
0000
0001
0000
0100
0000
,
0001
1000
0001
0000
1000
0001
1000
0000
0001
1000
0001
0000
0000
0000
0000
0000
,
1000
0100
1000
0100
1000
0100
1000
0001
0010
0001
1000
0010
,
0100
0001
0100
0001
0100
0001
0100
0010
1000
0001
0010
0001
,
1000
0010
1000
0010
1000
0010
1000
0001
0010
0001
1000
0100
,
0010
0001
0010
0001
0010
0001
0010
0100
1000
0001
0100
0001
,
1000
0100
1000
0100
1000
0100
1000
0001
0010
0001
1000
0010
,
0100
0001
0100
0001
0100
0001
0100
0010
1000
0001
0010
0001
,
1000
0010
1000
0010
1000
0010
1000
0001
0010
0001
1000
0100
,
0010
0000
0001
0000
0010
0000
0001
0000
0010
0000
0001
0000
2000
0000
0000
0000
3000
0000
40M4
0000
0000
0M00
0000
0000
,
00M0
0M00
00M0
0M00
00M0
0M00
00M0
0M00
,
00M0
0M00
00M0
0M00
00M0
0M00
00M0
0M00
,
00M0
0M00
00M0
0M00
00M0
0M00
00M0
0M00
,
00M0
0M00
00M0
0M00
00M0
0M00
00M0
0M00
,
00M0
0M00
00M0
0M00
00M0
0M00
00M0
0M00
,
00M0
0M00
00M0
0M00
00M0
0M00
00M0
0M00
,
00M0
0M00
00M0
0M00
00M0
0M00
00M0
0M00
,
00M0
0M00
00M0
0M00
00M0
0M00
00M0
0M00
,
00M0
0M00
00M0
0M00
00M0
0M00
00M0
0M00
,
00M0
0M00
00M0
0M00
00M0
0M00
00M0
0M00
,
00M0
0M00
00M0
0M00
00M0
0M00
00M0
0M00
,
00M0
0M00
00M0
0M00
00M0
0M00
00M0
0M00
,
00M0
0M00
00M0
0M00
00M0
0M00
00M0
0M00
,
00M0
0M00
00M0
0M00
00M0
0M00
00M0
0M00
,
00M0
0M00
00M0
0M00
00M0
0M00
00M0
0M00
,
00M0
0M00
00M0
0M00
00M0
0M00
00M0
0M00
,
00M0
0M00
00M0
0M00
00M0
0M00
00M0
0M00
,
00M0
0M00
00M0
0M00
00M0
0M00
00M0
0M00
,
00M0
0M00
00M0
0M00
00M0
0M00
00M0
0M00
,
00M0
0000
0M00
0000
3MM3
0000
0000
0000
0001
1000
0001
1000
0001
1000
0001
1000
,
0001
0010
0100
0000
0100
0000
0100
1000
,
0100
0100
1000
0010
0010
0100
0001
1000
,
0010
0100
0010
0000
0010
0000
0010
0100
,
0001
0001
1000
0100
M0MM
0100
0010
0001
,
1001
1000
0100
0000
0100
0000
0100
0010
,
0001
0001
1000
0010
0010
0100
0001
0010
,
0001
1000
0010
0000
0010
0000
0010
0100
,
0001
0001
0010
0100
11MM
0000
M1M1
0000
,
1MM1
0001
0010
0001
1000
0001
0100
0001
,
1000
1000
0100
0010
0010
0001
1000
0001
,
1001
1000
0100
1000
0010
1000
0001
1000
,
0010
0010
0100
0001
0101
0100
0110
0010
,
1010
1000
0001
0010
0100
1000
0010
0100
,
0101
0001
1000
0100
0010
0001
0100
0010
,
1010
1000
0001
0011
0010
0001
1001
1000
,
1MM1
0000
0000
0000
0002
0023
0230
2300
3001
0000
0100
0000
0110
0000
0010
0000
,
1010
1000
1001
0001
0010
0010
0100
1000
,
1000
0001
0010
0100
1100
1000
1001
0001
,
0010
0000
0001
1000
0001
0000
1000
0000
0001
0000
1000
0100
1000
0000
0001
0100
,
0001
1000
1000
1000
0001
0100
0110
0010
,
1010
1000
1001
0001
0010
0010
0100
1000
,
1000
0010
0100
0001
1001
1000
1100
0100
,
0010
0000
0001
1000
0001
0000
1000
0000
0001
0000
1000
0010
1000
0000
0001
0010
,
0001
0010
0010
0010
0100
1000
1001
0001
,
0101
0100
0110
0010
1000
1000
0001
0010
,
0010
0100
1000
0001
0011
0010
0110
0100
,
1000
0000
0001
1000
0001
0000
0100
0000
0010
0000
1000
0100
1000
0000
0001
0100
,
0001
0100
0100
0100
0010
0100
0110
0010
,
1010
1000
1001
0001
0010
0010
0100
1000
,
1000
0001
0010
0100
1100
1000
1001
0001
,
0010
0000
0001
1000
0001
0000
1000
0000
2002
0000
0000
0000
0000
0000
3000
0000
,
1000
1000
1000
1000
1003
0010
0110
0100
,
0101
0001
1001
1000
0100
0100
0010
0001
,
0001
1000
0100
0010
0011
0001
1001
1000
,
0100
0000
1000
0001
1000
0000
0001
0000
1000
0000
0001
0010
0001
0000
1000
0010
,
1000
0001
0001
0001
1000
0010
0110
0100
,
0101
0001
1001
1000
0100
0100
0010
0001
,
0001
0100
0010
1000
1001
0001
0011
0010
,
0100
0000
1000
0001
1000
0000
0001
0000
1000
0000
0001
0100
0001
0000
1000
0100
,
1000
0100
0010
0001
1000
0001
1001
1000
,
1010
0010
0110
0100
0001
0001
1000
0100
,
0100
0010
0001
1000
1100
0100
0110
0010
,
0001
0000
1000
0001
1000
0000
0010
0000
0100
0000
0001
0010
0001
0000
1000
0010
,
1000
0010
0010
0010
0100
0010
0110
0100
,
0101
0001
1001
1000
0100
0100
0010
0001
,
0001
1000
0100
0010
0011
0001
1001
1000
,
0100
0000
1000
0001
1000
0000
0001
0000
2MM2
0000
0000
0000
0000
0MM0
0000
0000
,
0000
0000
3MM3
0000
0001
0010
0001
0010
0001
0010
0001
0010
0100
0100
1000
0001
,
0100
0001
0100
0010
1000
0001
1000
0001
1000
0001
1000
0001
0100
0100
0010
1000
,
0100
1000
0100
0010
0002
0000
M0M0
0M00
MMM0
0M00
M0M0
0000
1113
0000
0000
0000
,
0000
0000
0000
0000
1001
0000
1020
0000
0000
1131
0000
0000
0001
0100
0001
0100
,
0001
0100
0001
0100
0010
0010
1000
0100
0010
0100
0010
0001
1000
0010
1000
0010
,
1000
0010
1000
0010
0100
0100
0001
0010
0000
0100
1000
0001
2000
0000
0M0M
00M0
,
0MMM
00M0
0M0M
0000
3111
0000
0000
0000
0000
0000
0000
0000
1001
0000
0201
0000
,
0000
1311
0000
0000
1111
0000
0000
0000
0000
0000
0000
0000
0000
0000
0000
0000
,
M00M
0MM0
MMMM
0MM0
M00M
0000
0000
0000
,
0000
1021
MM0M
0030
,
MMMM
2000
0MMM
3000
,
0000
1111
0000
0000
,
M00M
0MM0
MMMM
0MM0
M00M
0000
0000
0000
,
0000
1112
MMM0
0003
,
MMMM
0000
0020
0000
MM0M
0030
2002
0000
,
0000
0003
0001
0001
0001
0001
3001
1000
,
0001
0100
0001
0010
0100
0010
0001
1000
,
0010
0100
0001
1000
1001
0001
0101
0100
,
0110
0000
0000
0000
1002
0000
0000
1000
0000
0000
1003
0000
0010
0000
1000
0010
,
1000
0000
0001
0010
0001
0000
1000
0000
0010
0000
0100
0000
1001
0000
0000
0000
,
1001
0000
1000
0010
0100
0001
1000
0100
,
0010
0100
1000
0010
0110
0100
0101
0001
,
1001
0000
0000
0000
2001
0000
0000
0001
0000
0000
3001
0000
0010
0000
0001
0010
,
0001
0000
1000
0010
1000
0000
0001
0000
0010
0000
0100
0000
1001
0000
0000
0000
,
1001
0000
1001
1000
0010
0100
0101
0001
,
1000
0100
0010
0001
1001
1000
1010
0010
,
0110
0000
0000
0000
1001
0000
1000
0001
1000
0000
0001
0000
1000
0000
0001
0100
,
0001
0000
1000
0100
1000
0000
0001
0000
0001
0000
0001
0000
1001
0000
0000
0000
,
1001
0000
1001
0001
0010
0100
1100
1000
,
0001
0100
0010
1000
1001
0001
0011
0010
,
0110
0000
0000
0000
1001
0000
0001
1000
0001
0000
1000
0000
2002
0000
0000
0000
,
0000
3000
1000
1000
1000
1000
1003
0001
,
0000
0101
0000
1000
0100
0010
0011
0001
,
1001
0000
1000
0000
0010
0000
0100
0000
0001
0100
0001
0100
0001
0000
1000
0000
,
1000
0000
0001
0000
0012
0000
0000
0010
0000
0000
0013
0000
0001
0100
0001
0000
,
1000
0100
1000
0100
1000
0000
0001
0000
0001
0000
0001
0000
0001
0000
1000
0000
,
0000
1010
0000
0001
0010
0100
1100
1000
,
1001
0000
0001
0000
0100
0000
0010
0000
1000
0010
1000
0010
1000
0000
0001
0000
,
0001
0000
1000
0000
2100
0000
0000
0100
0000
0000
3100
0000
1000
0010
1000
0000
,
0001
0010
0001
0010
0001
0000
1000
0000
1000
0000
1000
0000
1000
0000
0001
0000
,
0000
0011
0000
1000
0010
0100
0101
0001
,
1001
0000
1000
0000
0100
0000
0010
0000
0001
0010
0001
0010
0001
0000
1000
0000
,
1000
0000
0001
0000
0102
0000
0000
0100
0000
0000
0103
0000
0001
0010
0001
0000
,
1000
0010
1000
0010
1000
0000
0001
0000
0001
0000
0001
0000
0001
0000
1000
0000
,
0000
1100
0000
0001
0100
0010
1010
1000
,
1001
0000
0001
0000
0010
0000
0100
0000
1000
0100
1000
0100
1000
0000
0001
0000
,
0001
0000
1000
0000
2010
0000
0000
0010
0000
0000
3010
0000
1000
0000
1000
0000
,
0001
0100
0001
0010
0100
1000
2002
0000
,
3003
0000
M00M
0MM0
MMMM
0MM0
M00M
0000
;
