#TITLE:140BPM Streamathon Warmup 2;
#SUBTITLE:;
#ARTIST:Phillip Alpha & Daniel Kandi;
#TITLETRANSLIT:;
#SUBTITLETRANSLIT:;
#ARTISTTRANSLIT:;
#CREDIT:;
#BANNER:140.PNG;
#BACKGROUND:;
#LYRICSPATH:;
#CDTITLE:;
#MUSIC:140BPM Streamathon Warmup 2.mp3;
#OFFSET:-0.039;
#SAMPLESTART:56.600;
#SAMPLELENGTH:29.999;
#SELECTABLE:YES;
#BPMS:0.000=140.000;
#STOPS:;
#BGCHANGES:;
// cache tags:
#FIRSTBEAT:0.000;
#LASTBEAT:989.000;
#SONGFILENAME:Songs/Owenviau1 Simfiles 4/140BPM Streamathon Warmup 2 [Wildfireskunk]/140BPM Streamathon Warmup 2.sm;
#HASMUSIC:1;
#HASBANNER:1;
#MUSICLENGTH:426.718;
// end cache tags

//---------------dance-single - Wildfireskunk----------------
#NOTES:
     dance-single:
     Wildfireskunk:
     Challenge:
     14:
     1.000,0.956,0.000,0.002,1.000,3900.000,0.000,1.000,0.000,0.000:

1000
0100
0010
0001
1000
0100
0010
0001
1000
0100
0010
0001
1000
0100
0010
0001
,
1000
0010
0100
0001
1000
0010
0100
0001
1000
0010
0100
0001
1000
0010
0100
0001
,
1000
0100
0010
0001
1000
0100
0010
0001
1000
0100
0010
0001
1000
0100
0010
0001
,
1000
0010
0100
0001
1000
0010
0100
0001
1000
0010
0100
0001
1000
0010
0100
0001
,
1000
0100
0010
0001
0010
0100
1000
0001
0100
0010
1000
0100
0010
0001
0010
0001
,
0100
0010
1000
0100
0010
0100
1000
0001
0100
0010
0100
0001
1000
0100
0010
0001
,
0100
0010
1000
0100
0010
0001
0100
0010
1000
0100
0010
0001
0100
0010
0100
0001
,
0010
0100
1000
0010
0100
0001
0010
0100
1000
0100
0010
0001
0010
0100
1000
0100
,
1000
0001
1000
0001
1000
0010
1000
0010
0100
0010
0100
0010
1000
0010
1000
0010
,
1000
0001
1000
0001
0010
0001
0010
0001
0100
0001
0100
0001
1000
0001
1000
0001
,
1000
0100
0010
0001
1000
0100
0010
0001
0010
0100
1000
0001
0010
0100
1000
0001
,
0100
0010
1000
0001
0100
0010
1000
0010
0100
0001
1000
0010
0100
0001
1000
0100
,
0010
0001
1000
0100
0010
0001
0010
0100
0010
0001
0010
0100
0010
0001
0010
0100
,
0010
0001
0100
0010
1000
0100
0010
0100
1000
0100
0010
0100
1000
0100
0010
0100
,
1000
0001
0010
0100
1000
0001
0010
0100
1000
0001
0010
0100
1000
0001
1000
0100
,
0010
0001
1000
0001
1000
0001
1000
0100
0010
0001
1000
0100
0010
0001
1000
0100
,
1000
0001
1000
0100
1000
0001
1000
0001
0100
0001
1000
0001
0100
0001
1000
0001
,
0100
0010
0100
0001
1000
0100
0010
0100
1000
0001
0100
0010
1000
0100
0010
0001
,
0010
0100
0010
0001
1000
0100
0010
0001
0010
0100
1000
0100
0010
0001
0010
0100
,
1000
0001
0100
0010
1000
0100
0010
0001
0100
0010
0100
0001
0010
0100
0010
0001
,
1000
0100
0010
0100
1000
0001
1000
0100
1000
0001
0100
0010
0100
0001
0100
0001
,
1000
0100
1000
0010
1000
0010
0100
0001
0100
0010
1000
0100
0010
0100
1000
0001
,
0100
0010
0100
0001
1000
0100
1000
0010
1000
0100
1000
0001
0100
0001
0010
0001
,
0100
0001
0010
0100
1000
0100
0010
0001
0010
0001
0010
0100
1000
0100
1000
0001
,
0100
0010
1000
0100
0010
0001
0010
0100
1000
0100
0010
0100
0010
0001
0010
0100
,
0010
0100
1000
0100
0010
0001
0100
0010
0100
0001
0100
0010
1000
0010
0100
0001
,
0100
0010
0100
0001
0010
0100
0010
0001
0010
0100
1000
0100
1000
0100
0010
0001
,
0100
0010
0100
0010
1000
0100
0010
0001
0010
0100
0010
0001
1000
0100
1000
0001
,
1000
0001
0100
0001
1000
0001
0100
0010
1000
0001
1000
0010
0100
0001
1000
0100
,
1000
0001
0010
0100
0010
0001
1000
0100
0010
0100
1000
0001
0010
0100
0010
0001
,
1000
0001
0100
0001
0010
0100
1000
0010
0100
0001
1000
0100
0010
0100
0010
0100
,
1000
0001
1000
0001
0100
0010
1000
0001
1000
0010
0100
0001
0100
0010
1000
0100
,
0010
0001
0010
0100
1000
0100
0010
0001
0010
0100
1000
0100
0010
0001
0010
0100
,
1000
0100
0010
0100
1000
0100
0010
0100
1000
0100
0010
0001
0010
0100
0010
0001
,
0010
0100
0010
0001
1000
0100
0010
0100
1000
0001
0100
0010
0100
0010
0100
0001
,
0010
0100
1000
0001
1000
0001
1000
0100
0010
0001
1000
0100
0010
0001
1000
0001
,
1000
0001
0010
0100
1000
0001
0010
0100
1000
0100
0010
0001
1000
0100
0010
0001
,
0100
0010
1000
0001
0100
0010
1000
0010
0100
0001
1000
0010
0100
0001
0100
0001
,
0010
0001
0100
0001
0010
0100
1000
0100
1000
0010
1000
0100
1000
0010
1000
0001
,
1000
0100
0010
0001
1000
0001
0010
0100
1000
0001
1000
0100
1000
0001
0100
0010
,
1000
0001
0100
0001
1000
0001
0100
0010
1000
0001
1000
0010
0100
0001
1000
0100
,
1000
0100
1000
0001
0010
0001
0010
0100
0010
0100
0010
0001
1000
0100
1000
0001
,
0100
0001
1000
0010
1000
0001
0100
0001
1000
0010
0100
0010
1000
0100
1000
0010
,
0100
0001
0010
0100
0010
0001
0100
0010
1000
0100
0010
0001
0010
0100
1000
0001
,
0100
0010
0100
0010
1000
0100
0010
0100
1000
0001
0100
0010
0100
0010
0100
0001
,
1000
0100
1000
0001
0100
0010
1000
0100
0010
0001
0100
0010
1000
0100
0010
0001
,
0010
0100
1000
0010
0100
0001
0010
0100
1000
0010
0100
0001
0010
0100
1000
0001
,
0010
0100
1000
0001
0010
0100
1000
0001
0010
0100
1000
0100
0010
0001
1000
0100
,
0010
0001
1000
0100
0010
0001
1000
0100
0010
0001
0010
0100
1000
0001
0010
0100
,
1000
0100
0010
0001
1000
0100
0010
0001
0010
0100
1000
0100
0010
0001
0010
0100
,
1000
0100
0010
0001
0010
0100
1000
0001
0010
0100
1000
0100
0010
0001
1000
0100
,
0010
0001
1000
0010
0100
0001
1000
0100
0010
0001
1000
0010
0100
0001
1000
0100
,
0010
0001
1000
0100
0010
0100
1000
0001
0010
0100
1000
0001
0100
0010
1000
0100
,
0010
0001
1000
0100
0010
0100
1000
0010
0100
0010
1000
0100
0010
0100
1000
0001
,
0010
0100
0010
0001
0100
0010
0100
0001
0010
0100
0010
0001
1000
0100
1000
0010
,
1000
0100
0010
0001
0100
0010
1000
0100
1000
0001
0100
0001
1000
0001
0010
0100
,
1000
0001
0100
0010
0100
0001
1000
0001
1000
0001
0100
0010
1000
0100
0010
0100
,
1000
0001
0100
0001
1000
0100
1000
0001
0100
0001
0010
0100
1000
0010
1000
0001
,
0010
0001
1000
0010
0100
0001
0010
0100
1000
0100
0010
0100
1000
0100
1000
0010
,
1000
0100
1000
0010
1000
0010
1000
0100
1000
0001
0010
0001
0100
0001
0010
0001
,
0100
0001
0010
0001
0100
0001
0010
0100
1000
0100
0010
0100
1000
0100
0010
0001
,
0010
0100
0010
0001
1000
0100
0010
0001
0010
0001
1000
0100
0010
0001
0010
0001
,
1000
0100
1000
0100
0010
0100
0010
0100
0010
0001
0010
0001
1000
0001
1000
0001
,
0100
0001
0100
0001
0010
0100
0010
0100
1000
0100
1000
0100
1000
0001
1000
0001
,
0010
0100
1000
0100
0010
0001
0100
0010
1000
0100
0010
0100
1000
0001
0010
0100
,
1000
0010
0100
0001
0010
0100
0010
0100
1000
0001
1000
0010
0100
0010
1000
0100
,
0010
0100
0010
0100
1000
0001
0100
0010
0100
0010
1000
0100
0010
0001
0010
0100
,
1000
0001
0100
0010
1000
0100
0010
0001
0010
0100
1000
0001
0010
0100
1000
0100
,
0010
0001
1000
0100
1000
0100
1000
0100
0010
0001
0010
0100
1000
0100
0010
0001
,
0010
0001
0010
0001
0010
0100
1000
0001
1000
0100
0010
0001
1000
0001
0100
0010
,
0100
0001
1000
0001
1000
0100
0010
0001
1000
0100
0010
0001
1000
0100
1000
0001
,
1000
0100
1000
0001
1000
0001
0100
0001
1000
0001
0100
0001
1000
0001
0100
0010
,
0100
0001
1000
0100
0010
0100
1000
0001
0100
0010
1000
0100
0010
0001
0010
0100
,
0010
0001
1000
0100
0010
0001
0010
0100
1000
0100
0010
0001
0010
0100
1000
0001
,
0010
0100
1000
0001
0100
0010
1000
0001
0100
0010
1000
0010
0100
0001
1000
0010
,
0100
0001
1000
0100
0010
0001
1000
0100
0010
0001
0010
0100
0010
0001
0100
0001
,
1000
0001
0010
0100
1000
0001
0100
0010
0100
0001
1000
0001
1000
0001
0100
0010
,
1000
0100
0010
0100
1000
0001
0100
0001
1000
0100
1000
0001
0100
0001
0010
0100
,
1000
0010
1000
0001
0010
0100
1000
0100
0010
0001
0010
0100
1000
0001
0100
0010
,
1000
0100
0010
0001
0010
0001
0100
0010
1000
0100
0010
0100
1000
0001
0100
0010
,
0100
0001
1000
0100
0010
0001
0100
0010
1000
0100
0010
0001
0100
0010
1000
0100
,
0010
0001
0100
0010
0100
0001
0010
0100
1000
0010
0100
0001
0010
0100
1000
0100
,
0010
0001
0010
0100
1000
0100
1000
0001
1000
0001
1000
0010
1000
0010
0100
0010
,
1000
0001
0100
0001
1000
0001
0100
0010
1000
0001
1000
0010
0100
0001
1000
0100
,
1000
0001
0010
0100
0010
0001
1000
0100
0010
0100
1000
0001
0010
0100
0010
0001
,
1000
0001
0100
0001
0010
0100
1000
0010
0100
0001
1000
0100
0010
0100
0010
0100
,
1000
0001
1000
0001
0100
0010
1000
0001
1000
0010
0100
0001
0100
0010
1000
0100
,
0010
0001
0010
0100
1000
0100
0010
0001
0010
0100
1000
0100
0010
0001
0010
0100
,
1000
0100
0010
0100
1000
0100
0010
0100
1000
0100
0010
0001
0010
0100
0010
0001
,
0010
0100
0010
0001
1000
0100
0010
0100
1000
0001
0100
0010
0100
0010
0100
0001
,
0010
0100
1000
0001
1000
0001
1000
0100
0010
0001
1000
0100
0010
0001
1000
0001
,
1000
0001
0010
0100
1000
0001
0010
0100
1000
0100
0010
0001
1000
0100
0010
0001
,
0100
0010
1000
0001
0100
0010
1000
0010
0100
0001
1000
0010
0100
0001
0100
0001
,
0010
0001
0100
0001
0010
0100
1000
0100
1000
0010
1000
0100
1000
0010
1000
0001
,
1000
0100
0010
0001
1000
0001
0010
0100
1000
0001
1000
0100
1000
0001
0100
0010
,
1000
0001
0100
0001
1000
0001
0100
0010
1000
0001
1000
0010
0100
0001
1000
0100
,
1000
0100
1000
0001
0010
0001
0010
0100
0010
0100
0010
0001
1000
0100
1000
0001
,
0100
0001
1000
0010
1000
0001
0100
0001
1000
0010
0100
0010
1000
0100
1000
0010
,
0100
0001
0010
0100
0010
0001
0100
0010
1000
0100
0010
0001
0010
0100
1000
0001
,
0100
0010
0100
0010
1000
0100
0010
0100
1000
0001
0100
0010
0100
0010
0100
0001
,
1000
0100
1000
0001
0100
0010
1000
0100
0010
0001
0100
0010
1000
0100
0010
0001
,
0010
0100
1000
0010
0100
0001
0010
0100
1000
0001
0100
0001
1000
0001
0100
0010
,
1000
0001
1000
0010
0100
0001
1000
0100
1000
0001
0010
0100
0010
0001
1000
0100
,
0010
0100
1000
0001
0010
0100
0010
0001
1000
0001
0100
0001
0010
0100
1000
0010
,
0100
0001
1000
0100
0010
0100
0010
0100
1000
0001
1000
0001
0100
0010
1000
0001
,
1000
0010
0100
0001
0100
0010
1000
0100
0010
0001
0010
0100
1000
0100
0010
0001
,
0010
0100
1000
0100
0010
0001
0010
0100
1000
0100
0010
0100
1000
0100
0010
0100
,
1000
0100
0010
0001
0010
0100
0010
0001
0010
0100
0010
0001
1000
0100
0010
0100
,
1000
0001
0100
0010
0100
0010
0100
0001
0010
0100
1000
0001
1000
0001
1000
0100
,
0010
0001
1000
0100
0010
0001
1000
0001
1000
0001
0010
0100
1000
0001
0010
0100
,
1000
0100
0010
0001
1000
0100
0010
0001
0100
0010
1000
0001
0100
0010
1000
0010
,
0100
0001
1000
0010
0100
0001
0100
0001
0010
0001
0100
0001
0010
0100
1000
0100
,
1000
0010
1000
0100
1000
0010
1000
0001
1000
0100
0010
0001
1000
0001
0010
0100
,
1000
0001
1000
0100
1000
0001
0100
0010
1000
0001
0100
0001
1000
0001
0100
0010
,
1000
0001
1000
0010
0100
0001
1000
0100
1000
0100
1000
0001
0010
0001
0010
0100
,
0010
0100
0010
0001
1000
0100
1000
0001
0100
0001
1000
0010
1000
0001
0100
0001
,
1000
0010
0100
0010
1000
0100
1000
0010
0100
0001
0010
0100
0010
0001
0100
0010
,
1000
0100
0010
0001
0010
0100
1000
0001
0100
0010
0100
0010
1000
0100
0010
0100
,
1000
0001
0100
0010
0100
0010
0100
0001
1000
0100
1000
0001
0100
0010
1000
0100
,
0010
0001
0100
0010
1000
0100
0010
0001
0010
0100
1000
0010
0100
0001
0010
0100
,
1000
0010
0100
0001
0010
0100
1000
0001
0010
0100
1000
0001
0010
0100
1000
0001
,
0010
0100
1000
0100
0010
0001
1000
0100
0010
0001
1000
0100
0010
0001
1000
0100
,
0010
0001
0010
0100
1000
0001
0010
0100
1000
0100
0010
0001
1000
0100
0010
0001
,
0010
0100
1000
0100
0010
0001
0010
0100
1000
0100
0010
0001
0010
0100
1000
0001
,
0010
0100
1000
0100
0010
0001
1000
0100
0010
0001
1000
0010
0100
0001
1000
0100
,
0010
0001
1000
0010
0100
0001
1000
0100
0010
0001
1000
0100
0010
0100
1000
0001
,
0010
0100
1000
0001
0100
0010
1000
0100
0010
0001
1000
0100
0010
0100
1000
0010
,
0100
0010
1000
0100
0010
0100
1000
0001
0010
0100
0010
0001
0100
0010
0100
0001
,
0010
0100
0010
0001
1000
0100
1000
0010
1000
0100
0010
0001
0100
0010
1000
0100
,
1000
0001
0100
0001
1000
0001
0010
0100
1000
0001
0100
0010
0100
0001
1000
0001
,
1000
0001
0100
0010
1000
0100
0010
0100
1000
0001
0100
0001
1000
0100
1000
0001
,
0100
0001
0010
0100
1000
0010
1000
0001
0010
0001
1000
0010
0100
0001
0010
0100
,
1000
0100
0010
0100
1000
0100
1000
0010
1000
0100
1000
0010
1000
0010
1000
0100
,
1000
0001
0010
0001
0100
0001
0010
0001
0100
0001
0010
0001
0100
0001
0010
0100
,
1000
0100
0010
0100
1000
0100
0010
0001
0010
0100
0010
0001
1000
0100
0010
0001
,
0010
0001
1000
0100
0010
0001
0010
0001
1000
0100
1000
0100
0010
0100
0010
0100
,
0010
0001
0010
0001
1000
0001
1000
0001
0100
0001
0100
0001
0010
0100
0010
0100
,
1000
0100
1000
0100
1000
0001
1000
0001
0010
0100
1000
0100
0010
0001
0100
0010
,
1000
0100
0010
0100
1000
0001
0010
0100
1000
0010
0100
0001
0010
0100
0010
0100
,
1000
0001
1000
0010
0100
0010
1000
0100
0010
0100
0010
0100
1000
0001
0100
0010
,
0100
0010
1000
0100
0010
0001
0010
0100
1000
0001
0100
0010
1000
0100
0010
0001
,
0010
0100
1000
0001
0010
0100
1000
0100
0010
0001
1000
0100
1000
0100
1000
0100
,
0010
0001
0010
0100
1000
0100
0010
0001
0010
0001
0010
0001
0010
0100
1000
0001
,
1000
0100
0010
0001
1000
0001
0100
0010
0100
0001
1000
0001
1000
0100
0010
0001
,
1000
0100
0010
0001
1000
0100
1000
0001
1000
0100
1000
0001
1000
0001
0100
0001
,
1000
0001
0100
0001
1000
0001
0100
0010
0100
0001
1000
0100
0010
0100
1000
0001
,
0100
0010
1000
0100
0010
0001
0010
0100
0010
0001
1000
0100
0010
0001
0010
0100
,
1000
0100
0010
0001
0010
0100
1000
0001
0010
0100
1000
0001
0100
0010
1000
0001
,
0100
0010
1000
0010
0100
0001
1000
0010
0100
0001
1000
0100
0010
0001
1000
0100
,
0010
0001
0010
0100
0010
0001
0100
0001
1000
0001
0010
0100
1000
0001
0100
0010
,
0100
0001
1000
0001
1000
0001
0100
0010
1000
0100
0010
0100
1000
0001
0100
0001
,
1000
0100
1000
0001
0100
0001
0010
0100
1000
0010
1000
0001
0010
0100
1000
0100
,
0010
0001
0010
0100
1000
0001
0100
0010
1000
0100
0010
0001
0010
0001
0100
0010
,
1000
0100
0010
0100
1000
0001
0100
0010
0100
0001
1000
0100
0010
0001
0100
0010
,
1000
0100
0010
0001
0100
0010
1000
0100
0010
0001
0100
0010
0100
0001
0010
0100
,
1000
0010
0100
0001
0010
0100
1000
0100
0010
0001
0010
0100
1000
0100
1000
0001
,
1000
0001
1000
0010
1000
0010
0100
0010
1000
0001
0100
0001
1000
0001
0100
0010
,
1000
0001
1000
0010
0100
0001
1000
0100
1000
0001
0010
0100
0010
0001
1000
0100
,
0010
0100
1000
0001
0010
0100
0010
0001
1000
0001
0100
0001
0010
0100
1000
0010
,
0100
0001
1000
0100
0010
0100
0010
0100
1000
0001
1000
0001
0100
0010
1000
0001
,
1000
0010
0100
0001
0100
0010
1000
0100
0010
0001
0010
0100
1000
0100
0010
0001
,
0010
0100
1000
0100
0010
0001
0010
0100
1000
0100
0010
0100
1000
0100
0010
0100
,
1000
0100
0010
0001
0010
0100
0010
0001
0010
0100
0010
0001
1000
0100
0010
0100
,
1000
0001
0100
0010
0100
0010
0100
0001
0010
0100
1000
0001
1000
0001
1000
0100
,
0010
0001
1000
0100
0010
0001
1000
0001
1000
0001
0010
0100
1000
0001
0010
0100
,
1000
0100
0010
0001
1000
0100
0010
0001
0100
0010
1000
0001
0100
0010
1000
0010
,
0100
0001
1000
0010
0100
0001
0100
0001
0010
0001
0100
0001
0010
0100
1000
0100
,
1000
0010
1000
0100
1000
0010
1000
0001
1000
0100
0010
0001
1000
0001
0010
0100
,
1000
0001
1000
0100
1000
0001
0100
0010
1000
0001
0100
0001
1000
0001
0100
0010
,
1000
0001
1000
0010
0100
0001
1000
0100
1000
0100
1000
0001
0010
0001
0010
0100
,
0010
0100
0010
0001
1000
0100
1000
0001
0100
0001
1000
0010
1000
0001
0100
0001
,
1000
0010
0100
0010
1000
0100
1000
0010
0100
0001
0010
0100
0010
0001
0100
0010
,
1000
0100
0010
0001
0010
0100
1000
0001
0100
0010
0100
0010
1000
0100
0010
0100
,
1000
0001
0100
0010
0100
0010
0100
0001
1000
0100
1000
0001
0100
0010
1000
0100
,
0010
0001
0100
0010
1000
0100
0010
0001
0010
0100
1000
0010
0100
0001
0010
0100
,
1000
0100
0010
0001
1000
0010
0100
0001
1000
0100
0010
0001
1000
0010
0100
0001
,
1000
0010
0100
0001
1000
0100
0010
0001
1000
0010
0100
0001
1000
0100
0010
0001
,
1000
0010
0100
0001
1000
0100
0010
0001
1000
0100
0010
0001
1000
0100
0010
0001
,
1000
0010
0100
0001
1000
0010
0100
0001
1000
0010
0100
0001
1000
0100
0010
0001
,
1000
0100
0010
0001
0010
0100
1000
0001
0100
0010
1000
0100
0010
0001
0010
0001
,
0100
0010
1000
0100
0010
0100
1000
0001
0100
0010
0100
0001
1000
0100
0010
0001
,
0100
0010
1000
0100
0010
0001
0100
0010
1000
0100
0010
0001
0100
0010
0100
0001
,
0010
0100
1000
0010
0100
0001
0010
0100
1000
0100
0010
0001
0010
0100
1000
0100
,
1000
0001
1000
0001
1000
0010
1000
0010
0100
0010
0100
0010
1000
0010
1000
0010
,
1000
0001
1000
0001
0010
0001
0010
0001
0100
0001
0100
0001
1000
0001
1000
0001
,
1000
0100
0010
0001
1000
0100
0010
0001
0010
0100
1000
0001
0010
0100
1000
0001
,
0100
0010
1000
0001
0100
0010
1000
0010
0100
0001
1000
0010
0100
0001
1000
0100
,
0010
0001
1000
0100
0010
0001
0010
0100
0010
0001
0010
0100
0010
0001
0010
0100
,
0010
0001
0100
0010
1000
0100
0010
0100
1000
0100
0010
0100
1000
0100
0010
0100
,
1000
0001
0010
0100
1000
0001
0010
0100
1000
0001
0010
0100
1000
0001
1000
0100
,
0010
0001
1000
0001
1000
0001
1000
0100
0010
0001
1000
0100
0010
0001
1000
0100
,
1000
0001
1000
0100
1000
0001
1000
0001
0100
0001
1000
0001
0100
0001
1000
0001
,
0100
0010
0100
0001
1000
0100
0010
0100
1000
0001
0100
0010
1000
0100
0010
0001
,
0010
0100
0010
0001
1000
0100
0010
0001
0010
0100
1000
0100
0010
0001
0010
0100
,
1000
0001
0100
0010
1000
0100
0010
0001
0100
0010
0100
0001
0010
0100
0010
0001
,
1000
0100
0010
0100
1000
0001
1000
0100
1000
0001
0100
0010
0100
0001
0100
0001
,
1000
0100
1000
0010
1000
0010
0100
0001
0100
0010
1000
0100
0010
0100
1000
0001
,
0100
0010
0100
0001
1000
0100
1000
0010
1000
0100
1000
0001
0100
0001
0010
0001
,
0100
0001
0010
0100
1000
0100
0010
0001
0010
0001
0010
0100
1000
0100
1000
0001
,
0100
0010
1000
0100
0010
0001
0010
0100
1000
0100
0010
0100
0010
0001
0010
0100
,
0010
0100
1000
0100
0010
0001
0100
0010
0100
0001
0100
0010
1000
0010
0100
0001
,
0100
0010
0100
0001
0010
0100
0010
0001
0010
0100
1000
0100
1000
0100
0010
0001
,
0100
0010
0100
0010
1000
0100
0010
0001
0010
0100
0010
0001
1000
0100
1000
0001
,
1000
0001
0100
0001
1000
0001
0100
0010
1000
0001
1000
0010
0100
0001
1000
0100
,
1000
0001
0010
0100
0010
0001
1000
0100
0010
0100
1000
0001
0010
0100
0010
0001
,
1000
0001
0100
0001
0010
0100
1000
0010
0100
0001
1000
0100
0010
0100
0010
0100
,
1000
0001
1000
0001
0100
0010
1000
0001
1000
0010
0100
0001
0100
0010
1000
0100
,
0010
0001
0010
0100
1000
0100
0010
0001
0010
0100
1000
0100
0010
0001
0010
0100
,
1000
0100
0010
0100
1000
0100
0010
0100
1000
0100
0010
0001
0010
0100
0010
0001
,
0010
0100
0010
0001
1000
0100
0010
0100
1000
0001
0100
0010
0100
0010
0100
0001
,
0010
0100
1000
0001
1000
0001
1000
0100
0010
0001
1000
0100
0010
0001
1000
0001
,
1000
0001
0010
0100
1000
0001
0010
0100
1000
0100
0010
0001
1000
0100
0010
0001
,
0100
0010
1000
0001
0100
0010
1000
0010
0100
0001
1000
0010
0100
0001
0100
0001
,
0010
0001
0100
0001
0010
0100
1000
0100
1000
0010
1000
0100
1000
0010
1000
0001
,
1000
0100
0010
0001
1000
0001
0010
0100
1000
0001
1000
0100
1000
0001
0100
0010
,
1000
0001
0100
0001
1000
0001
0100
0010
1000
0001
1000
0010
0100
0001
1000
0100
,
1000
0100
1000
0001
0010
0001
0010
0100
0010
0100
0010
0001
1000
0100
1000
0001
,
0100
0001
1000
0010
1000
0001
0100
0001
1000
0010
0100
0010
1000
0100
1000
0010
,
0100
0001
0010
0100
0010
0001
0100
0010
1000
0100
0010
0001
0010
0100
1000
0001
,
0100
0010
0100
0010
1000
0100
0010
0100
1000
0001
0100
0010
0100
0010
0100
0001
,
1000
0100
1000
0001
0100
0010
1000
0100
0010
0001
0100
0010
1000
0100
0010
0001
,
0010
0100
1000
0010
0100
0001
0010
0100
1000
0010
0100
0001
0010
0100
1000
0001
,
0010
0100
1000
0001
0010
0100
1000
0001
0010
0100
1000
0100
0010
0001
1000
0100
,
0010
0001
1000
0100
0010
0001
1000
0100
0010
0001
0010
0100
1000
0001
0010
0100
,
1000
0100
0010
0001
1000
0100
0010
0001
0010
0100
1000
0100
0010
0001
0010
0100
,
1000
0100
0010
0001
0010
0100
1000
0001
0010
0100
1000
0100
0010
0001
1000
0100
,
0010
0001
1000
0010
0100
0001
1000
0100
0010
0001
1000
0010
0100
0001
1000
0100
,
0010
0001
1000
0100
0010
0100
1000
0001
0010
0100
1000
0001
0100
0010
1000
0100
,
0010
0001
1000
0100
0010
0100
1000
0010
0100
0010
1000
0100
0010
0100
1000
0001
,
0010
0100
0010
0001
0100
0010
0100
0001
0010
0100
0010
0001
1000
0100
1000
0010
,
1000
0100
0010
0001
0100
0010
1000
0100
1000
0001
0100
0001
1000
0001
0010
0100
,
1000
0001
0100
0010
0100
0001
1000
0001
1000
0001
0100
0010
1000
0100
0010
0100
,
1000
0001
0100
0001
1000
0100
1000
0001
0100
0001
0010
0100
1000
0010
1000
0001
,
0010
0001
1000
0010
0100
0001
0010
0100
1000
0100
0010
0100
1000
0100
1000
0010
,
1000
0100
1000
0010
1000
0010
1000
0100
1000
0001
0010
0001
0100
0001
0010
0001
,
0100
0001
0010
0001
0100
0001
0010
0100
1000
0100
0010
0100
1000
0100
0010
0001
,
0010
0100
0010
0001
1000
0100
0010
0001
0010
0001
1000
0100
0010
0001
0010
0001
,
1000
0100
1000
0100
0010
0100
0010
0100
0010
0001
0010
0001
1000
0001
1000
0001
,
0100
0001
0100
0001
0010
0100
0010
0100
1000
0100
1000
0100
1000
0001
1000
0001
,
0010
0100
1000
0100
0010
0001
0100
0010
1000
0100
0010
0100
1000
0001
0010
0100
,
1000
0010
0100
0001
0010
0100
0010
0100
1000
0001
1000
0010
0100
0010
1000
0100
,
0010
0100
0010
0100
1000
0001
0100
0010
0100
0010
1000
0100
0010
0001
0010
0100
,
1000
0001
0100
0010
1000
0100
0010
0001
0010
0100
1000
0001
0010
0100
1000
0100
,
0010
0001
1000
0100
1000
0100
1000
0100
0010
0001
0010
0200
0000
0000
0000
0000
,
0000
0000
0000
0000
,
0000
0000
0000
0000
,
0000
0000
0000
0000
,
0000
0300
0000
0000
;

//---------------dance-single - ----------------
#NOTES:
     dance-single:
     :
     Hard:
     9:
     0.653,0.493,0.000,0.002,0.000,1950.000,0.000,1.000,0.000,0.000:

1000
0100
0010
0001
0100
0001
0010
0100
,
1000
0001
0100
0010
1000
0100
0010
0100
,
0001
0100
0010
1000
0100
0010
0001
0100
,
0010
1000
0001
0100
0010
1000
0100
0010
,
0001
0100
0001
1000
0010
0001
0100
0010
,
0100
0001
1000
0010
0100
0010
1000
0001
,
0100
0010
1000
0100
0001
0100
0010
0001
,
1000
0010
0001
0010
1000
0001
0100
0001
,
0010
0100
1000
0001
0010
1000
0100
0001
,
1000
0100
0010
0001
0100
0001
0010
0100
,
1000
0001
0100
0010
1000
0100
0010
0100
,
0001
0100
0010
1000
0100
0010
0001
0100
,
0010
1000
0001
0100
0010
1000
0100
0010
,
0001
0100
0001
1000
0010
0001
0100
0010
,
0100
0001
1000
0010
0100
0010
1000
0001
,
0100
0010
1000
0100
0001
0100
0010
0001
,
1000
0010
0001
0010
1000
0001
0100
0001
,
0010
0100
1000
0001
0010
1000
0100
0001
,
1000
0100
0010
0001
0100
0001
0010
0100
,
1000
0001
0100
0010
1000
0100
0010
0100
,
0001
0100
0010
1000
0100
0010
0001
0100
,
0010
1000
0001
0100
0010
1000
0100
0010
,
0001
0100
0001
1000
0010
0001
0100
0010
,
0100
0001
1000
0010
0100
0010
1000
0001
,
0100
0010
1000
0100
0001
0100
0010
0001
,
1000
0010
0001
0010
1000
0001
0100
0001
,
0010
0100
1000
0001
0010
1000
0100
0001
,
1000
0100
0010
0001
0100
0001
0010
0100
,
1000
0001
0100
0010
1000
0100
0010
0100
,
0001
0100
0010
1000
0100
0010
0001
0100
,
0010
1000
0001
0100
0010
1000
0100
0010
,
0001
0100
0001
1000
0010
0001
0100
0010
,
0100
0001
1000
0010
0100
0010
1000
0001
,
0100
0010
1000
0100
0001
0100
0010
0001
,
1000
0010
0001
0010
1000
0001
0100
0001
,
0010
0100
1000
0001
0010
1000
0100
0001
,
1000
0100
0010
0001
0100
0001
0010
0100
,
1000
0001
0100
0010
1000
0100
0010
0100
,
0001
0100
0010
1000
0100
0010
0001
0100
,
0010
1000
0001
0100
0010
1000
0100
0010
,
0001
0100
0001
1000
0010
0001
0100
0010
,
0100
0001
1000
0010
0100
0010
1000
0001
,
0100
0010
1000
0100
0001
0100
0010
0001
,
1000
0010
0001
0010
1000
0001
0100
0001
,
0010
0100
1000
0001
0010
1000
0100
0001
,
1000
0100
0010
0001
0100
0001
0010
0100
,
1000
0001
0100
0010
1000
0100
0010
0100
,
0001
0100
0010
1000
0100
0010
0001
0100
,
0010
1000
0001
0100
0010
1000
0100
0010
,
0001
0100
0001
1000
0010
0001
0100
0010
,
0100
0001
1000
0010
0100
0010
1000
0001
,
0100
0010
1000
0100
0001
0100
0010
0001
,
1000
0010
0001
0010
1000
0001
0100
0001
,
0010
0100
1000
0001
0010
1000
0100
0001
,
1000
0100
0010
0001
0100
0001
0010
0100
,
1000
0001
0100
0010
1000
0100
0010
0100
,
0001
0100
0010
1000
0100
0010
0001
0100
,
0010
1000
0001
0100
0010
1000
0100
0010
,
0001
0100
0001
1000
0010
0001
0100
0010
,
0100
0001
1000
0010
0100
0010
1000
0001
,
0100
0010
1000
0100
0001
0100
0010
0001
,
1000
0010
0001
0010
1000
0001
0100
0001
,
0010
0100
1000
0001
0010
1000
0100
0001
,
1000
0100
0010
0001
0100
0001
0010
0100
,
1000
0001
0100
0010
1000
0100
0010
0100
,
0001
0100
0010
1000
0100
0010
0001
0100
,
0010
1000
0001
0100
0010
1000
0100
0010
,
0001
0100
0001
1000
0010
0001
0100
0010
,
0100
0001
1000
0010
0100
0010
1000
0001
,
0100
0010
1000
0100
0001
0100
0010
0001
,
1000
0010
0001
0010
1000
0001
0100
0001
,
0010
0100
1000
0001
0010
1000
0100
0001
,
1000
0100
0010
0001
0100
0001
0010
0100
,
1000
0001
0100
0010
1000
0100
0010
0100
,
0001
0100
0010
1000
0100
0010
0001
0100
,
0010
1000
0001
0100
0010
1000
0100
0010
,
0001
0100
0001
1000
0010
0001
0100
0010
,
0100
0001
1000
0010
0100
0010
1000
0001
,
0100
0010
1000
0100
0001
0100
0010
0001
,
1000
0010
0001
0010
1000
0001
0100
0001
,
0010
0100
1000
0001
0010
1000
0100
0001
,
1000
0100
0010
0001
0100
0001
0010
0100
,
1000
0001
0100
0010
1000
0100
0010
0100
,
0001
0100
0010
1000
0100
0010
0001
0100
,
0010
1000
0001
0100
0010
1000
0100
0010
,
0001
0100
0001
1000
0010
0001
0100
0010
,
0100
0001
1000
0010
0100
0010
1000
0001
,
0100
0010
1000
0100
0001
0100
0010
0001
,
1000
0010
0001
0010
1000
0001
0100
0001
,
0010
0100
1000
0001
0010
1000
0100
0001
,
1000
0100
0010
0001
0100
0001
0010
0100
,
1000
0001
0100
0010
1000
0100
0010
0100
,
0001
0100
0010
1000
0100
0010
0001
0100
,
0010
1000
0001
0100
0010
1000
0100
0010
,
0001
0100
0001
1000
0010
0001
0100
0010
,
0100
0001
1000
0010
0100
0010
1000
0001
,
0100
0010
1000
0100
0001
0100
0010
0001
,
1000
0010
0001
0010
1000
0001
0100
0001
,
0010
0100
1000
0001
0010
1000
0100
0001
,
1000
0100
0010
0001
0100
0001
0010
0100
,
1000
0001
0100
0010
1000
0100
0010
0100
,
0001
0100
0010
1000
0100
0010
0001
0100
,
0010
1000
0001
0100
0010
1000
0100
0010
,
0001
0100
0001
1000
0010
0001
0100
0010
,
0100
0001
1000
0010
0100
0010
1000
0001
,
0100
0010
1000
0100
0001
0100
0010
0001
,
1000
0010
0001
0010
1000
0001
0100
0001
,
0010
0100
1000
0001
0010
1000
0100
0001
,
1000
0100
0010
0001
0100
0001
0010
0100
,
1000
0001
0100
0010
1000
0100
0010
0100
,
0001
0100
0010
1000
0100
0010
0001
0100
,
0010
1000
0001
0100
0010
1000
0100
0010
,
0001
0100
0001
1000
0010
0001
0100
0010
,
0100
0001
1000
0010
0100
0010
1000
0001
,
0100
0010
1000
0100
0001
0100
0010
0001
,
1000
0010
0001
0010
1000
0001
0100
0001
,
0010
0100
1000
0001
0010
1000
0100
0001
,
1000
0100
0010
0001
0100
0001
0010
0100
,
1000
0001
0100
0010
1000
0100
0010
0100
,
0001
0100
0010
1000
0100
0010
0001
0100
,
0010
1000
0001
0100
0010
1000
0100
0010
,
0001
0100
0001
1000
0010
0001
0100
0010
,
0100
0001
1000
0010
0100
0010
1000
0001
,
0100
0010
1000
0100
0001
0100
0010
0001
,
1000
0010
0001
0010
1000
0001
0100
0001
,
0010
0100
1000
0001
0010
1000
0100
0001
,
1000
0100
0010
0001
0100
0001
0010
0100
,
1000
0001
0100
0010
1000
0100
0010
0100
,
0001
0100
0010
1000
0100
0010
0001
0100
,
0010
1000
0001
0100
0010
1000
0100
0010
,
0001
0100
0001
1000
0010
0001
0100
0010
,
0100
0001
1000
0010
0100
0010
1000
0001
,
0100
0010
1000
0100
0001
0100
0010
0001
,
1000
0010
0001
0010
1000
0001
0100
0001
,
0010
0100
1000
0001
0010
1000
0100
0001
,
1000
0100
0010
0001
0100
0001
0010
0100
,
1000
0001
0100
0010
1000
0100
0010
0100
,
0001
0100
0010
1000
0100
0010
0001
0100
,
0010
1000
0001
0100
0010
1000
0100
0010
,
0001
0100
0001
1000
0010
0001
0100
0010
,
0100
0001
1000
0010
0100
0010
1000
0001
,
0100
0010
1000
0100
0001
0100
0010
0001
,
1000
0010
0001
0010
1000
0001
0100
0001
,
0010
0100
1000
0001
0010
1000
0100
0001
,
1000
0100
0010
0001
0100
0001
0010
0100
,
1000
0001
0100
0010
1000
0100
0010
0100
,
0001
0100
0010
1000
0100
0010
0001
0100
,
0010
1000
0001
0100
0010
1000
0100
0010
,
0001
0100
0001
1000
0010
0001
0100
0010
,
0100
0001
1000
0010
0100
0010
1000
0001
,
0100
0010
1000
0100
0001
0100
0010
0001
,
1000
0010
0001
0010
1000
0001
0100
0001
,
0010
0100
1000
0001
0010
1000
0100
0001
,
1000
0100
0010
0001
0100
0001
0010
0100
,
1000
0001
0100
0010
1000
0100
0010
0100
,
0001
0100
0010
1000
0100
0010
0001
0100
,
0010
1000
0001
0100
0010
1000
0100
0010
,
0001
0100
0001
1000
0010
0001
0100
0010
,
0100
0001
1000
0010
0100
0010
1000
0001
,
0100
0010
1000
0100
0001
0100
0010
0001
,
1000
0010
0001
0010
1000
0001
0100
0001
,
0010
0100
1000
0001
0010
1000
0100
0001
,
1000
0100
0010
0001
0100
0001
0010
0100
,
1000
0001
0100
0010
1000
0100
0010
0100
,
0001
0100
0010
1000
0100
0010
0001
0100
,
0010
1000
0001
0100
0010
1000
0100
0010
,
0001
0100
0001
1000
0010
0001
0100
0010
,
0100
0001
1000
0010
0100
0010
1000
0001
,
0100
0010
1000
0100
0001
0100
0010
0001
,
1000
0010
0001
0010
1000
0001
0100
0001
,
0010
0100
1000
0001
0010
1000
0100
0001
,
1000
0100
0010
0001
0100
0001
0010
0100
,
1000
0001
0100
0010
1000
0100
0010
0100
,
0001
0100
0010
1000
0100
0010
0001
0100
,
0010
1000
0001
0100
0010
1000
0100
0010
,
0001
0100
0001
1000
0010
0001
0100
0010
,
0100
0001
1000
0010
0100
0010
1000
0001
,
0100
0010
1000
0100
0001
0100
0010
0001
,
1000
0010
0001
0010
1000
0001
0100
0001
,
0010
0100
1000
0001
0010
1000
0100
0001
,
1000
0100
0010
0001
0100
0001
0010
0100
,
1000
0001
0100
0010
1000
0100
0010
0100
,
0001
0100
0010
1000
0100
0010
0001
0100
,
0010
1000
0001
0100
0010
1000
0100
0010
,
0001
0100
0001
1000
0010
0001
0100
0010
,
0100
0001
1000
0010
0100
0010
1000
0001
,
0100
0010
1000
0100
0001
0100
0010
0001
,
1000
0010
0001
0010
1000
0001
0100
0001
,
0010
0100
1000
0001
0010
1000
0100
0001
,
1000
0100
0010
0001
0100
0001
0010
0100
,
1000
0001
0100
0010
1000
0100
0010
0100
,
0001
0100
0010
1000
0100
0010
0001
0100
,
0010
1000
0001
0100
0010
1000
0100
0010
,
0001
0100
0001
1000
0010
0001
0100
0010
,
0100
0001
1000
0010
0100
0010
1000
0001
,
0100
0010
1000
0100
0001
0100
0010
0001
,
1000
0010
0001
0010
1000
0001
0100
0001
,
0010
0100
1000
0001
0010
1000
0100
0001
,
1000
0100
0010
0001
0100
0001
0010
0100
,
1000
0001
0100
0010
1000
0100
0010
0100
,
0001
0100
0010
1000
0100
0010
0001
0100
,
0010
1000
0001
0100
0010
1000
0100
0010
,
0001
0100
0001
1000
0010
0001
0100
0010
,
0100
0001
1000
0010
0100
0010
1000
0001
,
0100
0010
1000
0100
0001
0100
0010
0001
,
1000
0010
0001
0010
1000
0001
0100
0001
,
0010
0100
1000
0001
0010
1000
0100
0001
,
1000
0100
0010
0001
0100
0001
0010
0100
,
1000
0001
0100
0010
1000
0100
0010
0100
,
0001
0100
0010
1000
0100
0010
0001
0100
,
0010
1000
0001
0100
0010
1000
0100
0010
,
0001
0100
0001
1000
0010
0001
0100
0010
,
0100
0001
1000
0010
0100
0010
1000
0001
,
0100
0010
1000
0100
0001
0100
0010
0001
,
1000
0010
0001
0010
1000
0001
0100
0001
,
0010
0100
1000
0001
0010
1000
0100
0001
,
1000
0100
0010
0001
0100
0001
0010
0100
,
1000
0001
0100
0010
1000
0100
0010
0100
,
0001
0100
0010
1000
0100
0010
0001
0100
,
0010
1000
0001
0100
0010
1000
0100
0010
,
0001
0100
0001
1000
0010
0001
0100
0010
,
0100
0001
1000
0010
0100
0010
1000
0001
,
0100
0010
1000
0100
0001
0100
0010
0001
,
1000
0010
0001
0010
1000
0001
0100
0001
,
0010
0100
1000
0001
0010
1000
0100
0001
,
1000
0100
0010
0001
0100
0001
0010
0100
,
1000
0001
0100
0010
1000
0100
0010
0100
,
0001
0100
0010
1000
0100
0010
0001
0100
,
0010
1000
0001
0100
0010
1000
0100
0010
,
0001
0100
0001
1000
0010
0001
0100
0010
,
0100
0001
1000
0010
0100
0010
1000
0001
,
0100
0010
1000
0100
0001
0100
0010
0001
,
1000
0010
0001
0010
1000
0001
0100
0001
,
0010
0100
1000
0001
0010
1000
0100
0001
,
1000
0100
0010
0001
0100
0001
0010
0100
,
1000
0001
0100
0010
1000
0100
0010
0100
,
0001
0100
0010
1000
0100
0010
0001
0100
,
0010
1000
0001
0100
0010
1000
0100
0010
,
0001
0100
0001
1000
0010
0001
0100
0010
,
0100
0001
1000
0010
0100
0010
1000
0001
,
0100
0010
1000
0100
0001
0100
0010
0001
,
1000
0010
0001
0010
1000
0001
0100
0001
,
0010
0100
1000
0001
0010
1000
0100
0001
,
1000
0010
1000
0001
0100
0020
0000
0000
,
0000
0000
0000
0000
,
0000
0000
0000
0000
,
0000
0000
0000
0000
,
0000
0030
0000
0000
;
