#TITLE:J-E-N-O-V-A;
#SUBTITLE:FFVII Advent Children version;
#ARTIST:植松伸夫;
#TITLETRANSLIT:;
#SUBTITLETRANSLIT:;
#ARTISTTRANSLIT:Nobuo Uematsu;
#CREDIT:;
#BANNER:J-E-N-O-V-A (FFVIIAC).png;
#BACKGROUND:J-E-N-O-V-A (FFVIIAC) bg.png;
#LYRICSPATH:;
#CDTITLE:dm.jpg;
#MUSIC:J-E-N-O-V-A (FFVIIAC).mp3;
#OFFSET:-5.720;
#SAMPLESTART:124.190;
#SAMPLELENGTH:12.560;
#SELECTABLE:YES;
#BPMS:0.000=168.000;
#STOPS:;
#BGCHANGES:;
// cache tags:
#FIRSTBEAT:4.000;
#LASTBEAT:426.000;
#SONGFILENAME:Songs/Fabulously Fresh Flock of Fantastic Files F5/(Dark Mage) J-E-N-O-V-A (Advent Children)/J-E-N-O-V-A (FFVIIAC).sm;
#HASMUSIC:1;
#HASBANNER:1;
#MUSICLENGTH:165.894;
// end cache tags

//---------------dance-single - ----------------
#NOTES:
     dance-single:
     :
     Hard:
     12:
     1.000,1.000,1.000,0.549,0.419,864.000,283.000,91.000,0.000,0.000:
0000
0000
0000
0000
,
1000
0010
0100
0001
0010
0001
0100
0010
,
1000
0100
0010
0001
0100
0010
1000
0001
,
1000
0100
1000
0010
0100
0001
0010
0001
,
1000
0010
0100
0001
0010
0100
1000
0001
,
1000
0100
1000
0010
0100
0001
0010
0001
,
0100
0010
1000
0010
0100
0001
0100
0010
,
1000
0100
0010
0001
0100
0010
1000
0001
,
1010
0000
0000
0000
0000
0000
1001
0000
0000
0000
0001
0010
0001
0100
0010
1000
,
0001
0000
0000
0000
1010
0000
0000
0000
1000
0010
1000
0010
1000
0000
0000
0000
,
0101
0000
0000
0000
0011
0000
0000
0000
0001
0010
0001
0010
0001
0000
0000
0000
,
2010
0100
3002
0013
1200
0010
0302
1003
,
0201
0010
2300
3001
1020
0100
0032
1003
,
0101
0000
0000
0000
1010
0000
0000
0000
0100
0010
0100
0001
0100
0000
0000
0000
,
1100
0000
0000
0000
0011
0000
0000
0000
0010
0100
0010
1000
0010
0000
0000
0000
,
0012
1000
0023
0130
2010
0100
3002
1003
,
0100
0010
0100
0001
0100
0010
1000
0010
0100
0001
1000
0010
0100
0010
1000
0100
,
1001
0000
0000
0000
0101
0000
0000
0000
1000
0010
0100
0001
0100
0000
0000
0000
,
1001
0000
0000
0000
1100
0000
0000
0000
0001
0010
0100
1000
0100
0000
0000
0000
,
0012
1000
0023
0130
1002
1000
0203
0310
,
0012
0100
0023
0031
2100
0010
3200
0301
,
1010
0000
0000
0000
0110
0000
0000
0000
1000
0010
1000
0001
0100
0000
0000
0000
,
0011
0000
0000
0000
0110
0000
0000
0000
0001
0010
0100
0010
0100
0000
0000
0000
,
1200
0010
0302
1003
0201
0010
2300
3001
,
0210
1000
0302
0103
1002
0010
2003
3001
,
0102
0000
0010
0000
2003
0000
3010
0000
1200
0000
0010
0000
2300
3000
2002
0000
,
0000
0000
0000
0000
0000
0000
0000
0000
0000
0000
0000
0000
0000
0000
0000
3003
,
1010
0000
0100
0000
1010
0000
0100
0000
1000
0010
0100
0010
1000
0000
0100
0000
,
0011
0000
0100
0000
0011
0000
0100
0000
0001
0010
0100
0010
0001
0000
0100
0000
,
1001
0000
0100
0000
1010
0000
0100
0000
1000
0010
0100
0001
1000
0000
0100
0000
,
0011
0000
0100
0000
1001
0000
0100
0000
0001
0010
0100
1000
0001
0000
0100
0000
,
1010
0101
1001
0220
0000
0000
0000
0330
,
0011
1100
1001
0220
0000
0000
0000
0330
,
1010
1100
0011
0220
0000
0000
0000
0330
,
1010
0110
0101
0220
0000
0000
0000
0330
,
1001
0000
1000
0000
1010
0000
0010
0000
1000
0010
0100
0010
1000
0000
0010
0000
,
0101
0000
0100
0000
1001
0000
0001
0000
0001
0100
0010
0100
0001
0000
1000
0000
,
1010
0000
0100
0000
0110
0000
0010
0000
1000
0010
0100
0001
0100
0000
0001
0000
,
0101
0000
0100
0000
0110
0000
0100
0000
0100
0001
0100
0010
1000
0000
0010
0000
,
1010
0110
0101
2002
0000
0000
0000
3003
,
0101
0110
1010
2002
0000
0000
0000
3003
,
0011
0110
1100
2002
0000
0000
0000
3003
,
1010
0101
0010
2002
0000
0000
0000
3003
,
1010
0000
1100
0000
0011
0000
0101
0000
1000
0001
1000
0001
0100
0000
1010
0000
,
1100
0000
1010
0000
0101
0000
0011
0000
0001
1000
0001
1000
0100
0000
1010
0000
,
0101
0000
0011
0000
0101
0000
1010
0000
0100
0010
1000
0001
0010
0000
1100
0000
,
0011
0000
1001
0000
0101
0000
1010
0000
0100
0010
1000
0001
0010
0000
0101
0000
,
1010
0101
0011
2100
0010
0100
0001
3010
,
1100
0011
0101
1002
0100
0010
1000
0103
,
1010
0110
0011
2100
0010
0001
0100
3010
,
1010
0110
0101
0110
1010
1100
0011
0101
,
1001
0000
1100
0000
0011
0000
0110
0000
1000
0010
0100
0010
1000
0000
0101
0000
,
0011
0000
1100
0000
0110
0000
1100
0000
0001
0010
0100
1000
0010
0000
0101
0000
,
1010
0000
1100
0000
1001
0000
0101
0000
1000
0010
0100
0010
1000
0000
1100
0000
,
0011
0000
1001
0000
0110
0000
0101
0000
1000
0010
0100
0001
0010
0000
1100
0000
,
0011
1100
1010
0120
2030
3020
0230
0301
,
0101
1010
1100
0021
0230
2300
3002
1003
,
1010
0110
0101
0012
2003
3020
0230
0301
,
1000
0010
1000
0000
0000
0010
0100
0010
0000
0000
0100
0001
0100
0001
0100
0001
,
1100
0000
0001
0000
0101
0000
1000
0000
0100
0010
1000
0001
0100
0000
1010
0000
,
0101
0000
0010
0000
1001
0000
0100
0000
1000
0001
0100
0010
1000
0000
0101
0000
,
1010
0000
0100
0000
0011
0000
0100
0000
1000
0100
0010
0100
1000
0000
0101
0000
,
1010
0000
0100
0000
1100
0000
1000
0000
0001
0010
0100
0010
0001
0000
0101
0000
,
1010
0100
1001
0100
1010
0101
0011
0101
,
0011
0100
1001
0010
1100
0011
0101
1010
,
0101
0010
1001
0100
1010
0110
0101
1001
,
1100
0000
0010
0000
0101
0000
0001
0000
1000
0010
0100
0001
0010
0100
1000
0001
,
1010
0000
0001
0000
0110
0000
1000
0000
0001
0100
0010
1000
0001
0000
1000
0000
,
0101
0000
0010
0000
1100
0000
0010
0000
0001
1000
0100
1000
0010
0000
0100
0000
,
1010
0000
0100
0000
0011
0000
1000
0000
0001
1000
0100
1000
0010
0000
1000
0000
,
0101
0000
0010
0000
1100
0000
0001
0000
1000
0100
1000
0010
0100
0000
0001
0000
,
1010
1100
0010
0001
0101
0110
0010
1000
,
1100
0011
1000
0010
0101
1010
0001
0100
,
1010
0100
1010
0101
0010
0001
0101
1010
,
0100
0010
1000
0000
0100
0001
0010
0000
1000
0001
0100
0010
1000
0001
0010
0100
,
1001
0000
0100
0000
0010
0000
1001
0000
0100
0010
1000
0010
0100
0000
0010
0000
,
1001
0000
1000
0000
0010
0000
1001
0000
0100
0001
1000
0010
0100
0000
0010
0000
,
1001
0000
0001
0000
0100
0000
1001
0000
0010
1000
0010
0100
0001
0000
0100
0000
,
1001
0000
0010
0000
1000
0000
1001
0000
0010
0100
0001
1000
0100
0000
0010
0000
,
1001
0000
0100
0000
1000
0000
1001
0000
0001
0100
0010
1000
0010
0000
0100
0000
,
1001
0000
0100
0000
0010
0000
1001
0000
0100
0010
0001
0100
0010
0000
0100
0000
,
1001
0000
0100
0000
0010
0000
1001
0000
0100
0010
0100
1000
0001
0000
0100
0000
,
1000
0010
0100
0010
1000
0000
0100
0001
0100
0000
1000
0010
0100
0001
0010
0100
,
1001
0000
0101
0000
0011
0000
0101
0000
1000
0010
0100
0010
1000
0000
0101
0000
,
1010
0000
1100
0000
1010
0000
0110
0000
0001
0010
0100
0010
0001
0000
0101
0000
,
1010
0000
1001
0000
0101
0000
1001
0000
1000
0001
0100
0010
1000
0000
0101
0000
,
0011
0000
1001
0000
0101
0000
1001
0000
0001
1000
0010
0100
0001
0000
1001
0000
,
0101
0000
1010
0000
0110
0000
0101
0000
1000
0100
0010
0001
1000
0000
0101
0000
,
1010
0000
0110
0000
0011
0000
1100
0000
0001
0010
0100
1000
0001
0000
0101
0000
,
1000
0010
0100
0001
0100
0010
1000
0001
1000
0100
0010
0001
0100
0010
1000
0001
,
1000
0010
1000
0001
0100
0001
1000
0010
0100
0001
0100
0010
1000
0010
0100
0001
,
2200
0000
0000
0000
,
0000
3300
2000
3020
0200
0330
0202
0303
,
0022
0033
1001
0220
0000
0000
0000
0000
,
0000
0000
0000
0000
0000
0000
0000
0330
,
0202
0000
0000
0000
,
0000
0303
0020
2030
0200
3300
2200
3300
,
0022
0033
0101
0220
0000
0000
0000
0000
,
0000
0000
0000
0330
2002
0000
0000
3003
,
1010
0100
0010
1000
0101
0010
0001
1000
,
0110
0001
0100
0010
1100
0010
1000
0001
,
0101
0010
1000
0010
1001
0100
1000
0010
,
1100
0010
0001
0100
0110
1000
0010
0100
,
0101
0010
1001
0100
1010
0100
0011
1000
,
0101
0010
1001
0100
1010
0100
0011
0001
,
1100
0010
0101
0010
1001
0010
0110
1001
,
0220
0000
0330
0000
;
