#TITLE:neoMAX;
#SUBTITLE:;
#ARTIST:DM Ashura;
#TITLETRANSLIT:;
#SUBTITLETRANSLIT:;
#ARTISTTRANSLIT:;
#CREDIT:;
#BANNER:neoMAX BN.png;
#BACKGROUND:neoMAX BG.png;
#LYRICSPATH:;
#CDTITLE:;
#MUSIC:neoMAX.mp3;
#OFFSET:-0.060;
#SAMPLESTART:93.222;
#SAMPLELENGTH:12.000;
#SELECTABLE:YES;
#BPMS:0.000=340.000,368.000=680.000,376.000=510.000,380.000=340.002,381.000=255.003,382.000=170.003,382.250=127.503,382.500=85.003,397.500=110.003,398.000=127.503,398.500=155.003,399.000=170.003,432.000=208.003,436.000=260.003,440.000=320.002,444.000=340.002,636.250=290.003,636.500=255.003,636.750=210.003,637.000=170.003,637.250=140.003,637.500=120.003,637.750=100.003,638.000=85.002,639.000=110.002,639.250=130.002,639.500=150.002,639.750=170.002,640.000=190.002,640.250=210.002,640.500=230.002,640.750=250.002,644.000=340.001;
#STOPS:382.500=0.680
;
#BGCHANGES:;
// cache tags:
#FIRSTBEAT:48.000;
#LASTBEAT:668.000;
#SONGFILENAME:Songs/maxxx/neoMAX/neoMAX.sm;
#HASMUSIC:1;
#HASBANNER:1;
#MUSICLENGTH:139.133;
// end cache tags

//---------------dance-single - ----------------
#NOTES:
     dance-single:
     :
     Hard:
     10:
     0.732,1.000,0.352,0.446,0.144,602.000,49.000,62.000,0.000,0.000:  // measure 1
0000
0000
0000
0000
,  // measure 2
0000
0000
0000
0000
,  // measure 3
0000
0000
0000
0000
,  // measure 4
0000
0000
0000
0000
,  // measure 5
0000
0000
0000
0000
,  // measure 6
0000
0000
0000
0000
,  // measure 7
0000
0000
0000
0000
,  // measure 8
0000
0000
0000
0000
,  // measure 9
0000
0000
0000
0000
,  // measure 10
0000
0000
0000
0000
,  // measure 11
0000
0000
0000
0000
,  // measure 12
0000
0000
0000
0000
,  // measure 13
1000
0100
1000
0010
,  // measure 14
1000
0001
1000
0100
,  // measure 15
0001
0100
0001
0010
,  // measure 16
0001
1000
0001
0100
,  // measure 17
1000
0000
0010
0000
0100
0001
0100
0000
,  // measure 18
0001
0000
0010
0000
0100
1000
0100
0000
,  // measure 19
1000
0010
1000
0000
0001
0100
0001
0000
,  // measure 20
1000
0100
0010
0001
0100
0010
1000
0001
,  // measure 21
1000
0000
0100
0000
0010
0001
0000
0010
,  // measure 22
0001
0000
0100
0000
0010
1000
0000
0010
,  // measure 23
1000
0000
0001
0000
0100
0010
0000
0100
,  // measure 24
0010
1000
0001
0000
,  // measure 25
0001
0000
0100
0000
0010
1000
0000
0010
,  // measure 26
1000
0000
0100
0000
0010
0001
0000
0010
,  // measure 27
0001
0000
1000
0000
0100
0010
0000
0100
,  // measure 28
0010
0001
1000
0000
,  // measure 29
1000
0000
0100
0000
1000
0001
0000
0010
,  // measure 30
0001
0000
0100
0000
0001
1000
0000
0010
,  // measure 31
1000
0000
0001
0000
0100
0010
0000
1000
,  // measure 32
0001
0010
0100
1000
,  // measure 33
0001
0000
0100
0000
0001
1000
0000
0010
,  // measure 34
1000
0000
0100
0000
1000
0001
0000
0010
,  // measure 35
0001
0000
1000
0000
0100
0010
0000
0001
,  // measure 36
1000
0010
0100
0001
,  // measure 37
1000
0000
0100
0000
1000
0010
0000
0100
,  // measure 38
0001
0000
0100
0000
0001
0010
0000
0100
,  // measure 39
1000
0000
0010
0000
1000
0001
0000
0010
,  // measure 40
0100
1000
0010
0100
,  // measure 41
0001
0000
0100
0000
0001
0010
0000
0100
,  // measure 42
1000
0000
0100
0000
1000
0010
0000
0100
,  // measure 43
0001
0000
0010
0000
0001
1000
0000
0100
,  // measure 44
0010
0001
0100
0010
,  // measure 45
2000
0010
0000
0010
,  // measure 46
0000
0100
0000
0100
,  // measure 47
3002
0010
0010
2003
,  // measure 48
0100
0100
3010
0000
,  // measure 49
0002
0010
0000
0010
,  // measure 50
0000
0100
0000
0100
,  // measure 51
2003
0010
0010
3002
,  // measure 52
0100
0100
0013
0000
,  // measure 53
0200
0010
0000
0001
,  // measure 54
0000
0010
0000
0001
,  // measure 55
0320
1000
1000
2030
,  // measure 56
0001
0001
3100
0000
,  // measure 57
0200
0010
0000
1000
,  // measure 58
0000
0010
0000
1000
,  // measure 59
0320
0001
0001
0032
,  // measure 60
1000
1000
0103
0000
,  // measure 61
0010
1000
1010
0000
,  // measure 62
0000
0101
0000
1100
,  // measure 63
0000
0001
0010
0001
,  // measure 64
0011
0000
1100
0000
,  // measure 65
0010
0001
0011
0000
,  // measure 66
0000
1100
0000
0101
,  // measure 67
0000
1000
0010
1000
,  // measure 68
1010
0000
0101
0000
,  // measure 69
0001
0000
0010
0100
1000
0000
0000
0000
,  // measure 70
0000
0110
0000
0011
,  // measure 71
0000
0000
1000
0100
1000
0000
0010
0000
,  // measure 72
0110
0000
1001
0000
,  // measure 73
1000
0000
0010
0100
0001
0000
0000
0000
,  // measure 74
0000
0110
0000
1010
,  // measure 75
0000
0000
0001
0100
0001
0000
0010
0000
,  // measure 76
0110
0000
0000
0000
1001
0000
0100
0010
,  // measure 77
0002
0000
0000
0000
1003
0000
0010
0100
,  // measure 78
0002
0000
0000
0023
0000
0000
0230
0000
,  // measure 79
0320
0000
0000
0230
0000
0000
2300
0000
,  // measure 80
0000
0000
0000
0000
3001
0000
0100
0010
,  // measure 81
2000
0000
0000
0000
3001
0000
0010
0100
,  // measure 82
2000
0000
0000
3020
0000
0000
0230
0000
,  // measure 83
0320
0000
0000
0230
0000
0000
0302
0000
,  // measure 84
0000
0000
0000
0000
1003
0000
1000
0100
,  // measure 85
0020
0000
0000
0000
0130
0000
0100
0010
,  // measure 86
0002
0000
0000
0023
0000
0000
0230
0000
,  // measure 87
0302
0000
0000
0203
0000
0000
2300
0000
,  // measure 88
0000
0000
0000
0000
3001
0000
0001
0100
,  // measure 89
0020
0000
0000
0000
0130
0000
0100
0010
,  // measure 90
2000
0000
0000
3020
0000
0000
0230
0000
,  // measure 91
2300
0000
0000
3200
0000
0000
0302
0000
,  // measure 92
0000
0000
1003
0000
,  // measure 93
2002
0000
0000
0000
,  // measure 94
0000
0000
0000
0000
,  // measure 95
0000
0000
0000
0000
,  // measure 96
0000
0000
0000
0000
0000
0000
0000
0000
0000
0000
0000
0000
0000
0000
0000
0000
0000
0000
0000
0000
0000
3003
0000
0000
1000
0000
0000
0000
0010
0000
0100
0000
,  // measure 97
0001
0000
0000
0010
0000
0000
0100
0000
0010
0000
0000
0100
0000
0000
1000
0000
0000
0000
0001
0000
0010
0000
0100
0000
0020
0000
0000
0000
0000
0000
0031
0000
,  // measure 98
0010
0000
0000
0100
0000
0000
1000
0000
0020
0000
0000
0000
0000
0000
0000
0000
0030
0000
0000
0000
0010
0000
0100
0000
0001
0000
0000
0000
0010
0000
0100
0000
,  // measure 99
1000
0000
0000
0010
0000
0000
0100
0000
0010
0000
0000
0100
0000
0000
0001
0000
0000
0000
1000
0000
0010
0000
0100
0000
0020
0000
0000
0000
0000
0000
0130
0001
,  // measure 100
0100
0000
0000
0010
0000
0000
1000
0000
0002
0000
0000
0000
0000
0000
0000
0000
0000
0000
0000
0000
0000
0000
0000
0000
1003
0000
0000
0000
0100
0000
0000
0000
,  // measure 101
0010
0000
0000
0000
1000
0000
0010
0000
0001
0000
0000
0100
0000
0000
0001
0000
,  // measure 102
0010
0000
0000
0100
0000
0000
2000
0000
0000
0000
0000
0000
3000
0000
0100
0010
,  // measure 103
0001
0000
0000
1000
0000
0000
0010
0000
0100
0000
0000
1000
0000
0000
0100
0000
,  // measure 104
0001
0000
0000
1000
0000
0000
0020
0000
0000
0000
0000
0000
0030
0000
0000
0000
,  // measure 105
1000
0000
0000
0100
0000
0000
1000
0000
0100
0000
0000
0010
0000
0000
0100
0000
,  // measure 106
0010
0000
0000
0001
0000
0000
0010
0000
0001
0000
0000
0100
0000
0000
0001
0000
,  // measure 107
1000
0100
0010
0001
0100
0010
1000
0100
,  // measure 108
2002
0000
0000
0000
,  // measure 109
0000
0000
0000
0000
,  // measure 110
0000
0000
0000
0000
,  // measure 111
0000
0000
0000
3003
,  // measure 112
1000
0000
0001
0100
0001
0000
0010
0000
,  // measure 113
0011
0000
0000
0110
0000
0000
1000
0000
,  // measure 114
1010
0000
0000
0110
0000
0000
0101
0000
,  // measure 115
0000
1000
0010
0100
,  // measure 116
0002
0000
1003
0100
,  // measure 117
0010
0000
0001
0100
0000
0010
1000
0000
,  // measure 118
0001
1000
0100
0010
,  // measure 119
0001
1000
0010
0100
,  // measure 120
0001
0000
1000
0100
1000
0000
0010
0000
,  // measure 121
1010
0000
0000
0110
0000
0000
0001
0000
,  // measure 122
0011
0000
0000
0110
0000
0000
1100
0000
,  // measure 123
0000
0001
0010
0100
,  // measure 124
2000
0000
0000
0000
3000
0000
0100
0010
,  // measure 125
0100
0000
1000
0100
0000
0010
0001
0000
,  // measure 126
1000
0001
0100
0010
,  // measure 127
1000
0001
0010
0100
,  // measure 128
1100
0000
0000
0011
0000
0000
0101
0000
,  // measure 129
0110
0000
0000
1010
0000
0000
1100
0000
,  // measure 130
0011
0000
0000
0110
0000
0000
2002
0000
,  // measure 131
0000
0000
0000
3003
,  // measure 132
0101
0000
0000
1010
0000
0000
1100
0000
,  // measure 133
0110
0000
0000
0011
0000
0000
0101
0000
,  // measure 134
1010
0000
0000
0110
0000
0000
2002
0000
,  // measure 135
0000
0000
0000
3003
,  // measure 136
1000
0000
0100
0000
1000
0010
1000
0000
,  // measure 137
0001
0000
0010
0000
0001
0100
0001
0000
,  // measure 138
0010
0000
0100
0000
1000
0001
0100
0000
,  // measure 139
0010
0000
0100
0000
0001
1000
0100
0000
,  // measure 140
0010
0001
0010
0000
0100
0010
0100
0000
,  // measure 141
1000
0100
1000
0000
0001
1000
0001
0000
,  // measure 142
1000
0100
0010
0001
0100
0010
1000
0100
,  // measure 143
0010
0001
0100
0010
1000
0100
0010
0001
,  // measure 144
1000
0100
0000
0100
0010
0000
0010
0001
,  // measure 145
0000
0001
0100
0000
0010
0000
1000
0000
,  // measure 146
0001
0100
0000
0100
0010
0000
0010
1000
,  // measure 147
0000
1000
0100
0000
0010
0000
0001
0000
,  // measure 148
1000
0010
0000
0010
0100
0000
0100
0001
,  // measure 149
0000
0001
0010
0000
0100
0000
1000
0000
,  // measure 150
0001
0010
0000
0010
0100
0000
0100
1000
,  // measure 151
0000
1000
0010
0000
0100
0000
0001
0000
,  // measure 152
1000
0100
0000
1000
0001
0000
0100
0001
,  // measure 153
0000
0100
0010
0000
1000
0000
1000
0000
,  // measure 154
0001
0100
0000
0001
1000
0000
0100
1000
,  // measure 155
0000
0100
0010
0000
0001
0000
0001
0000
,  // measure 156
1000
0100
0000
0010
0001
0000
0100
0010
,  // measure 157
0000
1000
0001
0000
1000
0000
1000
0000
,  // measure 158
0001
0100
0000
0010
1000
0000
0100
0010
,  // measure 159
0000
0001
1000
0000
0001
0000
0001
0000
,  // measure 160
2000
0000
3200
0320
,  // measure 161
0000
0032
0000
0000
,  // measure 162
1003
0000
0010
0000
0100
0000
0000
0000
0000
0000
0000
0000
,  // measure 163
0001
0000
0010
0000
0100
0000
0000
0000
0000
0000
0000
0000
,  // measure 164
1000
0000
0100
0000
0010
0000
0001
0000
0100
0000
0010
0000
,  // measure 165
2002
0000
0000
0000
,  // measure 166
0000
0000
0000
0000
,  // measure 167
0000
0000
0000
0000
,  // measure 168
3003
0000
0000
0000
;

//---------------dance-single - ----------------
#NOTES:
     dance-single:
     :
     Medium:
     8:
     0.603,1.000,0.252,0.474,0.065,486.000,35.000,66.000,0.000,0.000:  // measure 1
0000
0000
0000
0000
,  // measure 2
0000
0000
0000
0000
,  // measure 3
0000
0000
0000
0000
,  // measure 4
0000
0000
0000
0000
,  // measure 5
0000
0000
0000
0000
,  // measure 6
0000
0000
0000
0000
,  // measure 7
0000
0000
0000
0000
,  // measure 8
0000
0000
0000
0000
,  // measure 9
0000
0000
0000
0000
,  // measure 10
0000
0000
0000
0000
,  // measure 11
0000
0000
0000
0000
,  // measure 12
0000
0000
0000
0000
,  // measure 13
1000
0100
0010
0001
,  // measure 14
0100
0010
1000
0100
,  // measure 15
0001
0100
0010
1000
,  // measure 16
0100
0010
0001
0100
,  // measure 17
1000
0010
0100
0001
,  // measure 18
1000
0100
0010
0001
,  // measure 19
0010
0100
1000
0001
,  // measure 20
0100
0010
1000
0001
,  // measure 21
1000
0000
1000
0000
0100
0010
0000
0000
,  // measure 22
0001
0000
0001
0000
0100
0010
0000
0000
,  // measure 23
1000
0000
0100
0000
0010
0001
0000
0000
,  // measure 24
0100
0010
1000
0000
,  // measure 25
0001
0000
0001
0000
0010
0100
0000
0000
,  // measure 26
1000
0000
1000
0000
0010
0100
0000
0000
,  // measure 27
0001
0000
0010
0000
0100
1000
0000
0000
,  // measure 28
0010
0100
0001
0000
,  // measure 29
1000
0100
0000
0010
,  // measure 30
0001
0100
0000
0010
,  // measure 31
1000
0001
0000
0010
,  // measure 32
0100
1000
0001
0100
,  // measure 33
0001
0100
0000
0010
,  // measure 34
1000
0100
0000
0010
,  // measure 35
0001
1000
0000
0010
,  // measure 36
0100
0001
1000
0100
,  // measure 37
1000
0100
0000
0100
,  // measure 38
0010
0001
0000
0001
,  // measure 39
0100
0010
0000
0010
,  // measure 40
1000
0100
0010
0001
,  // measure 41
0001
0100
0000
0100
,  // measure 42
0010
1000
0000
1000
,  // measure 43
0100
0010
0000
0010
,  // measure 44
0001
0100
0010
1000
,  // measure 45
2000
0000
0010
0000
,  // measure 46
0010
0000
0010
0000
,  // measure 47
3002
0000
0010
0023
,  // measure 48
0000
0100
0130
0000
,  // measure 49
0002
0000
0010
0000
,  // measure 50
0010
0000
0010
0000
,  // measure 51
2003
0000
0010
3020
,  // measure 52
0000
0100
0130
0000
,  // measure 53
2000
0000
0100
0000
,  // measure 54
0100
0000
0100
0000
,  // measure 55
3002
0000
0100
0203
,  // measure 56
0000
0010
0310
0000
,  // measure 57
0002
0000
0100
0000
,  // measure 58
0100
0000
0100
0000
,  // measure 59
2003
0000
0100
3200
,  // measure 60
0000
0010
0310
0000
,  // measure 61
1000
0010
2000
0000
,  // measure 62
3000
0101
0000
1010
,  // measure 63
0000
0100
0010
0100
,  // measure 64
0002
0000
2003
0000
,  // measure 65
3001
0010
0002
0000
,  // measure 66
0003
1100
0000
0011
,  // measure 67
0000
0100
0010
0100
,  // measure 68
2000
0000
3002
0000
,  // measure 69
1003
0100
0020
0000
,  // measure 70
0030
0011
0000
0110
,  // measure 71
0000
1000
0100
1000
,  // measure 72
0002
0000
0023
0000
,  // measure 73
0031
0100
0020
0000
,  // measure 74
0030
1010
0000
0110
,  // measure 75
0000
0001
0100
0001
,  // measure 76
2000
0000
3020
0000
,  // measure 77
1030
0100
0010
0001
,  // measure 78
2000
0000
0100
0000
,  // measure 79
3002
0000
0000
0203
0000
0000
0320
0000
,  // measure 80
0000
0000
1030
0000
,  // measure 81
0001
0100
0010
1000
,  // measure 82
0002
0000
0100
0000
,  // measure 83
2003
0000
0000
3200
0000
0000
0320
0000
,  // measure 84
0000
0000
0031
0000
,  // measure 85
1000
0100
0010
0100
,  // measure 86
0001
0100
0010
0100
,  // measure 87
0020
0000
0000
0230
0000
0000
2300
0000
,  // measure 88
0000
0000
3001
0000
,  // measure 89
0001
0100
0010
0100
,  // measure 90
1000
0100
0010
0100
,  // measure 91
0020
0000
0000
0230
0000
0000
0302
0000
,  // measure 92
0000
0000
1003
0000
,  // measure 93
2002
0000
0000
0000
,  // measure 94
0000
0000
0000
0000
,  // measure 95
0000
0000
0000
0000
,  // measure 96
0000
0000
0000
0000
0000
0000
0000
0000
0000
0000
3003
0000
1000
0010
0100
0000
,  // measure 97
0001
0010
0100
0000
0010
0000
0001
0000
1000
0000
0010
0000
0100
0001
0010
0000
,  // measure 98
0100
1000
0010
0000
2000
0000
0000
0000
3001
0000
0010
0000
0001
0010
0100
0000
,  // measure 99
1000
0010
0100
0000
0010
0000
1000
0000
0001
0000
0010
0000
0100
1000
0010
0000
,  // measure 100
0100
0001
0010
0000
0002
0000
0000
0000
0000
0000
0000
0000
1003
0000
0000
0000
,  // measure 101
0001
0010
0100
0000
1000
0010
0100
0000
,  // measure 102
0101
0000
0000
0110
0000
0000
2020
0000
0000
0000
0000
0000
3030
0000
0000
0000
,  // measure 103
1000
0100
0010
0000
0001
0100
0010
0000
,  // measure 104
1100
0000
0000
0110
0000
0000
0022
0000
0000
0000
0000
0000
0033
0000
0000
0000
,  // measure 105
2000
0000
0000
0100
0000
0000
0100
0000
3200
0000
0000
0010
0000
0000
0010
0000
,  // measure 106
0320
0000
0000
0001
0000
0000
0001
0000
0032
0000
0000
1000
0000
0000
1000
0000
,  // measure 107
1003
0100
0010
0001
0100
0010
1000
0100
,  // measure 108
2002
0000
0000
0000
,  // measure 109
0000
0000
0000
0000
,  // measure 110
0000
0000
0000
0000
,  // measure 111
0000
0000
0000
3003
,  // measure 112
1000
0100
0010
0001
,  // measure 113
1000
0000
0000
0010
0000
0000
0100
0000
,  // measure 114
0001
0000
0000
0010
0000
0000
1000
0000
,  // measure 115
0000
0001
0100
0010
,  // measure 116
1000
0100
1000
0001
,  // measure 117
1000
0010
1000
0001
,  // measure 118
2002
0000
0000
0000
,  // measure 119
3003
0000
0100
0010
,  // measure 120
1000
0100
0010
0001
,  // measure 121
1000
0000
0000
0010
0000
0000
0100
0000
,  // measure 122
0001
0000
0000
0010
0000
0000
0100
0000
,  // measure 123
0010
0001
0010
0100
,  // measure 124
1000
0001
0010
0001
,  // measure 125
1000
0001
0100
0001
,  // measure 126
2002
0000
0000
0000
,  // measure 127
3003
0000
0100
0000
,  // measure 128
1100
0000
0000
0011
0000
0000
0000
0000
,  // measure 129
0101
0000
0000
1010
0000
0000
0000
0000
,  // measure 130
0011
0000
0000
0110
0000
0000
2200
0000
,  // measure 131
0000
0000
3300
0000
,  // measure 132
0101
0000
0000
1010
0000
0000
0000
0000
,  // measure 133
1100
0000
0000
0011
0000
0000
0000
0000
,  // measure 134
1010
0000
0000
0110
0000
0000
0202
0000
,  // measure 135
0000
0000
0303
0000
,  // measure 136
1000
0100
0010
0001
,  // measure 137
1000
0010
0100
0001
,  // measure 138
0001
0010
0100
1000
,  // measure 139
0001
0100
0010
1000
,  // measure 140
1000
0001
0100
0010
,  // measure 141
1000
0001
0010
0100
,  // measure 142
1000
0010
0100
0001
,  // measure 143
1000
0100
0010
0001
,  // measure 144
1000
0100
1000
0010
,  // measure 145
1000
0100
1000
0010
,  // measure 146
0100
0001
0010
0001
,  // measure 147
0100
0001
0010
0001
,  // measure 148
0100
0010
1000
0010
,  // measure 149
0100
0010
1000
0010
,  // measure 150
0100
0001
0100
0010
,  // measure 151
0100
0001
0100
0010
,  // measure 152
1000
0100
0010
0100
,  // measure 153
1000
0000
0100
0000
0010
0001
0010
0000
,  // measure 154
0001
0100
0010
0100
,  // measure 155
0001
0000
0100
0000
0010
1000
0010
0000
,  // measure 156
1000
0100
0001
0100
,  // measure 157
1000
0000
0100
0000
0010
0100
0010
0000
,  // measure 158
0001
0100
1000
0100
,  // measure 159
0001
0000
0100
0000
0010
0100
0010
0000
,  // measure 160
2000
0000
3200
0320
,  // measure 161
0000
0032
0000
0000
,  // measure 162
1003
0000
0100
0000
1000
0000
0000
0000
0000
0000
0000
0000
,  // measure 163
0001
0000
0100
0000
0001
0000
0000
0000
0000
0000
0000
0000
,  // measure 164
1100
0000
0101
0000
,  // measure 165
2002
0000
0000
0000
,  // measure 166
0000
0000
0000
0000
,  // measure 167
0000
0000
0000
0000
,  // measure 168
3003
0000
0000
0000
;

//---------------dance-single - ----------------
#NOTES:
     dance-single:
     :
     Beginner:
     3:
     0.226,0.354,0.137,0.000,0.000,201.000,19.000,0.000,0.000,0.000:  // measure 1
0000
0000
0000
0000
,  // measure 2
0000
0000
0000
0000
,  // measure 3
0000
0000
0000
0000
,  // measure 4
0000
0000
0000
0000
,  // measure 5
0000
0000
0000
0000
,  // measure 6
0000
0000
0000
0000
,  // measure 7
0000
0000
0000
0000
,  // measure 8
0000
0000
0000
0000
,  // measure 9
0000
0000
0000
0000
,  // measure 10
0000
0000
0000
0000
,  // measure 11
0000
0000
0000
0000
,  // measure 12
0000
0000
0000
0000
,  // measure 13
1000
0000
0000
0000
,  // measure 14
1000
0000
0000
0000
,  // measure 15
1000
0000
0000
0000
,  // measure 16
1000
0000
0000
0000
,  // measure 17
0001
0000
0000
0000
,  // measure 18
0001
0000
0000
0000
,  // measure 19
0001
0000
0000
0000
,  // measure 20
0001
0000
0000
0000
,  // measure 21
1000
0000
1000
0000
,  // measure 22
1000
0000
1000
0000
,  // measure 23
1000
0000
1000
0000
,  // measure 24
1000
0000
0000
0000
,  // measure 25
0001
0000
0001
0000
,  // measure 26
0001
0000
0001
0000
,  // measure 27
0001
0000
0001
0000
,  // measure 28
0001
0000
0000
0000
,  // measure 29
0100
0000
0000
0000
,  // measure 30
0010
0000
0000
0000
,  // measure 31
1000
0000
0000
0000
,  // measure 32
1000
0000
0000
0000
,  // measure 33
0100
0000
0000
0000
,  // measure 34
0010
0000
0000
0000
,  // measure 35
0001
0000
0000
0000
,  // measure 36
0001
0000
0000
0000
,  // measure 37
0010
0000
0000
0000
,  // measure 38
0100
0000
0000
0000
,  // measure 39
1000
0000
0000
0000
,  // measure 40
1000
0000
0000
0000
,  // measure 41
0010
0000
0000
0000
,  // measure 42
0100
0000
0000
0000
,  // measure 43
0001
0000
0000
0000
,  // measure 44
0001
0000
0000
0000
,  // measure 45
1000
0000
0000
0000
,  // measure 46
1000
0000
0000
0000
,  // measure 47
0001
0000
0001
0000
,  // measure 48
0001
0000
0000
0000
,  // measure 49
1000
0000
0000
0000
,  // measure 50
1000
0000
0000
0000
,  // measure 51
0010
0000
0010
0000
,  // measure 52
0010
0000
0000
0000
,  // measure 53
0001
0000
0000
0000
,  // measure 54
0001
0000
0000
0000
,  // measure 55
1000
0000
1000
0000
,  // measure 56
1000
0000
0000
0000
,  // measure 57
0001
0000
0000
0000
,  // measure 58
0001
0000
0000
0000
,  // measure 59
0010
0000
0010
0000
,  // measure 60
0010
0000
0000
0000
,  // measure 61
1000
0000
1000
0000
,  // measure 62
0000
0001
0000
0001
,  // measure 63
0000
0001
0000
0001
,  // measure 64
0001
0000
0001
0000
,  // measure 65
0100
0000
0100
0000
,  // measure 66
0000
0010
0000
0010
,  // measure 67
0000
0010
0000
0010
,  // measure 68
0010
0000
0010
0000
,  // measure 69
0001
0000
0001
0000
,  // measure 70
0000
1000
0000
1000
,  // measure 71
0000
1000
0000
1000
,  // measure 72
1000
0000
1000
0000
,  // measure 73
0100
0000
0100
0000
,  // measure 74
0000
0010
0000
0010
,  // measure 75
0000
0010
0000
0010
,  // measure 76
0010
0000
0010
0000
,  // measure 77
1000
0000
1000
0000
,  // measure 78
1000
0000
0000
0000
,  // measure 79
0001
0000
0001
0000
,  // measure 80
0001
0000
0000
0000
,  // measure 81
1000
0000
1000
0000
,  // measure 82
1000
0000
0000
0000
,  // measure 83
0001
0000
0001
0000
,  // measure 84
0001
0000
0000
0000
,  // measure 85
0100
0000
0100
0000
,  // measure 86
0100
0000
0000
0000
,  // measure 87
0010
0000
0010
0000
,  // measure 88
0010
0000
0000
0000
,  // measure 89
0100
0000
0100
0000
,  // measure 90
0100
0000
0000
0000
,  // measure 91
0010
0000
0010
0000
,  // measure 92
0010
0000
0000
0000
,  // measure 93
1001
0000
0000
0000
,  // measure 94
0000
0000
0000
0000
,  // measure 95
0000
0000
0000
0000
,  // measure 96
0000
0000
0000
1000
,  // measure 97
0000
0100
0000
1000
,  // measure 98
0000
1000
0000
0001
,  // measure 99
0000
0100
0000
0001
,  // measure 100
0000
0001
0000
0000
,  // measure 101
1000
0000
0010
0000
,  // measure 102
0100
0100
0100
0000
,  // measure 103
0001
0000
0010
0000
,  // measure 104
0100
0100
0100
0000
,  // measure 105
1000
0000
0100
0000
,  // measure 106
0010
0000
0001
0000
,  // measure 107
0100
0000
0100
0000
,  // measure 108
1001
0000
0000
0000
,  // measure 109
0000
0000
0000
0000
,  // measure 110
0000
0000
0000
0000
,  // measure 111
0000
0000
0000
0000
,  // measure 112
1001
0000
0000
0000
,  // measure 113
1001
0000
0000
0000
,  // measure 114
0100
0000
0000
0000
,  // measure 115
0100
0000
0000
0000
,  // measure 116
1001
0000
0000
0000
,  // measure 117
0100
0000
0000
0000
,  // measure 118
1001
0000
0000
0000
,  // measure 119
0110
0000
0000
0000
,  // measure 120
1001
0000
0000
0000
,  // measure 121
1001
0000
0000
0000
,  // measure 122
0010
0000
0000
0000
,  // measure 123
0010
0000
0000
0000
,  // measure 124
1001
0000
0000
0000
,  // measure 125
0010
0000
0000
0000
,  // measure 126
1001
0000
0000
0000
,  // measure 127
0110
0000
0000
0000
,  // measure 128
1000
0000
0000
0000
,  // measure 129
1000
0000
0000
0000
,  // measure 130
1001
0000
0000
0000
,  // measure 131
0000
0000
0000
0000
,  // measure 132
0001
0000
0000
0000
,  // measure 133
0001
0000
0000
0000
,  // measure 134
1001
0000
0000
0000
,  // measure 135
0000
0000
0000
0000
,  // measure 136
0100
0000
0000
0000
,  // measure 137
0100
0000
0000
0000
,  // measure 138
0010
0000
0000
0000
,  // measure 139
0010
0000
0000
0000
,  // measure 140
0100
0000
0100
0000
,  // measure 141
0100
0000
0000
0000
,  // measure 142
0010
0000
0010
0000
,  // measure 143
0010
0000
0000
0000
,  // measure 144
1000
0000
1000
0000
,  // measure 145
1000
0000
0000
0000
,  // measure 146
0100
0000
0100
0000
,  // measure 147
0100
0000
0000
0000
,  // measure 148
0010
0000
0010
0000
,  // measure 149
0010
0000
0000
0000
,  // measure 150
0001
0000
0001
0000
,  // measure 151
0001
0000
0000
0000
,  // measure 152
1000
0000
1000
0000
,  // measure 153
1000
0000
0000
0000
,  // measure 154
0010
0000
0010
0000
,  // measure 155
0010
0000
0000
0000
,  // measure 156
0100
0000
0100
0000
,  // measure 157
0100
0000
0000
0000
,  // measure 158
0001
0000
0001
0000
,  // measure 159
0001
0000
0000
0000
,  // measure 160
1001
0000
0000
0000
,  // measure 161
0000
0000
0000
0000
,  // measure 162
1001
0000
0000
0000
,  // measure 163
1001
0000
0000
0000
,  // measure 164
0110
0000
0000
0000
,  // measure 165
1001
0000
0000
0000
;

//---------------dance-single - ----------------
#NOTES:
     dance-single:
     :
     Easy:
     6:
     0.412,0.540,0.266,0.345,0.000,316.000,37.000,48.000,0.000,0.000:  // measure 1
0000
0000
0000
0000
,  // measure 2
0000
0000
0000
0000
,  // measure 3
0000
0000
0000
0000
,  // measure 4
0000
0000
0000
0000
,  // measure 5
0000
0000
0000
0000
,  // measure 6
0000
0000
0000
0000
,  // measure 7
0000
0000
0000
0000
,  // measure 8
0000
0000
0000
0000
,  // measure 9
0000
0000
0000
0000
,  // measure 10
0000
0000
0000
0000
,  // measure 11
0000
0000
0000
0000
,  // measure 12
0000
0000
0000
0000
,  // measure 13
1000
0000
0100
0000
,  // measure 14
0010
0000
0001
0000
,  // measure 15
1000
0000
0010
0000
,  // measure 16
0100
0000
0001
0000
,  // measure 17
1000
0100
1000
0000
,  // measure 18
0001
0100
0001
0000
,  // measure 19
0010
0100
0010
0100
,  // measure 20
0010
0100
0010
0000
,  // measure 21
2000
0000
3010
0000
,  // measure 22
2000
0000
3100
0000
,  // measure 23
1000
0000
0100
0000
,  // measure 24
0010
0000
0001
0000
,  // measure 25
0002
0000
0013
0000
,  // measure 26
0002
0000
0103
0000
,  // measure 27
0001
0000
0100
0000
,  // measure 28
0010
0000
1000
0000
,  // measure 29
1000
0000
1100
0000
,  // measure 30
0100
0000
0110
0000
,  // measure 31
0010
0000
0011
0000
,  // measure 32
0001
0010
0100
1000
,  // measure 33
0001
0000
0101
0000
,  // measure 34
0100
0000
0110
0000
,  // measure 35
0010
0000
1010
0000
,  // measure 36
1000
0010
0100
0001
,  // measure 37
1000
0000
0101
0000
,  // measure 38
0001
0000
1100
0000
,  // measure 39
1000
0000
0110
0000
,  // measure 40
0001
1000
0001
1000
,  // measure 41
0001
0000
1010
0000
,  // measure 42
1000
0000
0011
0000
,  // measure 43
0001
0000
0110
0000
,  // measure 44
1000
0001
1000
0001
,  // measure 45
2002
0000
0000
0000
,  // measure 46
0000
0000
0000
0003
,  // measure 47
0020
0000
0030
0200
,  // measure 48
0000
0300
0020
3030
,  // measure 49
2002
0000
0000
0000
,  // measure 50
0000
0000
0000
3000
,  // measure 51
0020
0000
0030
0200
,  // measure 52
0000
0300
0020
0033
,  // measure 53
2020
0000
0000
0000
,  // measure 54
0000
0000
0000
0030
,  // measure 55
0200
0000
0300
0002
,  // measure 56
0000
0003
0020
3030
,  // measure 57
0022
0000
0000
0000
,  // measure 58
0000
0000
0000
0030
,  // measure 59
0200
0000
0300
2000
,  // measure 60
0000
3000
0020
0033
,  // measure 61
0001
1000
0020
0000
,  // measure 62
0000
1000
0000
1000
,  // measure 63
0000
1000
0000
0130
,  // measure 64
0002
0000
1003
0000
,  // measure 65
1000
0001
0020
0000
,  // measure 66
0000
0001
0000
0001
,  // measure 67
0000
0001
0000
0130
,  // measure 68
2000
0000
3001
0000
,  // measure 69
0001
1000
0002
0000
,  // measure 70
0000
0100
0000
1000
,  // measure 71
0000
0100
0000
1003
,  // measure 72
0200
0000
0310
0000
,  // measure 73
1000
0001
2000
0000
,  // measure 74
0000
0100
0000
0001
,  // measure 75
0000
0100
0000
3001
,  // measure 76
0200
0000
0310
0000
,  // measure 77
1000
0000
1000
0000
,  // measure 78
0100
0000
0100
0000
,  // measure 79
0001
0000
0100
0000
,  // measure 80
1000
0000
1001
0000
,  // measure 81
0001
0000
0001
0000
,  // measure 82
0010
0000
0010
0000
,  // measure 83
1000
0000
0010
0000
,  // measure 84
0001
0000
1001
0000
,  // measure 85
0001
0000
0010
0000
,  // measure 86
0001
0000
0100
0000
,  // measure 87
0001
0000
0010
0000
,  // measure 88
0100
0000
1000
0000
,  // measure 89
1000
0000
0100
0000
,  // measure 90
1000
0000
0010
0000
,  // measure 91
1000
0000
0100
0000
,  // measure 92
0010
0000
0001
0000
,  // measure 93
2002
0000
0000
0000
,  // measure 94
0000
0000
0000
0000
,  // measure 95
0000
0000
0000
0000
,  // measure 96
0000
0000
0000
0000
0000
3003
1000
0000
,  // measure 97
0010
0100
0001
0010
,  // measure 98
0100
2000
3000
0001
,  // measure 99
0010
0100
1000
0010
,  // measure 100
0100
0002
0000
0003
,  // measure 101
1000
0100
0010
0010
,  // measure 102
0001
0100
1000
0000
,  // measure 103
0001
0010
0100
0100
,  // measure 104
1000
0010
0001
0000
,  // measure 105
1000
1000
0100
0100
,  // measure 106
0010
0010
0001
0001
,  // measure 107
1000
0100
0010
0001
,  // measure 108
2002
0000
0000
0000
,  // measure 109
0000
0000
0000
0000
,  // measure 110
0000
0000
0000
0000
,  // measure 111
0000
0000
3003
0000
,  // measure 112
1000
0000
0010
0000
,  // measure 113
1000
0100
1000
0000
,  // measure 114
0001
0000
0010
0000
,  // measure 115
0100
0000
1000
0000
,  // measure 116
0102
0000
0010
0000
,  // measure 117
0100
0000
0013
0000
,  // measure 118
2100
0000
0010
0000
,  // measure 119
0100
0000
3010
0000
,  // measure 120
0001
0000
0100
0000
,  // measure 121
0001
0010
0001
0000
,  // measure 122
1000
0000
0100
0000
,  // measure 123
0010
0000
0001
0000
,  // measure 124
2010
0000
0001
0000
,  // measure 125
0100
0000
3100
0000
,  // measure 126
0012
0000
1000
0000
,  // measure 127
0100
0000
0103
0000
,  // measure 128
0010
0000
0110
0000
,  // measure 129
1000
0000
1100
0000
,  // measure 130
0010
0000
0011
0000
,  // measure 131
2002
0000
3003
0000
,  // measure 132
0010
0000
0110
0000
,  // measure 133
0001
0000
0101
0000
,  // measure 134
0010
0000
1010
0000
,  // measure 135
2002
0000
3003
0000
,  // measure 136
1000
0000
0100
0000
,  // measure 137
0010
0000
0100
0000
,  // measure 138
0001
0000
0100
0000
,  // measure 139
0010
0000
0100
0000
,  // measure 140
1000
0000
0010
0000
,  // measure 141
0100
0000
0010
0000
,  // measure 142
0001
0000
0010
0000
,  // measure 143
0100
0000
0010
0000
,  // measure 144
1000
0000
0100
0100
,  // measure 145
0000
0010
0010
0000
,  // measure 146
0001
0000
0100
0100
,  // measure 147
0000
0010
0010
0000
,  // measure 148
1000
0000
0001
0001
,  // measure 149
0000
0010
0010
0000
,  // measure 150
0100
0000
1000
1000
,  // measure 151
0000
0001
0001
0000
,  // measure 152
0100
0000
0010
1000
,  // measure 153
0000
0010
0100
0000
,  // measure 154
0001
0000
0010
0100
,  // measure 155
0000
1000
0100
0000
,  // measure 156
1000
0000
0010
0100
,  // measure 157
0000
0001
1000
0000
,  // measure 158
0001
0000
0010
0100
,  // measure 159
0000
1000
0001
0000
,  // measure 160
1000
0000
0100
0010
,  // measure 161
0000
0001
0000
0000
,  // measure 162
1100
0000
0000
0000
,  // measure 163
0101
0000
0000
0000
,  // measure 164
1001
0000
0110
0000
,  // measure 165
2002
0000
0000
0000
,  // measure 166
0000
0000
0000
0000
,  // measure 167
0000
0000
0000
0000
,  // measure 168
3003
0000
0000
0000
;
