#TITLE:Prepare For War;
#SUBTITLE:Sonic Firestorm (2004);
#ARTIST:Dragonforce;
#TITLETRANSLIT:;
#SUBTITLETRANSLIT:;
#ARTISTTRANSLIT:;
#CREDIT:;
#BANNER:Prepare For War.png;
#BACKGROUND:Prepare For War-bg.png;
#LYRICSPATH:;
#CDTITLE:!ElectricWerewolf.png;
#MUSIC:Dragonforce - Prepare For War.mp3;
#OFFSET:-0.074;
#SAMPLESTART:86.380;
#SAMPLELENGTH:12.000;
#SELECTABLE:YES;
#BPMS:0.000=200.000,320.000=195.000,320.500=190.000,321.000=185.000,321.500=180.000,322.000=175.000,322.500=171.000,323.000=168.000,323.500=165.000,324.000=162.000,324.500=159.000,325.000=156.000,325.500=154.000,326.000=152.000,326.500=150.000,327.000=148.000,327.500=146.000,328.000=144.000,573.000=200.000;
#STOPS:;
#BGCHANGES:;
// cache tags:
#FIRSTBEAT:0.000;
#LASTBEAT:893.000;
#SONGFILENAME:Songs/Astronomic Metal Collection/Prepare For War (ElectricWerewolf)/Prepare for War.sm;
#HASMUSIC:1;
#HASBANNER:1;
#MUSICLENGTH:299.937;
// end cache tags

//---------------dance-single - ----------------
#NOTES:
     dance-single:
     :
     Hard:
     12:
     1.000,1.000,1.000,0.200,1.000,2409.000,474.000,60.000,0.000,0.000:
1001
0000
1000
1000
0001
0010
0100
0000
,
0110
0000
0010
0010
0001
0100
0001
0000
,
1001
0000
1000
1000
0001
0010
0001
0100
,
0001
0100
0010
1000
0100
0010
0001
1000
0010
0100
0010
1000
0001
1000
0010
0100
,
1001
0100
0010
0100
0001
0100
0010
0100
0001
0100
0010
0100
0001
0010
0100
1000
,
0110
1000
0001
1000
0010
1000
0001
1000
0010
1000
0001
1000
0100
0010
0001
0100
,
0011
1000
0100
1000
0001
1000
0100
1000
0001
1000
0100
1000
0010
0100
0001
0010
,
0100
1000
0010
1000
0100
1000
0010
1000
0100
1000
0010
0100
0001
0010
0001
1000
,
0110
0000
0100
0000
0001
1000
0100
0000
0110
0000
0110
0000
1100
0000
0110
0000
,
1001
0000
0100
0000
1000
0001
0010
0000
0011
0000
0011
0000
0110
0000
0011
0000
,
2010
0000
0100
0000
0001
0100
3010
0000
1010
0000
1010
0000
0101
0000
1010
0000
,
0011
0000
0000
0100
0000
0000
1010
0000
0000
0011
0000
0000
0100
0000
0000
0110
0000
0000
1000
0000
0001
0000
0010
0000
,
0100
0000
1000
0000
0001
0100
0010
0000
0110
0000
0110
0000
0101
0000
0110
0000
,
1010
0000
0001
0000
1000
0100
0010
0000
0110
0000
0110
0000
0011
0000
0110
0000
,
1001
0000
0100
0000
1000
0001
0100
0000
1010
0000
0101
0000
1010
0000
0110
0000
,
0001
0100
0010
1000
0001
0100
0010
1000
0001
1000
0001
0010
0100
1000
0010
0100
,
1001
0000
0010
0000
0100
1000
0001
0000
1001
0000
1001
0000
1100
0000
1001
0000
,
0101
0000
0010
0000
0100
1000
0010
0000
1010
0000
1010
0000
0101
0000
1010
0000
,
0012
0000
0100
0000
1000
0100
0013
0000
0110
0000
0110
0000
1100
0000
0011
0000
,
1001
1001
1100
1001
0100
0011
1010
0100
,
1001
0000
0001
0000
0010
0100
1000
0000
1100
0000
1100
0000
0110
0000
1100
0000
,
0011
0000
0001
0000
1000
0010
0100
0000
0110
0000
0110
0000
1010
0000
0110
0000
,
0101
0000
1000
0000
0001
0010
0100
0000
1010
0000
0101
0000
1100
0000
0011
0000
,
1000
0100
0010
0100
1000
0001
0010
0001
0100
0010
0100
0010
0100
0010
0100
0010
,
1001
0000
0001
0000
0001
0000
0001
0000
0100
0000
0010
1000
0001
1000
0010
0000
,
1001
0001
0001
0001
0001
1100
0001
1100
,
1001
0000
1000
0000
1000
0000
1000
0000
0100
0000
0010
0001
1000
0001
0010
0000
,
0100
0010
0001
1000
0010
1000
0100
0010
0001
0100
0010
1000
0100
0010
0100
0010
,
1001
0000
1000
0000
1000
0010
1000
0000
0001
0000
0100
0010
1000
0010
0100
0000
,
1001
0000
0001
0000
0001
0010
0001
0000
0001
0000
1010
0000
0100
0000
0011
0000
,
1001
0000
1000
0000
1000
0100
1000
0000
0010
0000
0100
0001
0010
0001
0100
0000
,
0010
0100
0001
1000
0010
1000
0001
0010
0100
1000
0100
0010
0001
1000
0010
0100
,
1001
0000
0001
0000
0001
1000
0001
0000
1000
0000
0100
0010
0001
0010
0100
0000
,
1001
0000
0001
0000
0001
0100
0001
0000
0001
0000
1100
0000
0010
0000
0011
0000
,
0110
0000
0100
0000
0100
1000
0100
0000
1000
0000
0001
0100
0010
0100
0001
0000
,
0010
0001
0100
0010
1000
0010
0100
0001
0010
0100
1000
0001
0100
0010
1000
0100
,
0010
0100
1000
0001
0010
0100
0010
0001
0100
0010
1000
0100
0010
0001
1000
0010
,
0100
0001
0010
0100
1000
0010
0100
0001
2020
0000
0000
0000
0000
0000
0000
3030
,
0101
1000
0001
1000
0001
0100
0010
0100
0010
1000
0001
1000
0200
0000
0000
0300
,
0000
0000
0100
0000
0000
0000
0010
0000
0000
0001
0000
0000
0010
0000
0000
0001
0000
0000
1000
0000
0000
0010
0000
0000
0100
0000
0000
0010
0000
0000
1000
0000
0000
0001
0000
0000
0210
0000
0000
0000
0000
0000
0000
0000
0000
0300
0000
0000
,
1001
0000
0100
0000
0011
0000
1000
0100
0010
0000
0010
0000
0201
0000
0000
0000
,
0301
0010
0001
0000
1100
0000
0010
0100
0001
0000
0001
1000
0020
0000
0000
0000
,
1030
0100
0010
0000
0101
0000
1000
0001
0100
0000
0100
0000
0012
0000
0000
0000
,
1003
0100
0010
0000
0101
0000
0010
0100
0010
0001
1000
0000
0101
0000
0000
0000
,
1001
0000
0010
0000
0101
0000
1000
0001
1000
0000
1000
0000
0210
0000
0000
0000
,
0301
0010
0100
0000
1010
0000
0001
1000
0100
0000
0100
1000
0020
0000
0000
0000
,
0130
0001
0100
0000
1010
0000
0001
0010
0100
0000
0100
0000
1001
0000
0000
0000
,
0010
0100
0001
1000
0100
0010
0001
1000
0001
1000
0001
0010
0001
0100
0010
1000
,
0100
1000
0001
1000
0010
0100
0010
1000
0001
1000
0010
0100
0001
1000
0001
1000
,
0010
0100
0001
0100
0010
1000
0001
0010
0001
1000
0010
0100
0002
0000
0000
0000
,
0013
0100
1000
0100
1000
0001
0100
0010
1000
0100
0010
0001
0100
0010
0100
0010
,
1000
0100
0010
0001
0010
0100
0010
0001
0010
0100
1000
0100
0020
0000
0000
0000
,
0031
1000
0001
0100
0010
1000
0100
0010
0100
0010
0001
1000
0010
0100
0010
0100
,
0001
0010
0100
0010
0001
1000
0010
1000
0100
1000
0001
0010
0200
0000
0000
0000
,
1300
0010
0100
0001
0010
0100
1000
0100
0010
0100
1000
0001
0100
0010
1000
0100
,
0010
0001
0100
0010
1000
0001
1000
0010
0100
0010
1000
0001
0010
0100
1000
0010
,
1100
0000
0011
0000
0100
0001
0010
0000
0100
0000
1010
0000
0001
1000
0010
0000
,
0100
0000
0011
0000
1000
0001
0100
0000
0001
0000
1010
0000
0100
0010
0001
0000
,
1001
0000
0010
0100
0001
0100
0010
1000
0100
1000
0001
0010
0100
1000
0010
0100
,
1001
0000
0010
0001
0100
0010
0100
0001
0010
0100
1000
0010
0100
0001
1000
0100
,
0011
0000
1100
0000
0001
0010
0100
0000
0001
0000
0110
0000
1000
0001
0100
0000
,
0010
0000
1001
0000
0100
0001
0100
0000
0010
0000
0101
0000
0010
1000
0001
0000
,
0110
0000
1001
0000
0010
0100
1000
0000
0100
0000
0011
0000
0100
1000
0010
0000
,
1000
0001
0010
0100
0010
0100
1000
0001
0010
0100
0010
0100
1000
0001
1000
0001
,
0110
0000
0000
0000
,
0000
0000
0000
0000
,
0110
1100
0011
1010
0101
0110
1100
0011
,
1010
0110
1010
0101
1100
0011
0101
0110
,
1000
0001
0100
0010
0100
0001
1000
0010
0100
0001
0010
0100
1000
0100
0010
0001
,
1000
0010
0100
0010
0100
0001
1000
0010
0100
0001
0010
0001
1000
0100
0010
0001
,
1000
0000
0000
0000
1000
0000
0100
0000
0000
0100
0000
0000
0010
0000
0000
0010
0000
0000
0001
0000
0000
0001
0000
0000
,
0100
0000
0100
0000
0010
1000
0100
0010
0001
0100
0010
1000
0100
0001
0100
0010
,
1001
0000
0110
0000
0001
1000
0010
0000
0100
0000
1010
0000
0001
1000
0010
0000
,
1000
0000
0101
0000
0010
0100
1000
0000
0100
0000
0011
0000
0100
0001
1000
0000
,
0110
0000
1001
0000
0010
0100
0010
0000
0100
0000
0011
0000
1000
0100
0010
0000
,
0001
0000
1100
0000
0010
0001
0100
0000
0010
0000
1001
0000
0100
1000
0010
0000
,
0101
0000
1010
0000
0100
0010
0100
0000
0010
0000
1001
0000
0100
0001
1000
0000
,
0010
0000
1100
0000
0001
0010
0001
0000
1000
0000
0101
0000
0010
0100
1000
0000
,
0010
0100
0001
0100
0001
1000
0010
1000
0100
0010
0001
0100
0010
0100
0001
1000
,
0110
0000
0000
0000
1000
0001
0100
0010
,
2002
0000
0000
0000
,
0000
0000
0000
0000
0000
0000
0000
0000
0000
0000
0000
0000
0000
0000
0000
0000
0000
0000
0000
0000
0000
0000
0000
0003
,
3010
0001
0020
0000
2030
0000
0000
0000
3200
0000
0320
0000
0000
0000
0032
0000
,
2003
0000
0000
0000
0000
0000
3010
0000
0100
0000
0001
0000
0200
0000
0000
0000
0000
0000
0001
0000
0000
2300
0000
0000
0010
0000
0000
0000
0000
0000
3002
0000
0000
0000
0000
0000
1000
0000
0000
0000
0000
0000
0010
0000
0000
0000
0000
0000
,
0100
0003
0120
0000
0000
0000
0000
0000
,
0031
0100
0001
2000
0000
0000
3200
0000
0000
0010
0000
0000
0000
0000
0000
1000
0000
0000
0000
0000
0000
0001
0000
0300
,
1010
0100
0010
0100
1002
0000
0000
0000
0000
0000
2003
0000
3100
1000
0100
1000
,
0200
0000
0000
0000
0000
0000
1300
0000
0000
0001
0000
0000
0120
0000
0000
0000
0000
0000
0001
0000
0000
0000
0000
0000
1000
0000
0000
0000
0000
0000
0130
0000
1000
0000
0001
0000
1010
0000
0000
0000
0000
0000
0001
0000
0000
0000
0000
0000
,
1000
0010
0100
0000
1001
0000
0010
1100
0011
0000
0101
0000
0010
0000
1100
0000
,
0101
0000
1100
0000
0011
0000
1000
0110
1001
0000
1010
0000
0100
0000
0011
0000
,
1010
0000
0011
0000
1010
0000
0100
0011
1100
0000
0101
0000
0010
0000
1100
0000
,
1001
0000
1100
0000
0110
0000
1010
0101
1000
0000
0110
0000
0011
0000
1000
0000
,
0020
0000
0000
0000
0000
0000
0000
0000
0000
0000
0030
0000
0101
0000
0000
0000
0000
0000
0010
0000
0000
1001
0000
0000
0110
0000
0000
0000
0000
0000
1010
0000
0000
0000
0000
0000
0100
0000
0000
0000
0000
0000
1001
0000
0000
0000
0000
0000
,
0110
0000
1001
0000
1100
0000
1000
0101
1010
0000
0011
0000
0100
0000
1010
0000
,
1001
0000
1010
0000
0011
0000
1000
0011
1100
0000
0101
0000
1000
0000
0011
0000
,
1100
0000
0000
0000
0011
0000
0000
0000
0110
0000
0000
0000
1000
0001
1000
0000
0110
0000
0001
0000
0100
0000
0010
0000
1001
0000
0100
0000
0010
0000
1100
0000
,
0001
1010
0100
0010
1001
0000
0100
0000
1010
0000
0101
0000
1000
0000
0100
0000
,
0011
1100
0101
1000
0011
1010
0001
1000
,
0101
1010
0011
0100
1001
0110
1000
0001
,
1010
0000
0101
0000
1100
0000
0010
0100
1001
0100
0011
0000
1000
0000
0001
1000
,
0110
1000
0101
0000
1100
0000
0001
0000
0110
0000
1001
0000
0100
0000
0010
0000
,
0101
0000
1100
0000
0011
0000
1000
0000
0101
0000
1100
0000
0001
0000
0010
0100
,
1001
0011
1100
0001
1010
0011
0100
0010
,
1001
0000
0000
0110
0000
0000
0110
0000
0000
0011
0000
0000
1000
0000
0000
0011
0100
0001
0100
0000
0000
0010
1000
0010
,
1001
1100
0021
0000
0000
0000
0000
0000
,
0000
0000
0000
0031
0100
0010
2000
0000
0000
0000
0000
0000
0000
0000
0000
3100
0000
0000
0000
0000
0000
0010
0000
0000
,
0000
0001
0000
0000
1001
0100
0002
0000
0000
0000
0000
0000
0000
0000
0000
0000
,
0000
0000
0000
0000
0000
0000
0103
0000
0000
0001
0000
0000
1100
0000
0000
0000
0001
0000
0000
0000
0110
0000
0000
0000
1000
0000
0000
0000
0000
0000
0011
0000
0000
0000
0000
0000
1100
0000
0000
0000
0010
0000
0000
0000
0101
0000
0000
0000
,
1000
0000
0000
0000
0000
0000
0000
0000
0000
0000
0000
0000
0000
0000
0000
0000
0011
0000
0000
0000
0000
0000
0000
0000
0000
0000
0000
0000
0000
0000
0000
0000
0100
0000
0000
0000
0000
0000
0000
0000
0000
0000
0000
0000
0000
0000
0000
0000
2001
0000
0000
0000
0000
0000
0000
0000
0000
0000
0000
0000
0000
0000
0000
0000
0000
0000
0000
0000
0000
0000
0000
0000
0000
0000
0000
0000
0000
0000
0000
0000
0000
0000
0000
0000
0000
0000
0000
0000
0000
0000
0000
0000
0000
0000
0000
0000
0000
0000
0000
0000
0000
0000
0000
0000
0000
0000
0000
0000
0000
0000
0000
0000
0000
0000
0000
0000
0000
0000
0000
0000
0000
0000
0000
0000
0000
0000
0000
0000
0000
0000
0000
0000
0000
0000
0000
0000
0000
0000
0000
0000
0000
0000
0000
0000
0000
0000
0000
0000
0000
0000
0000
0000
0000
0000
0000
0000
3001
0000
0000
0000
0000
0000
0100
0000
0000
0000
0000
0000
0002
0000
0000
0000
0000
0000
0000
0000
0000
0000
0000
0000
0000
0000
0000
0000
0000
0000
0000
0000
0000
0000
0000
0000
,
0000
0000
0000
0000
0000
0000
0000
0000
0000
0000
0000
0000
0000
0000
0000
0000
0000
0000
0203
0000
0000
0000
0000
0000
0000
0000
0000
0000
0000
0000
0000
0000
0000
0000
0000
0000
0000
0000
0000
0000
0000
0000
0000
0000
0000
0000
0000
0000
0310
0000
0000
0000
0000
0000
0000
0000
0000
0000
0000
0000
1000
0000
0000
0000
0000
0000
0000
0000
0000
0000
0000
0000
0100
0000
0000
0000
0000
0000
0000
0000
0010
0000
0000
0000
0000
0000
0000
0000
1001
0000
0000
0000
0000
0000
0000
0000
0000
0000
0000
0000
0000
0000
0000
0000
0000
0000
0000
0000
0000
0000
0000
0000
0100
0000
0000
0000
0000
0000
0000
0000
0000
0000
0000
0000
0000
0000
0000
0000
0000
0000
0000
0000
0000
0000
0000
0000
0000
0000
0000
0000
0000
0000
0000
0000
0000
0000
0000
0000
0000
0000
0000
0000
0000
0000
0000
0000
0000
0000
0000
0000
0000
0000
0000
0000
0000
0000
0000
0000
0000
0000
0000
0000
0000
0000
0000
0000
1000
0000
0000
0000
0000
0000
0000
0000
0001
0000
0000
0000
0000
0000
0000
0000
,
0110
0000
0000
0000
1001
0000
0001
0000
0000
0000
0001
0000
0010
0000
0000
0100
,
0000
0000
0000
0000
0000
0000
1000
0000
0100
0000
0010
0000
1001
0000
0000
0000
0000
0000
0100
0000
0000
0000
0000
0000
0010
0000
0000
1100
0000
0000
0001
0000
0000
0000
0000
0000
1000
0000
0000
0110
0000
0000
0001
0000
0000
0000
0000
0000
,
0100
0010
0100
0000
1001
0000
1100
0000
1001
0000
0110
0000
0011
0000
1010
0000
,
0011
0110
1001
1100
1001
0110
0011
1010
,
0101
1010
1010
0011
1010
0101
0110
0110
,
1001
0110
1001
0101
1010
0101
1100
0110
,
1000
0000
0000
0001
0000
0000
1000
0000
0000
0000
0000
0000
0001
0000
0010
0000
0100
0000
1000
0000
0010
0000
0100
0000
0001
0000
1000
0000
0100
0000
0010
0000
0100
0000
1000
0000
0001
0000
0100
0000
0001
0000
0010
0000
0001
0000
0100
0000
,
0010
0100
0001
1000
0100
1000
0010
0100
0001
1000
0100
0010
0001
0010
0100
0010
0100
1000
0010
0100
0001
1000
0100
1000
,
0010
0100
0010
1000
0100
0010
0001
1000
0010
0100
0010
1000
0100
1000
0001
0100
0010
0100
0001
1000
0010
0100
0001
1000
,
0100
0000
0000
0000
0000
0000
0000
0000
0010
0000
0000
0000
0000
0000
0000
0000
0100
0000
0000
0000
0000
0000
0000
0000
1000
0000
0000
0000
0000
0000
0000
0000
0001
0000
0000
0000
0000
0000
0000
0000
0010
0000
0000
0000
0000
0000
0000
0000
0100
0000
0000
0000
0000
0000
0000
0000
0000
0000
0000
0000
1000
0000
0000
0000
0000
0000
0000
0000
0000
0000
0000
0000
0001
0000
0000
0000
0000
0000
0100
0000
0000
0000
0000
0000
0001
0000
0000
0000
0000
0000
0000
0000
0000
0000
0000
0000
1010
0000
0000
0000
0000
0000
0000
0000
0000
0000
0000
0000
0001
0000
0000
0000
0000
0000
0000
0000
0000
0000
0000
0000
0100
0000
0000
0000
0000
0000
0000
0000
0000
0000
0000
0000
0010
0000
0000
0000
0000
0000
0000
0000
0000
0000
0000
0000
1000
0000
0000
0000
0000
0000
0000
0000
0000
0000
0000
0000
0001
0000
0000
0000
0000
0000
0000
0000
0000
0000
0000
0000
0010
0000
0000
0000
0000
0000
0000
0000
0000
0000
0000
0000
1000
0000
0000
0000
0000
0000
0000
0000
0000
0000
0000
0000
,
0010
0000
0000
0100
0000
0000
1001
0000
0000
0110
0000
0000
1001
0000
0000
0000
0000
0000
0100
0000
0000
0011
0000
0000
1100
0000
0000
0000
0000
0000
1010
0000
0000
0000
0000
0000
0110
0000
0000
0000
0000
0000
0000
0000
0101
0000
0000
0000
,
1100
0000
1001
0000
0110
0000
1001
0000
0000
0010
0000
0000
0101
0000
0000
1000
0000
0000
0001
0000
0000
1000
0010
0100
,
1001
0000
1100
0000
0101
0000
1000
0110
1001
0000
1100
0000
0101
0000
0010
1001
,
0110
0000
1010
0000
0101
0000
1000
0000
0011
0000
0100
0000
0001
0000
1000
0001
,
0110
0000
0000
0000
0000
0000
0001
0000
0000
0000
0000
0000
0100
0000
0001
0000
1000
0000
0100
0000
0010
0000
0001
0000
0010
0000
0000
0000
0000
0000
0100
0000
0000
1000
0000
0000
0001
0000
0000
0000
0000
0000
0100
0000
0000
0000
0000
0000
,
1001
0000
0000
0000
0000
0000
0000
0000
0000
0000
0000
0000
0000
0000
0000
0000
0000
0000
0000
0000
0000
0000
0000
0000
0010
0000
0000
0000
0000
0000
0000
0000
0000
0000
0000
0000
0000
0000
0000
0000
0000
0000
0000
0000
0000
0000
0000
0000
1000
0000
0000
0000
0000
0000
0000
0000
0001
0000
0000
0000
0000
0000
0000
0000
0100
0000
0000
0000
0000
0000
0000
0000
0010
0000
0000
0000
0000
0000
0000
0000
1000
0000
0000
0000
0000
0000
0000
0000
0010
0000
0000
0000
0000
0000
0000
0000
1000
0000
0000
0000
0000
0000
0100
0000
0000
0000
0000
0000
0010
0000
0000
0000
0000
0000
0001
0000
0000
0000
0000
0000
1000
0000
0000
0000
0000
0000
0000
0000
0010
0000
0000
0000
0000
0000
0000
0000
0100
0000
0000
0000
0000
0000
0000
0000
0001
0000
0000
0000
0000
0000
0000
0000
0010
0000
0000
0000
0000
0000
0000
0000
0100
0000
0000
0000
0000
0000
0000
0000
1000
0000
0000
0000
0000
0000
0000
0000
0001
0000
0000
0000
0000
0000
0000
0000
0100
0000
0000
0000
0000
0000
0000
0000
,
0020
0000
0000
0000
0000
0000
0000
0000
0000
0000
0000
0000
0000
0000
0000
0000
0000
0000
0000
0000
0000
0000
0000
0000
0000
0000
0000
0000
0000
0000
0000
0000
0030
0000
0000
0000
0000
0000
0000
0000
0000
0000
0000
0000
0000
0000
0000
0000
1000
0000
0000
0000
0000
0000
0001
0000
0000
0000
0000
0000
0100
0000
0000
0000
0000
0000
0010
0000
0000
0000
0000
0000
0100
0000
0000
0000
0000
0000
0000
0000
0010
0000
0000
0000
0000
0000
0000
0000
1000
0000
0000
0000
0000
0000
0000
0000
0000
0000
0000
0000
0000
0000
0100
0000
0000
0000
0000
0000
0000
0000
0000
0000
0010
0000
0000
0000
0000
0000
0000
0000
0000
0000
0000
0000
0000
0000
0100
0000
0000
0000
0000
0000
0000
0000
0000
0000
0010
0000
0000
0000
0000
0000
0000
0000
0001
0000
0000
0000
0000
0000
0000
0000
1000
0000
0000
0000
0000
0000
0000
0000
0000
0000
0001
0000
0000
0000
0000
0000
0000
0000
0000
0000
0000
0000
0000
0000
1000
0000
0000
0000
0000
0000
0000
0000
0100
0000
0000
0000
0000
0000
0000
0000
,
0010
0000
0001
0000
0100
0000
0010
0000
1000
0000
0001
0000
0010
0000
0100
0000
1000
0000
0010
0000
0100
0000
0001
0000
0010
0000
0001
0000
1000
0000
0010
0000
0100
0000
0001
0000
1000
0000
0000
0010
0000
0000
0100
0000
0000
0001
0000
0000
,
0010
0000
0001
0100
0010
1000
0100
0010
1001
0000
0000
0000
0000
0000
0000
0000
1010
0000
0000
0000
0000
0000
0000
0000
0101
0000
0000
0000
0100
0000
0000
0000
,
0011
0000
1010
0100
1001
0000
0000
0000
0101
0000
0000
0000
1010
0000
0011
0000
,
0101
1010
0001
0000
1001
0000
0000
0000
1010
0000
0101
0000
1100
0000
0100
0000
,
0011
1000
0100
1001
0000
0000
0011
0000
0000
0100
0010
0001
,
1000
0000
0010
0000
0100
0000
0001
0000
0000
0000
0000
0000
0110
0000
0000
0000
0000
0000
0000
0000
0000
1100
0000
0000
0011
0000
0000
0000
0000
0000
0110
0000
0000
0000
0000
0000
1001
0000
0000
0000
0000
0000
0001
0000
0000
0000
0000
0000
,
1010
0000
0100
0000
0101
0010
1000
0011
0100
1000
0110
0001
1010
0100
0001
0110
,
1000
0000
0000
0001
0000
0000
0110
0000
0000
0000
0000
0000
1001
0000
0010
0000
0100
0000
1000
0000
0001
0000
0100
0000
0010
0000
0100
0000
0001
0000
1000
0000
0100
0000
1000
0000
0010
0000
0100
0000
0010
0000
1000
0000
0100
0000
0010
0000
,
0001
0100
0010
0100
0001
1000
0110
0001
1000
0010
1000
0100
0010
0001
0100
0010
0100
0001
1000
0100
1000
0010
1000
0100
,
0010
0001
0100
0001
0010
0100
2002
0000
0000
0000
0000
0000
0000
0000
0000
0000
0000
0000
0000
0000
0000
0000
0000
0000
,
0000
0000
0000
0000
,
0000
0000
0000
0000
0000
3003
0220
0000
0000
0000
0000
0000
0000
0000
0000
0000
0000
0000
0000
0000
0000
0000
0000
0000
,
0000
0000
0330
1000
0001
1000
0110
0000
0000
1001
0000
0000
0000
0000
0000
0100
0000
0000
0010
0000
0000
0000
0000
0000
,
0001
2020
0000
0000
,
0000
0000
0000
0000
3030
0000
0001
0000
0010
0000
0100
0000
1000
0000
0000
0000
0000
0000
0010
0000
0000
0000
0000
0000
0100
0000
0000
0001
0000
0000
0010
0000
0000
0000
0000
0000
0100
0000
0000
0010
0000
0000
0001
0000
0000
0000
0000
0000
,
0100
0001
1000
0010
0202
0000
0000
0000
0000
0000
0000
0000
0000
0000
0000
0000
,
0000
0000
0000
0000
0000
0303
1010
0000
0000
0011
0000
0000
0110
0000
0000
1001
0000
0000
0101
0000
0000
1010
0000
0000
,
0110
0000
0101
0000
1000
0010
0100
0001
0100
0001
0010
0100
1000
0010
0100
0010
,
1000
0100
1000
0001
0110
1000
0010
1000
0010
1000
0100
0010
0100
0010
0100
0010
,
0001
1000
0001
1000
0010
0100
0010
0100
0010
0100
0001
0100
0001
0100
0001
0100
,
0010
0000
0101
0000
0011
1100
0000
1100
,
0110
1100
0110
0000
1100
0022
0000
0000
,
0000
0000
0000
0033
0100
0010
1000
0001
0010
0001
0100
0001
1000
0100
0010
0100
,
1000
0010
0100
0010
0100
0001
0010
0001
0100
0010
1000
0001
1000
0010
0100
0001
,
2020
0000
0000
3030
0001
0010
0100
1000
0001
0100
0010
1000
0010
0100
0001
0010
,
0100
1000
0010
0100
0001
1000
0100
0010
0001
0100
0010
1000
0100
0010
0100
1000
,
0001
0010
0100
1000
0011
0100
0001
0100
0010
1000
0100
0010
0001
0100
0010
0100
,
0001
1000
0100
0010
1001
0100
0010
1000
0001
0010
0100
0010
0100
1000
0001
0100
,
0010
1000
0100
0010
0200
0000
0000
0000
0300
0000
1000
0000
0000
0000
0000
0000
,
0001
0000
0000
0000
0100
0000
0000
0000
0010
0000
0100
0000
0001
1000
0010
0100
,
0010
0000
0000
1000
0000
0000
0100
0000
0000
0010
0000
0000
1001
0000
0000
0100
0000
0000
0010
0000
0000
1000
0000
0000
0001
0000
0000
0010
0000
0000
0100
0000
0010
0000
0001
0000
1000
0000
0000
0010
0000
0000
0100
0000
0000
0001
0000
0000
,
1000
0100
0010
0001
1100
0000
0000
0000
0110
0000
0011
0000
0000
0000
1010
0000
,
0001
0000
0010
0000
0100
0000
1000
0000
0001
0000
0010
0000
0100
0000
0000
0000
0000
0000
0000
0000
0000
0010
0000
0000
0000
0000
0000
0000
0000
0000
0001
0000
0000
0000
0000
0000
0000
0000
0000
0000
0000
0000
0100
0000
0000
0000
0000
0000
,
0010
0000
0001
0000
0100
0010
1000
0001
0100
0001
1000
0010
0100
0001
0010
0100
,
1001
0100
0010
1000
0100
0010
0100
0010
0100
0010
0100
0010
0100
0010
0001
0010
,
0100
0010
0100
0010
0001
1000
0001
1000
0001
1000
0001
1000
0001
1000
0001
1000
,
0001
1000
0001
1000
0001
0100
0001
0100
0001
0100
0001
1000
0010
1000
0010
1000
,
0010
0100
0001
0010
0100
1000
0001
1000
0010
0100
0001
0010
0200
0000
0000
0000
,
0000
0000
0000
0000
0000
0000
0300
0000
0000
0000
0000
0000
0100
0000
0000
0010
0000
0000
0001
0000
1000
0000
0001
0000
1000
0000
0000
0010
0000
0000
0100
0000
0000
0001
0000
0000
0010
0000
0000
0001
0000
0000
0010
0000
0000
0100
0000
0000
,
1000
0010
0100
0010
0100
0001
1000
0100
0010
0001
0100
0010
1000
0010
0100
0001
,
0010
0000
0000
0100
0000
0000
1000
0000
0001
0000
0100
0000
0010
0000
0000
0000
0000
0000
0000
0000
0000
0000
0000
0000
1000
0000
0000
0000
0000
0000
0000
0000
0000
0000
0000
0000
0001
0000
0000
0000
0000
0000
0000
0000
0000
0000
0000
0000
,
0100
0000
0000
0000
0001
0010
0001
1000
0010
0100
0010
1000
0001
0010
0001
0100
,
0010
1000
0100
0010
0001
1000
0010
1000
0010
1000
0001
0010
0100
0010
0001
0100
,
0010
1000
0100
0010
0100
1000
0001
1000
0100
1000
0001
0100
0010
1000
0010
0100
,
0001
0010
0100
1000
0010
0100
0010
1000
0100
0010
0001
0100
0010
1000
0100
0010
,
0001
0000
0000
0000
0000
0000
1000
0000
0000
0000
0000
0000
0001
0000
0000
0000
0000
0000
1000
0000
0000
0000
0000
0000
0001
0000
0010
0000
0001
0000
0100
0000
0000
0001
0000
0000
0200
0000
0000
0000
0000
0000
0000
0000
0000
0000
0000
0000
,
0000
0000
0000
0000
0310
1000
0100
0010
0001
0100
0010
1000
0100
1000
0001
0100
,
0010
1000
0010
0100
0001
0010
0100
1000
0010
1000
0100
0010
0100
1000
0001
0100
,
0010
1000
0001
0100
0001
0010
0001
0100
0010
1000
0100
0010
0001
0010
0100
1000
,
0100
0010
0001
0100
0010
1000
0001
0100
0001
1000
0010
0100
0001
1000
0100
1000
,
0010
0100
0001
1000
0110
0000
0011
0000
1000
0001
0100
0000
0010
0000
1100
0000
,
0001
1000
0010
0000
1000
0000
0101
0000
0010
0100
1000
0000
0010
0000
1001
0000
,
0100
0010
0001
0000
1100
0000
0011
0000
0100
0001
0010
0000
0100
0000
1010
0000
,
0001
1000
0010
0000
0100
0000
1001
0000
0010
0001
0100
0000
0001
0000
1010
0000
,
0100
0010
0001
0000
1000
0001
0100
0001
1000
0001
0010
0001
1000
0001
0100
0001
,
1000
0001
0010
0001
0010
0000
0100
0000
1000
0000
0001
0000
0010
0100
0010
0001
,
1000
0010
0100
0000
0001
1000
0010
0100
0001
0010
0100
1000
0010
0100
0001
1000
,
0100
0010
0100
1000
0011
1000
0100
0010
0001
1000
0010
0100
0001
0010
0100
0010
,
0001
0000
0000
0000
0000
0000
1000
0000
0000
0100
0000
0000
0020
0000
0000
0000
0000
0000
0000
0000
0000
0000
0000
0000
0000
0000
0030
0000
0000
0000
0020
0000
0000
0000
0000
0000
0000
0000
0000
0000
0000
0000
0230
0000
0000
0000
0000
0000
,
0000
0000
0000
1300
0000
0000
1000
0000
0000
0001
0000
0000
1000
0001
1000
0200
0000
0000
0000
0300
0000
0100
0000
0000
,
0010
0000
0001
0000
0010
0100
1000
0100
0010
0001
0100
0010
0100
0001
1000
0010
,
0100
0001
0010
0100
1001
0010
0100
0001
1000
0100
0010
0001
0010
0100
0010
0001
,
0100
0010
1000
0001
0110
0000
1100
0000
0110
0000
0011
0000
0000
0000
1010
0000
,
0101
0000
1010
0000
0000
0000
0011
0000
0000
0000
1100
0000
0001
0010
0100
1000
,
0020
0000
0000
0000
1030
0100
0010
0100
1000
0010
0100
0001
0010
0100
1000
0001
,
0100
0010
1000
0010
0100
0001
0010
0100
1000
0010
0100
0010
1000
0001
0010
0001
,
1000
0100
0010
0100
1001
0000
0000
0000
0000
0000
0000
0000
0000
0000
0000
0000
,
0000
0000
0000
0000
,
0000
0000
0000
0000
,
0000
0000
0000
0000
,
0000
0000
0000
0000
,
0000
0000
0000
0000
,
0000
0000
0000
0000
,
0000
0000
0000
0000
1001
0010
0100
1000
0001
0100
0010
0100
0001
1000
0010
0100
,
0001
1000
0100
0010
1001
0000
0011
0000
0100
1000
0010
0000
0100
0000
0101
0000
,
1000
0001
0010
0000
0100
0000
0110
0000
0001
0100
0010
0000
1000
0000
1100
0000
,
0010
0100
1000
0000
0011
0000
0101
0000
0010
1000
0001
0000
0010
0000
0101
0000
,
1000
0010
1000
0000
0001
0000
0110
0000
0010
0100
0001
0000
1000
0000
0110
0000
,
0010
0100
0010
0000
0101
0000
0001
1000
0010
0100
0010
1000
0100
0010
0001
0100
,
0010
1000
0001
0100
1010
0000
0010
0100
0001
0100
0010
1000
0100
0010
0100
1000
,
0010
0100
0001
1000
0110
0000
1001
0000
0100
0010
0001
0000
1000
0000
0110
0000
,
0001
0100
0010
0000
0100
0001
1000
0010
0100
0001
1000
0010
0100
0010
0100
0010
,
0100
0010
0100
0010
1001
0000
0011
0000
0100
1000
0010
0000
0100
0000
1001
0000
,
0010
0100
0001
0000
0010
0000
0110
0000
0001
1000
0010
0000
0100
0000
1100
0000
,
0010
0001
0100
0000
1010
0000
0011
0000
0100
0010
1000
0000
0100
0000
0011
0000
,
1000
0010
0100
0000
0001
0000
1010
0000
0010
0100
1000
0000
0001
0000
0101
0000
,
1000
0010
0100
0000
0011
0000
1010
0000
0101
0000
0110
0000
1001
0000
1100
0000
,
0110
1100
0101
0011
0110
1010
0011
0110
,
1100
0000
0101
0000
1001
0000
0110
0000
1000
0010
0100
0000
1000
0000
0011
0000
,
0100
1000
0001
0000
0100
0000
1010
0000
0001
0100
0001
0000
1000
0000
0110
0000
,
0001
1000
0010
0000
0101
0000
0011
0000
1100
0000
0110
0000
1010
0000
0011
0000
,
1100
0000
1001
0000
0001
0100
0010
1000
0100
0010
0001
0010
0100
0010
0100
1000
,
0001
0100
0010
1000
0100
0010
0001
0100
0010
1000
0100
0010
0100
1000
0010
0100
,
0001
1000
0100
0010
1001
0000
0000
0000
0000
0000
0000
0000
0000
0000
0000
0000
,
0000
0000
0000
0000
0000
0000
1000
0000
0100
0000
0010
0000
0001
0000
0100
0000
0010
0000
1000
0000
0000
0100
0000
0000
,
1000
0000
0000
0001
0000
0000
0010
0000
1100
0000
0011
0000
1010
0000
0101
0000
1000
0000
0001
0000
1000
0000
0010
0000
,
0100
0001
1000
0110
0000
0000
0000
0000
0000
0000
0000
0000
;
