#TITLE:Identity;
#SUBTITLE:;
#ARTIST:Beautiful Day;
#TITLETRANSLIT:;
#SUBTITLETRANSLIT:;
#ARTISTTRANSLIT:;
#CREDIT:;
#BANNER:identity-bn.png;
#BACKGROUND:identity-bg.png;
#LYRICSPATH:;
#CDTITLE:;
#MUSIC:O2Jam - Identity.mp3;
#OFFSET:-0.700;
#SAMPLESTART:38.999;
#SAMPLELENGTH:14.000;
#SELECTABLE:YES;
#BPMS:0.000=155.000,32.000=157.500,40.000=155.000;
#STOPS:72.000=0.040
;
#BGCHANGES:;
// cache tags:
#FIRSTBEAT:0.000;
#LASTBEAT:343.000;
#SONGFILENAME:Songs/Community Keyboard Megapack - Volume 2/(Reach) Identity/Identity.sm;
#HASMUSIC:1;
#HASBANNER:1;
#MUSICLENGTH:134.739;
// end cache tags

//---------------dance-single - Copied from----------------
#NOTES:
     dance-single:
     Copied from:
     Edit:
     15:
     1.000,1.000,1.000,0.045,1.000,1018.000,453.000,6.000,0.000,109.000:
1000
1000
1000
1000
,
0100
0100
0100
0100
,
0010
0010
0010
0010
,
0001
0001
0001
0001
,
0010
0010
0010
0010
,
0100
0100
0100
0100
,
1000
1000
1000
1000
,
0100
0000
0100
0000
0100
0000
0200
0010
,
0001
1000
0001
0010
0001
1000
0010
0000
,
0000
0000
0000
0000
,
0300
0000
0000
0000
1011
0100
0011
0000
1011
0000
0110
0000
1011
0000
0110
0000
,
1011
0000
0110
0000
1110
0001
0110
0000
1110
0000
0011
0000
1110
0000
0101
0000
,
1110
0000
0011
0000
1101
0010
0101
0000
1110
0000
0110
0000
1101
0000
0011
0000
,
1110
0000
0110
0000
1011
0100
0011
0000
1101
0000
0110
0000
1011
0000
0110
0000
,
1101
0000
0110
0000
1100
0001
1100
0001
1100
0001
1100
0001
1100
0010
1100
0010
,
1100
0010
1100
0010
1001
0100
1001
0100
1001
0100
1001
0100
1010
0001
1010
0001
,
1100
0010
1100
0010
1001
0100
1001
0100
1001
0010
1001
0010
1100
0001
1100
0001
,
1100
0000
0010
0000
1100
0000
0010
0000
1000
0100
0010
0001
0010
0100
1000
0100
0010
0001
0010
0100
1000
0100
0010
0001
0010
0100
1000
0100
0010
0000
0000
0000
,
0200
1300
0010
1101
0010
1101
0001
1101
,
0001
0111
0001
0111
0001
1101
0001
1011
,
1000
1110
1000
1101
1000
1110
1000
1011
,
0010
1101
0100
1011
0010
1101
0100
1110
,
0100
0000
0111
0000
0100
0000
1110
0000
0100
0000
0111
0000
0100
0000
0011
1000
,
0100
0000
1011
0000
1100
0010
1100
0001
0110
0000
0011
1000
0110
0000
0111
1000
,
0001
0000
1110
0001
1100
0001
1100
0010
1001
0100
0011
1000
0110
0000
0101
0000
,
1010
0101
0110
1001
0110
1110
0111
1110
,
1011
0110
0101
1010
1100
0111
1110
1101
,
1011
0011
0110
1001
0110
1101
1101
0111
,
1011
0110
0011
1010
0101
0111
1110
1110
,
1101
0110
1100
0110
0101
1001
0110
1101
,
1110
0000
0110
0000
1001
0000
1100
0000
0011
0000
1100
0000
0101
0000
1110
0001
,
1100
0000
1110
0000
0011
1000
0011
0100
1001
0000
1110
0001
1100
0000
1011
0000
,
1110
0000
0101
0010
1100
0000
1011
0000
1110
0000
0101
0010
0101
1000
0011
0100
,
0011
0000
0100
0000
1001
0000
0100
0000
1001
0000
0100
0000
0011
0000
0100
0000
0011
0000
0100
0000
1001
0000
0100
0000
1001
0000
0100
0000
0001
0010
0100
1000
,
0100
0010
0001
0010
0100
1000
0100
0010
0001
0010
0100
1000
0100
0010
0001
0010
0100
1000
0100
0010
0001
0010
0100
1000
0100
0010
0100
0010
1001
0000
0000
0000
,
0001
0100
1001
0010
0100
1000
0101
0010
0100
1000
0011
0100
1000
0000
1110
0000
,
0101
0000
1010
0100
0010
1000
0110
0001
1000
0100
0011
0100
1000
0001
1110
0000
,
1001
0000
0110
0001
1000
0010
1100
0001
1000
0100
0011
0100
1000
0001
1110
0000
,
0101
0000
0110
1000
0100
0010
0101
1000
0001
0100
0011
1000
0001
0010
0101
1000
,
0011
0100
1010
0001
0100
1000
0101
0010
1000
0001
1010
0100
0010
0001
1110
0000
,
0110
0000
0101
0010
1000
0001
0110
1000
0100
0010
0101
1000
0001
0100
1011
0000
,
1001
0000
0101
1000
0100
0010
1001
0100
1000
0100
1010
0001
0100
1000
0111
0000
,
0101
0000
0011
0100
0001
0010
0101
1000
0001
0010
0101
0010
0100
1000
0101
0010
,
1001
0100
0010
0001
1010
0100
0010
1000
0101
0010
1000
0001
1100
0010
0100
0001
,
1010
0100
0001
0010
0101
0010
0100
1000
0011
0100
0010
0001
1100
0010
1000
0001
,
0110
1000
0001
0100
0011
1000
0100
0010
1100
0010
0100
0010
1001
0100
0010
0100
,
1001
0010
0100
0001
1010
0100
0001
1000
0101
0010
1000
0100
0011
0100
1001
0100
,
1010
0001
1000
0001
1100
0001
0100
0001
1010
0001
1000
0001
0110
0001
0010
0001
,
1100
0010
0100
1000
0101
1000
0010
1000
0011
1000
0001
1000
0110
1000
0100
1000
,
0101
1000
0010
1000
0011
1000
0001
1000
0110
0001
0100
0001
0110
1000
0010
1000
,
0110
0001
1000
0001
0110
1000
0001
1000
0110
0001
0010
0100
1001
0100
0011
0100
,
1010
0100
0011
0100
1010
0100
1001
0010
1001
0100
1001
0010
1001
0100
1010
0100
,
1001
0100
1010
0100
1001
0100
0011
0100
1001
0100
0011
0100
1001
0100
0011
0100
,
1010
0100
0011
0100
1010
0100
1001
0100
0011
0100
1010
0100
1001
0100
0011
0100
,
1001
0100
1010
0100
1001
0100
0011
0100
1010
0100
0011
0100
1001
0100
1010
0100
,
1001
0100
1010
0100
1001
0100
1010
0001
1010
0001
1100
0010
0101
0010
1100
0001
,
1010
0001
1100
0010
0101
0010
1100
0001
1010
0001
1100
0010
1001
0010
1100
0001
,
1010
0000
0001
0000
1100
0000
0010
0000
1001
0000
0010
0000
1100
0000
0001
0000
1010
0000
0001
0000
1100
0000
0010
0000
0100
0000
0010
0000
0100
1000
0100
0010
,
0001
0010
0100
1000
0100
0010
0001
0010
0100
1000
0100
0010
0001
0010
0100
1000
0100
0010
0001
0010
0100
1000
0100
0010
0001
0010
0100
1000
0011
0000
0000
0000
,
0000
0000
0000
0000
0000
0000
0000
1111
,
1111
0000
0011
0111
0000
1110
0111
1101
,
0000
0000
0000
0110
0000
0001
0010
1110
,
1110
0000
0000
0000
0000
0000
0000
0000
0000
1011
0000
0000
0000
0000
0100
0000
0000
0000
0010
0000
0000
1101
0000
0000
,
0000
0000
0000
0000
0000
0000
1010
0000
0000
1010
0000
0000
1010
0000
1101
0000
,
1110
0000
1100
0110
1001
0011
1100
1011
,
0000
0000
0000
0000
0000
0000
0110
0000
0000
0101
0000
0000
0101
0000
1101
0000
,
1110
0000
0000
0000
0000
0000
1010
0000
0000
1001
0000
0000
0110
0000
1101
0010
,
0100
0000
1000
0000
0001
0000
0100
0000
0010
0000
1000
0000
0001
0100
0001
0100
0001
0100
0001
0100
0001
0100
0001
0100
0001
0100
0001
0100
0001
0000
0010
0000
,
0100
1000
0011
1100
0010
1000
0101
1010
0001
1000
0011
0110
1001
0000
1100
1100
,
0001
0010
0101
1010
0100
0010
0101
1010
0001
0010
1100
0011
1100
0000
1001
0011
,
0100
0010
1100
0101
0010
0001
1100
0011
0100
0010
1100
0011
1100
0001
1110
0001
,
0010
0100
1001
0110
1000
0001
1010
0101
1000
0100
1010
0101
1000
0010
1001
1100
,
0011
0100
1010
1100
0011
0100
1001
0110
0000
0000
0110
0000
1001
0000
0110
0000
,
0111
1000
0011
1000
0111
1000
0011
1100
0000
0000
0110
0000
1001
0000
0110
0000
,
1011
0100
1001
0100
1011
0100
1001
1001
0110
0000
0011
0000
1100
0000
1101
0010
,
1100
0010
1101
0010
1100
0010
1100
0001
1110
0001
1110
0001
1110
0001
1010
0110
,
0011
1000
0010
0100
0001
1000
0011
0110
1010
0100
0001
1000
0010
0100
1001
0110
,
1001
0010
1000
0001
0100
0010
1100
0011
1100
0010
1000
0001
0100
0010
1001
0110
,
1001
0100
0010
0100
0001
0010
1100
0011
1001
0010
1000
0001
0100
0010
1100
0011
,
1100
0001
1000
0100
1000
0010
1001
0110
1001
0010
1000
0001
0100
0010
1001
0000
,
0010
1000
0001
0100
0010
0100
1001
1001
0110
0000
1001
0000
1010
0000
1001
0010
,
0100
1000
0011
0110
1001
0000
0110
0000
1100
0000
0011
0000
1001
0000
1110
0001
,
1100
0001
1100
0001
1100
0001
1101
0010
1100
0010
1100
0010
1100
0010
1101
0010
,
1100
0010
1101
0010
1100
0001
1010
0100
1001
0010
1001
0100
0011
0100
1011
0000
,
1011
1101
0000
1011
1101
0000
1011
1101
0000
1011
1101
0000
1101
0000
2222
0000
,
0000
3333
0000
0000
;

//---------------dance-single - Copied from----------------
#NOTES:
     dance-single:
     Copied from:
     Challenge:
     13:
     1.000,1.000,1.000,0.030,1.000,1000.000,268.000,4.000,0.000,0.000:
1000
1000
1000
1000
,
0100
0100
0100
0100
,
0010
0010
0010
0010
,
0001
0001
0001
0001
,
0010
0010
0010
0010
,
0100
0100
0100
0100
,
1000
1000
1000
1000
,
0100
0100
0100
0200
,
0000
0000
0000
0000
,
0000
0000
0000
0000
,
0300
0000
1001
0100
1001
0100
1001
0100
,
1001
0100
1010
0001
1010
0001
1010
0001
,
1010
0001
1100
0010
1100
0010
1100
0010
,
1100
0010
1001
0100
1001
0100
1001
0100
,
1001
0000
0100
0000
1000
0001
1000
0001
1000
0001
1000
0001
1000
0010
1000
0010
,
1000
0010
1000
0010
1000
0100
1000
0100
1000
0100
1000
0100
1000
0001
1000
0001
,
1000
0010
1000
0010
1000
0100
1000
0100
1000
0010
1000
0010
1000
0001
1000
0001
,
1000
0000
0010
0000
1000
0000
0010
0000
1000
0100
0010
0001
0010
0100
1000
0100
0010
0001
0010
0100
1000
0100
0010
0001
0010
0100
1000
0100
0010
0000
0000
0000
,
0200
1300
0010
1100
0010
0101
0001
1001
,
0001
0101
0001
0011
0001
0101
0001
1001
,
1000
1010
1000
1100
1000
1010
1000
1001
,
0010
1001
0100
1001
0010
1001
0100
1010
,
0100
0000
0011
0000
0100
0000
1010
0000
0100
0000
0011
0000
0100
0000
0010
1000
,
0100
0000
0011
0000
1000
0010
1000
0001
0100
0000
0001
1000
0010
0000
0110
1000
,
0001
0000
1010
0001
0100
0001
0100
0010
1000
0100
0011
1000
0010
0000
0101
0000
,
1010
0001
0010
0001
0100
1010
0101
0110
,
1001
0010
0100
0010
1000
0011
1100
0101
,
1010
0001
0010
0001
0100
1100
0101
0011
,
1001
0010
0001
0010
0100
0101
0110
1100
,
0101
0010
1000
0010
0100
1000
0010
0101
,
1010
0000
0100
0000
0001
0000
1000
0000
0010
0000
0100
0000
0001
0000
1010
0001
,
0100
0000
1010
0000
0001
1000
0010
0100
0001
0000
1010
0001
0100
0000
1001
0000
,
0110
0000
0001
0010
0100
0000
1001
0000
0110
0000
0001
0010
0100
1000
0001
0100
,
0001
0000
0100
0000
0001
0000
0100
0000
0001
0000
0100
0000
0001
0000
0100
0000
0001
0000
0100
0000
0001
0000
0100
0000
0001
0000
0100
0000
0001
0010
0100
1000
,
0100
0010
0001
0010
0100
1000
0100
0010
0001
0010
0100
1000
0100
0010
0001
0010
0100
1000
0100
0010
0001
0010
0100
1000
0100
0010
0100
0010
1001
0000
0000
0000
,
0010
0100
1000
0010
0100
1000
0001
0010
0100
1000
0010
0100
0001
0000
1100
0000
,
0101
0000
1000
0100
0010
1000
0010
0001
1000
0100
0010
0100
1000
0001
1010
0000
,
1001
0000
0100
0001
1000
0010
0100
0001
1000
0100
0010
0100
1000
0001
1100
0000
,
0101
0000
0100
1000
0100
0010
0001
1000
0001
0100
0010
1000
0001
0010
0101
1000
,
0011
0100
1000
0001
0100
1000
0001
0010
1000
0001
0010
0100
0010
0001
1010
0000
,
0110
0000
0001
0010
1000
0001
0100
1000
0100
0010
0001
1000
0001
0100
0011
0000
,
1001
0000
0100
1000
0100
0010
0001
0100
1000
0100
0010
0001
0100
1000
0011
0000
,
0101
0000
0001
0100
0001
0010
0100
1000
0001
0010
0001
0010
0100
1000
0101
0010
,
1001
0100
0010
0001
1010
0100
0010
1000
0101
0010
1000
0001
1100
0010
0100
0001
,
1010
0100
0001
0010
0101
0010
0100
1000
0011
0100
0010
0001
1100
0010
1000
0001
,
0110
1000
0001
0100
0011
1000
0100
0010
1100
0010
0100
0010
1001
0100
0010
0100
,
1001
0010
0100
0001
1010
0100
0001
1000
0101
0010
1000
0100
0011
0100
1001
0100
,
1010
0001
1000
0001
1100
0001
0100
0001
1010
0001
1000
0001
0110
0001
0010
0001
,
1100
0010
0100
1000
0101
1000
0010
1000
0011
1000
0001
1000
0110
1000
0100
1000
,
0101
1000
0010
1000
0011
1000
0001
1000
0110
0001
0100
0001
0110
1000
0010
1000
,
0110
0001
1000
0001
0110
1000
0001
1000
0110
0001
0010
0100
1001
0100
0011
0100
,
1010
0100
0011
0100
1010
0100
1001
0010
1001
0100
1001
0010
1001
0100
1010
0100
,
1001
0100
1010
0100
1001
0100
0011
0100
1001
0100
0011
0100
1001
0100
0011
0100
,
1010
0100
0011
0100
1010
0100
1001
0100
0011
0100
1010
0100
1001
0100
0011
0100
,
1001
0100
1010
0100
1001
0100
0011
0100
1010
0100
0011
0100
1001
0100
1010
0100
,
1001
0100
1000
0100
1001
0100
1000
0001
1010
0001
1000
0010
0101
0010
0100
0001
,
1010
0001
1000
0010
0101
0010
0100
0001
1010
0001
1000
0010
0101
0010
1100
0001
,
1010
0000
0001
0000
1000
0000
0010
0000
1100
0000
0010
0000
0100
0000
0001
0000
1100
0000
0001
0000
1000
0000
0010
0000
0100
0000
0010
0000
0100
1000
0100
0010
,
0001
0010
0100
1000
0100
0010
0001
0010
0100
1000
0100
0010
0001
0010
0100
1000
0100
0010
0001
0010
0100
1000
0100
0010
0001
0010
0100
1000
0011
0000
0000
0000
,
0000
0000
0000
0000
0000
0000
0000
1001
,
1001
0000
0011
0101
0000
1010
0101
1001
,
0000
0000
0000
0110
0000
0001
0010
1100
,
1100
0000
0000
0000
0000
0000
0000
0000
0000
1001
0000
0000
0000
0000
0100
0000
0000
0000
0010
0000
0000
1001
0000
0000
,
0000
0000
0000
0000
0000
0000
1010
0000
0000
1010
0000
0000
1010
0000
1001
0000
,
0110
0000
1100
0110
1001
0011
1100
1001
,
0000
0000
0000
0000
0000
0000
0110
0000
0000
0101
0000
0000
0101
0000
1001
0000
,
0110
0000
0000
0000
0000
0000
1010
0000
0000
1001
0000
0000
0110
0000
1001
0010
,
0100
0000
1000
0000
0001
0000
0100
0000
0010
0000
1000
0000
0001
0100
0001
0100
0001
0100
0001
0100
0001
0100
0001
0100
0001
0100
0001
0100
0001
0000
0010
0000
,
0100
1000
0001
0100
0010
1000
0100
0010
0001
1000
0011
0100
1001
0000
1100
0000
,
0001
0010
0100
1000
0100
0010
0100
1000
0001
0010
1100
0001
1100
0000
1001
0000
,
0100
0010
1000
0001
0010
0001
1000
0001
0100
0010
1100
0001
1010
0100
1010
0001
,
0010
0100
1000
0010
0100
0001
0010
0100
1000
0100
0010
0001
1000
0010
1001
0100
,
0011
0100
1010
0100
0011
0100
1001
0000
0000
0000
0110
0000
1001
0000
0110
0000
,
0101
1000
0011
1000
0101
1000
0011
0000
0000
0000
0110
0000
1001
0000
0110
0000
,
0011
0100
1001
0100
1010
0100
1001
0000
0110
0000
0011
0000
1100
0000
0101
0010
,
1000
0010
1000
0010
1000
0010
0100
0001
0100
0001
0100
0001
0100
0001
1010
0100
,
0011
1000
0010
0100
0001
1000
0011
0100
1010
0100
0001
1000
0010
0100
1001
0100
,
1001
0010
1000
0001
0100
0010
1100
0010
0101
0010
1000
0001
0100
0010
1001
0100
,
0011
1000
0010
0100
0001
0010
1100
0010
1001
0010
1000
0001
0100
0010
1100
0010
,
1100
0001
1000
0100
1000
0010
1001
0100
1001
0010
1000
0001
0100
0010
1001
0000
,
0010
1000
0001
0100
0010
0100
1001
0000
0110
0000
1001
0000
1010
0000
0001
0010
,
0100
1000
0011
0100
1001
0000
0110
0000
1100
0000
0011
0000
1001
0000
0110
0001
,
1000
0001
1000
0001
1000
0001
1100
0010
1000
0010
1000
0010
1000
0010
0101
0010
,
1000
0010
1100
0010
0100
0001
1010
0100
0001
0010
1001
0100
0010
0100
1010
0000
,
1010
0101
0000
1010
0101
0000
1010
0101
0000
1010
0101
0000
0101
0000
0202
0000
,
0000
0303
0000
0000
;

//---------------dance-single - Copied from----------------
#NOTES:
     dance-single:
     Copied from:
     Hard:
     11:
     1.000,1.000,1.000,0.067,0.969,841.000,148.000,9.000,0.000,0.000:
1000
1000
1000
1000
,
0100
0100
0100
0100
,
0010
0010
0010
0010
,
0001
0001
0001
0001
,
0010
0010
0010
0010
,
0100
0100
0100
0100
,
1000
1000
1000
1000
,
0100
0100
0100
0200
,
0000
0000
0000
0000
,
0000
0000
0000
0000
,
0300
0000
1001
0100
1001
0010
1001
0100
,
1001
0010
1100
0001
1100
0010
1100
0001
,
1100
0010
1001
0001
0101
0001
1001
0001
,
0101
0001
1001
1000
1010
1000
1100
1000
,
1010
0000
1000
0000
0100
1000
0100
1000
0010
1000
0010
1000
0001
1000
0001
1000
,
0010
0100
0010
0100
0001
0100
0001
0100
0001
1000
0001
1000
0010
0100
0010
0100
,
0001
1000
0001
1000
0100
1000
0100
1000
0010
1000
0010
1000
0001
1000
0001
1000
,
0010
0100
0010
0100
0002
0000
0000
0000
0000
0000
0000
0000
0000
0000
0000
0000
,
0023
0130
1000
0101
0010
1001
0100
1010
,
0100
1001
0100
1010
0100
1001
0100
1010
,
1000
1100
1000
1010
1000
1001
1000
1001
,
0001
0101
0001
0011
0001
0101
0001
1001
,
0100
0000
1001
0000
0010
0000
1001
0000
0100
0000
1001
0000
0010
0000
1000
0100
,
0010
0000
1001
0000
1000
0010
0100
0001
0100
0000
0010
1000
0100
0000
1001
0000
,
0110
0000
0001
1000
0010
0100
0001
0100
0010
0000
1000
0010
0100
0000
1001
0000
,
0110
0001
1000
0010
0100
0001
1000
0011
,
1100
0010
1000
0001
0100
0010
1000
0101
,
1010
0100
0001
0010
1000
0001
0100
1001
,
0110
1000
0010
1000
0001
0100
0010
1100
,
1001
0100
1000
0001
1000
0100
1000
0011
,
1100
0010
1000
0001
1000
0100
1000
0101
,
1010
0000
0100
1000
0010
0000
0001
1000
0010
0100
0010
1000
0010
0000
1100
0000
,
1010
0000
0001
0010
0100
0000
1010
0000
0101
0000
0001
0010
0100
0000
1000
0001
,
1000
0001
1000
0001
1000
0001
1000
0001
1000
0001
1000
0001
1000
0001
2000
0000
,
0001
0001
0001
0001
0001
0001
0001
3001
,
0001
0010
0100
1000
0100
0010
0001
0100
0010
1000
0100
0010
0001
0000
1010
0000
,
0101
0000
1000
0100
0010
0100
1000
0001
0010
0100
0010
0001
1000
0000
0110
0000
,
1001
0000
1000
0010
1000
0100
1000
0001
0010
0100
1000
0100
0010
0000
1100
0000
,
0011
0000
1000
0001
0010
0100
1000
0001
0010
0100
1000
0100
0010
0100
1001
0010
,
1001
0000
1000
0100
0010
0001
1000
0001
0010
0100
1000
0001
1000
0000
1100
0000
,
1010
0000
1000
0010
1000
0010
0100
0001
0100
0001
0010
0100
0010
0000
0110
0000
,
1001
0000
0001
0100
0001
0100
0010
1000
0010
1000
0100
0001
0010
0000
1100
0000
,
1010
0000
0001
1000
0001
1000
0010
0100
0010
0100
0001
1000
0100
0000
1010
0000
,
1001
0110
1001
0010
1001
0100
0101
0010
,
1010
1000
1001
1000
1010
0010
0110
0010
,
0011
0010
1010
0010
0110
0010
0011
0010
,
1001
1000
1001
0001
1001
0010
1001
0110
,
1001
0000
0001
1000
0001
0000
0100
0010
0100
0000
1000
0010
0100
0000
0001
1000
,
0100
0000
0001
0010
0001
0000
1000
0010
1000
0000
0010
0100
0010
0000
1000
0001
,
1000
0000
0010
1000
0010
0000
0100
0001
0100
0000
0010
1000
0100
0000
0001
1000
,
0100
0000
0010
0100
0001
0000
1000
0100
0010
0000
0001
0010
0100
0000
1000
0100
,
1000
0100
1000
0100
1000
0100
1000
0100
1000
0100
1000
0100
1000
0100
1000
0010
,
1000
0010
1000
0010
1000
0010
1000
0010
1000
0010
1000
0010
1000
0010
1000
0001
,
1000
0001
1000
0001
1000
0001
1000
0001
1000
0001
1000
0001
1000
0001
0100
0001
,
0100
0001
0100
0001
0100
0001
0100
0001
0100
0001
0100
0001
0100
0001
1010
0100
,
0001
0100
0001
0100
0001
0100
0010
1000
0010
1000
0010
1000
0010
1000
0010
0100
,
0010
0100
0010
0100
0010
0100
0001
1000
0001
1000
0001
1000
0001
1000
0011
0100
,
0010
0100
0010
0100
0010
0100
0010
1000
0010
1000
0010
1000
0010
1000
0202
0000
,
0000
0000
0000
0000
0000
0000
0000
0303
,
0000
0000
0000
0000
0000
0000
0000
1100
,
1100
0000
0001
1001
0000
1100
0001
1010
,
0000
0000
0000
1100
0000
0011
1000
0101
,
0101
0000
0000
0000
0000
0000
0100
0000
0000
0010
0000
0000
0001
0000
1001
0000
,
0000
0000
0000
0000
0000
0000
1000
0000
0000
1000
0000
0000
1000
0000
1001
0000
,
1001
0000
0100
1000
0001
1000
0010
1001
,
0000
0000
0000
0000
0000
0000
0100
0000
0000
0001
0000
0000
0001
0000
0110
0000
,
0110
0000
0000
0000
0000
0000
1000
0000
0000
0100
0000
0000
0010
0000
0001
1000
,
0001
1000
0001
1000
0001
1000
0002
0000
0000
0000
0000
0000
0000
0000
0013
0100
,
1000
0100
0010
0001
0010
0100
1000
0100
0010
0000
1010
0000
0101
0000
1000
0010
,
1000
0010
0100
0001
0100
0001
0010
0100
1000
0000
0011
0000
0110
0000
1010
0000
,
0001
1000
0001
1000
0010
0100
0010
0100
0001
0000
1001
0000
1010
0000
0011
0000
,
1000
0010
1000
0010
0100
0001
0100
0001
0010
1000
0100
1000
0001
0000
1010
0000
,
0001
0010
0100
0010
0001
0000
0010
0000
0100
0000
1001
0000
1010
0000
0101
0000
,
1000
0100
0010
0100
1000
0000
0100
0000
0010
0000
1010
0000
0101
0000
1010
0000
,
0001
0100
0010
1000
0001
0010
0100
0000
1000
0000
0100
0000
0010
0000
0001
0100
,
0001
0100
0001
0100
0001
0100
0010
1000
0010
1000
0010
1000
0010
1000
0101
0010
,
1000
0001
0100
0010
1000
0001
1000
0001
0100
0010
1000
0001
0100
0010
1000
0010
,
0100
0001
1000
0010
0100
0001
1000
0001
1000
0001
0100
0010
1000
0001
1000
0100
,
0010
0100
1000
0001
1000
0001
0010
0100
0010
0001
1000
0001
1000
0100
0010
0100
,
1000
0001
1000
0001
0010
0100
0010
0001
1000
0001
0010
0100
1000
0010
1100
0000
,
1000
0010
0100
0001
1000
0010
0100
0000
1010
0000
0101
0000
0011
0000
1010
0000
,
0001
0100
0010
1000
0001
0100
0001
0000
1010
0000
0110
0000
0011
0000
1001
0010
,
0100
0010
0100
0010
0100
0010
1100
0001
0100
0001
0100
0001
0100
0001
1010
0100
,
0010
0100
1001
0010
0100
0010
1001
0100
0010
0100
1001
0010
0100
0010
1001
0000
,
0110
1001
0000
0110
1001
0000
0110
1001
0000
0110
1001
0000
1001
0000
2002
0000
,
0000
0000
0000
3003
;
