#TITLE:one or eight;
#SUBTITLE:;
#ARTIST:sampling masters AYA;
#TITLETRANSLIT:;
#SUBTITLETRANSLIT:;
#ARTISTTRANSLIT:;
#CREDIT:;
#BANNER:One or Eight.png;
#BACKGROUND:One or Eight-bg.png;
#LYRICSPATH:;
#CDTITLE:!toph-cdtitle.png;
#MUSIC:Samping Masters AYA - One or Eight.mp3;
#OFFSET:-0.395;
#SAMPLESTART:44.300;
#SAMPLELENGTH:12.500;
#SELECTABLE:YES;
#BPMS:0.000=155.000,140.000=77.500,142.000=155.000,170.000=77.500,172.000=155.000;
#STOPS:;
#BGCHANGES:;
// cache tags:
#FIRSTBEAT:8.000;
#LASTBEAT:234.500;
#SONGFILENAME:Songs/Ace Megapack/One or Eight/One or Eight.sm;
#HASMUSIC:1;
#HASBANNER:1;
#MUSICLENGTH:98.586;
// end cache tags

//---------------dance-single - ----------------
#NOTES:
     dance-single:
     :
     Hard:
     11:
     1.000,0.892,0.801,0.091,1.000,641.000,79.000,9.000,0.000,0.000:  // measure 1
0000
0000
0000
0000
,  // measure 2
0000
0000
0000
0000
,  // measure 3
0001
0000
0100
0010
1000
0000
0100
0010
0000
1001
0000
0010
0100
0000
2000
0000
,  // measure 4
3001
0000
0000
0000
0000
0000
0011
0000
0000
0000
0000
0000
1001
0000
0000
0000
0000
0000
0100
0000
0000
1000
0000
0000
0000
0000
0000
0101
0000
0000
0000
0000
0000
1010
0000
0000
0000
0000
0000
1000
0000
0000
0100
0000
0010
0000
0100
0000
,  // measure 5
1001
0100
0010
1000
0001
0000
0010
0100
1000
0001
0000
0100
0010
0000
1010
0000
,  // measure 6
0001
0100
0010
1000
0100
0000
0010
0001
1000
0010
0000
0100
0001
0000
1000
0100
,  // measure 7
0010
0001
1000
0010
0100
0000
0001
1000
0100
0010
0000
0001
0100
0000
0010
0000
,  // measure 8
1000
0100
0010
0001
0100
0000
0010
1000
0001
0010
0000
0100
1000
0000
0100
0010
,  // measure 9
0001
0100
0010
1000
0001
0000
0010
0100
1000
0001
0000
0100
0010
0000
1010
0000
,  // measure 10
0100
0001
1000
0100
0010
0000
0001
0100
0010
1000
0000
0100
0010
0000
0010
0001
,  // measure 11
1000
0010
0100
0001
0010
0000
0100
1000
0001
0100
0000
0010
1000
0000
0100
0010
,  // measure 12
0001
0000
0100
0010
0000
0010
1000
0000
0100
0000
0010
0000
1001
0100
1000
0100
,  // measure 13
1000
0100
0010
0001
1000
0000
0110
0000
0001
0000
0110
0000
1000
0000
0101
0000
,  // measure 14
1010
0000
0011
0000
1100
0000
0101
0000
0010
0000
1001
0000
0010
0100
1000
0000
,  // measure 15
0001
0100
0010
1000
0001
0000
0110
0000
1000
0000
0110
0000
0001
0000
1100
0000
,  // measure 16
0011
0000
0101
0000
1010
0000
1100
0000
0010
0001
1000
0000
0110
0000
0001
0000
,  // measure 17
1000
0100
0010
0001
0100
0000
1010
0000
0001
0000
1010
0000
0100
0000
0011
0000
,  // measure 18
0100
0000
1001
0000
0101
0000
1010
0000
0001
0000
1010
0000
0100
0001
1000
0000
,  // measure 19
0100
0010
0001
1000
0010
0000
0101
0000
1000
0000
0101
0000
0010
0000
1100
0000
,  // measure 20
1001
0000
1001
0000
0110
0000
1000
0100
0000
1001
0000
0110
0000
0001
0100
0000
,  // measure 21
1100
0000
0100
0000
1100
0000
0100
0000
1010
0000
0000
0010
1000
0000
0010
0000
,  // measure 22
0101
0100
0101
0100
0011
1000
1001
0100
,  // measure 23
1000
0001
0100
0000
1000
0001
0100
0000
0010
1000
0001
0000
0010
1000
0001
0000
,  // measure 24
0010
0100
1000
0000
0010
0100
1000
0000
0010
0100
0001
0000
0010
0100
0001
0000
,  // measure 25
1010
0000
0010
0000
1010
0000
0010
0000
1100
0000
0000
0100
1000
0000
0100
0000
,  // measure 26
0011
0010
0011
0010
1001
0100
0101
0010
,  // measure 27
1000
0100
0010
0000
1000
0100
0010
0000
0001
0100
0010
0000
0001
0100
0010
0000
,  // measure 28
1000
0100
0010
0001
0100
0010
1000
0000
0001
0001
0001
0000
1000
1000
1000
0000
,  // measure 29
0101
0000
1010
0000
0001
1000
0100
0000
0011
0000
0010
0100
1000
0000
0101
0000
,  // measure 30
1010
0000
0011
0000
1000
0100
0010
0000
1001
0000
0010
0100
0001
0000
1100
0100
,  // measure 31
0010
0000
0101
0000
0010
1000
0001
0000
0110
0000
1000
0001
0100
0000
1010
0000
,  // measure 32
0001
0100
0010
0100
0001
0000
1001
0000
1000
0100
0000
0110
0000
0010
0001
0100
,  // measure 33
1001
0100
1000
0100
1000
0000
0100
0010
0100
0010
0100
0000
0010
0001
0010
0000
,  // measure 34
0001
0100
0001
0100
0001
0000
1000
0010
1000
0010
1000
0000
0001
0010
0001
0000
,  // measure 35
0100
0010
0100
0010
0100
0000
0001
1000
0001
1000
0001
0000
0010
0100
0010
0000
,  // measure 36
0001
0000
0100
0000
0010
0000
0100
0000
0001
0100
0000
0010
0000
0000
0000
0000
1000
0000
0100
0000
0010
0000
0000
0000
0001
0000
1000
0000
0000
0000
0010
0000
,  // measure 37
0100
0000
0001
1000
0000
0100
0000
0010
0001
0001
0000
0100
0100
0000
0010
0010
,  // measure 38
0000
1000
0001
0100
0010
1000
0100
0010
0001
1000
0010
0000
0100
0001
0000
1000
,  // measure 39
0100
0000
0010
0001
0000
1000
0000
0010
0100
0100
0000
0001
0001
0000
1000
1000
,  // measure 40
0000
0100
0010
0001
1000
0010
0100
0001
0010
0100
1000
0000
0001
0100
0000
0010
,  // measure 41
1000
0000
0100
0010
0000
0001
0000
0010
0100
0100
0000
1000
1000
0000
0010
0010
,  // measure 42
0000
0100
0001
0010
0100
1000
0010
0100
0001
0010
0100
0000
1000
0001
0000
0100
,  // measure 43
0010
0000
0000
0000
1000
0000
0001
0000
0000
0000
0010
0000
0000
0000
0100
0000
1000
0000
0010
0100
0000
0001
1000
0000
0100
0000
0010
0000
0001
0000
0000
0000
,  // measure 44
1001
0100
0010
0000
0001
0000
0100
0010
0000
1000
1000
0000
0001
1000
0010
1000
,  // measure 45
0100
0000
0010
0000
0001
0001
0000
0100
0000
0010
1000
0000
2002
0000
3003
0000
,  // measure 46
1000
0100
0010
0000
0001
0000
0100
0010
0000
1000
1000
0000
0001
0010
0100
1000
,  // measure 47
0001
0100
0000
0010
1000
0001
0010
0100
0000
1000
0001
0100
0010
1000
0001
0000
,  // measure 48
1001
0100
0010
0000
1000
0000
0001
0100
0000
0010
0010
0000
1000
0100
0010
0001
,  // measure 49
0100
0000
0010
0000
1000
1000
0000
0100
0000
0010
0001
0000
2002
0000
3003
0000
,  // measure 50
0100
0010
1000
0000
0100
0000
0010
0001
0000
1000
1000
0000
0010
0100
0001
1000
,  // measure 51
0100
0010
0000
0001
1000
0010
0100
0001
0000
1000
0100
0010
0001
0100
0010
0000
,  // measure 52
1001
0100
0010
0000
0001
0000
0100
0010
0000
1000
0001
0000
1000
0001
0100
0010
,  // measure 53
1000
0000
0001
0010
0100
1000
0010
0100
0001
0010
0001
0000
2002
0000
3003
0000
,  // measure 54
1000
0100
0010
0000
0001
0000
0100
0010
0000
1000
1000
0000
0001
0010
0100
1000
,  // measure 55
0001
0100
0000
0010
1000
0001
0010
0100
0000
1000
0001
0100
0010
1000
0001
0010
,  // measure 56
1100
0001
0010
0000
0001
0000
0100
0010
0000
1000
1000
0000
0001
0010
0001
0100
,  // measure 57
0010
0000
1000
0100
0010
0001
0100
0010
1000
0001
1000
0000
0220
0000
0330
0000
,  // measure 58
1000
0100
0000
0010
0001
0100
0000
0010
1000
0100
0000
0010
0001
0100
0010
1000
,  // measure 59
1001
0000
0000
0000
0000
0000
1000
0000
0100
0000
0010
0000
0001
0000
0000
0100
0000
0000
0000
0000
0000
1010
0000
0000
0000
0000
0000
0100
0000
0000
1001
0000
0000
0000
0000
0000
0000
0000
0000
0000
0000
0000
0000
0000
0000
0000
0000
0000
;

//---------------dance-single - ----------------
#NOTES:
     dance-single:
     :
     Challenge:
     12:
     1.000,1.000,1.000,0.000,1.000,719.000,150.000,0.000,0.000,0.000:  // measure 1
0000
0000
0000
0000
,  // measure 2
0000
0000
0000
0000
,  // measure 3
1001
0000
0000
0000
0000
0000
0100
0000
0000
0010
0000
0000
1010
0000
0000
0000
0000
0000
0001
0000
0000
1000
0000
0000
0000
0000
0000
0110
0000
0000
0000
0000
0000
0001
0000
0000
1000
0000
0000
0000
0000
0000
0001
0000
0100
0000
0001
0000
,  // measure 4
1010
0000
0000
0000
0000
0000
1000
0000
0000
0001
0000
0000
0011
0000
0000
0000
0000
0000
0100
0000
0000
1000
0000
0000
0001
0000
0000
0011
0000
0000
0000
0000
0000
0100
0000
0000
1000
0000
0000
0000
0000
0000
0100
0000
0010
0000
0100
0000
,  // measure 5
1001
0100
0010
1000
0001
0000
0010
0100
1000
0001
0000
0100
0010
0000
1010
0000
,  // measure 6
0001
0100
0010
1000
0100
0000
0010
0001
1000
0010
0000
0100
0001
0000
1100
0100
,  // measure 7
0010
0001
1000
0010
0100
0000
0001
1000
0100
0010
0000
0001
0100
0000
0010
0000
,  // measure 8
1001
0100
0010
0001
1100
0000
0001
0100
0010
1000
0001
0010
1100
0000
0100
0011
,  // measure 9
1000
0010
0100
0001
1000
0000
0100
0010
0001
1000
0000
0010
0100
0000
0101
0000
,  // measure 10
1100
0010
0001
1000
0101
0000
0010
1000
0001
0010
0100
1000
0101
0000
1010
1000
,  // measure 11
0001
0010
0100
1000
0010
0000
0100
0001
1000
0100
0000
0010
0001
0000
0100
0010
,  // measure 12
1000
0000
0100
0010
0001
0100
0010
0000
0100
0001
1000
0100
0010
0001
0010
0001
,  // measure 13
1100
0100
0010
0001
1001
0000
0100
0010
1000
0001
0010
0100
1000
0000
0101
0000
,  // measure 14
0010
1000
0001
0010
0110
0000
1000
0001
0100
0010
1000
0100
0010
0000
0011
0001
,  // measure 15
1000
0010
0100
0001
1001
0000
0010
0100
1000
0001
0100
0010
1000
0000
0101
0000
,  // measure 16
0010
0100
1000
0001
0101
0000
1000
0100
1000
0001
0100
0010
1000
0000
1000
0100
,  // measure 17
1000
0010
0100
0001
1001
0000
0010
0100
1000
0010
0100
0001
1000
0000
0110
0000
,  // measure 18
0001
0100
0001
1000
1010
0000
1000
0100
0010
0001
0100
0010
1000
0000
0011
0001
,  // measure 19
1000
0010
0100
0001
0011
0000
0100
1000
0001
0100
0010
1000
0100
0000
0011
0000
,  // measure 20
1001
0000
1001
0000
0110
0000
1000
0100
0010
1001
0000
1001
0100
0010
1000
0000
,  // measure 21
0101
0000
0100
0000
0101
0000
0100
0000
0011
0000
0000
0010
0001
0000
0010
0000
,  // measure 22
1100
0100
1100
0100
1010
0001
1001
0100
,  // measure 23
1000
0001
0100
0000
1000
0001
0100
0000
0010
1000
0001
0000
0010
1000
0001
0000
,  // measure 24
0010
0100
1000
0000
0010
0100
1000
0001
0100
0010
1010
0000
0101
0010
1000
0000
,  // measure 25
0011
0000
0010
0000
0011
0000
0010
0000
0101
0000
0000
0100
0001
0000
0100
0000
,  // measure 26
1010
0000
0010
0000
1010
0000
0010
1000
1001
0000
0100
0000
1100
0000
0010
0000
,  // measure 27
1000
0100
0010
0000
1000
0100
0010
0000
0001
0100
0010
0000
0001
0100
0010
0000
,  // measure 28
1001
0100
0010
0001
0100
0010
1000
0000
0101
0100
0100
0000
1010
0010
0010
0000
,  // measure 29
0101
0000
1010
0000
0001
1000
0100
0000
0011
0000
0010
0100
1000
0000
0101
0000
,  // measure 30
1010
0000
0011
0000
1000
0100
0010
0000
1001
0000
0010
0100
0001
0000
1100
0100
,  // measure 31
0010
0000
0101
0000
0010
1000
0001
0000
0110
0000
1000
0001
0100
0000
1010
0000
,  // measure 32
0011
0100
1000
0100
0010
0000
1001
0000
0001
0101
0000
1100
0000
0100
1000
1100
,  // measure 33
0011
0000
0101
0000
1100
0000
0001
0100
0010
1000
0100
0010
0001
1000
1010
0000
,  // measure 34
0101
0000
1100
0000
0011
0000
1000
0010
0100
0001
0010
0100
1000
0001
0011
0010
,  // measure 35
1100
0000
0101
0000
1010
0000
0001
0010
0100
1000
0100
0010
0001
0100
0101
0000
,  // measure 36
1100
0000
0000
0000
0011
0000
0000
0001
0100
0000
0010
0000
0000
1000
0001
0000
1100
0000
0100
0000
0010
0000
0000
0000
0001
0000
1000
0000
0000
0000
0010
0000
,  // measure 37
0100
0000
0001
1000
0000
0100
0000
0010
0001
0001
0000
0100
0100
0000
0010
0010
,  // measure 38
0000
1000
0001
0100
0010
1000
0100
0010
1001
0001
0010
0000
0100
1000
0000
0001
,  // measure 39
0100
0000
0010
1000
0000
0001
0000
0010
0100
0100
0000
1000
1000
0000
0001
0001
,  // measure 40
0000
0100
0010
1000
0001
0010
0100
1000
0101
0100
0010
0000
1000
0001
0000
0010
,  // measure 41
0100
0000
1000
0001
0000
0100
0000
0010
1000
1000
0000
0001
0001
0000
0010
0010
,  // measure 42
0000
0100
1000
0010
0100
0001
1000
0100
0011
0001
1000
0000
0010
1000
0000
0100
,  // measure 43
0010
0000
0000
0000
0001
0000
0100
0000
0000
0000
0010
0000
0000
0000
1000
0000
0001
0000
0010
0100
0000
1000
0001
0000
0100
0000
0010
0000
1000
0000
0000
0000
,  // measure 44
1100
0001
0010
0001
0101
0000
0010
1000
0001
0010
0010
0100
1001
0100
0010
0100
,  // measure 45
1010
0000
0001
1000
0101
0001
1000
0100
0010
0001
0100
0000
0110
0000
1000
0000
,  // measure 46
0101
1000
0010
1000
1100
0000
0010
0001
0100
0010
0010
1000
0101
0010
1000
0010
,  // measure 47
1001
0000
1000
0100
0011
0001
0100
0010
1000
0101
0001
0010
1100
0100
0100
0000
,  // measure 48
1001
0010
0100
0010
0011
0000
1000
0001
0100
0010
0010
1000
0101
0010
1000
0010
,  // measure 49
1001
0000
0001
1000
0110
0010
0001
0100
0010
1000
0001
0000
1001
0000
0010
0000
,  // measure 50
1100
0001
0010
0001
1001
0000
0010
1000
0001
0010
0010
0100
1001
0100
0010
0100
,  // measure 51
1010
0000
0001
0100
1010
0010
1000
0100
0010
1001
1000
0100
0011
0010
0010
0000
,  // measure 52
1001
0100
0010
0001
0101
0000
0010
1000
0001
0011
0010
0100
1001
0010
0100
0010
,  // measure 53
1001
0000
1000
0100
0011
0001
0100
0010
1000
0101
0001
1000
0011
0000
0100
0000
,  // measure 54
1001
0100
0010
0100
0101
0000
1000
0100
0010
1001
0001
0100
1010
0001
1000
0001
,  // measure 55
1100
0000
0100
0010
1001
0001
1000
0010
0100
1001
1000
0100
1001
0100
0001
0100
,  // measure 56
1010
0001
0010
0001
0101
0000
0010
1000
0001
0110
0100
1000
0101
0010
0001
0010
,  // measure 57
1100
0000
0010
1000
0101
0001
0010
0100
1000
0101
0001
1000
0110
0001
0100
0001
,  // measure 58
1010
0001
0100
0010
1010
0000
0001
1000
0100
0011
0001
1000
0101
0010
0100
0010
,  // measure 59
1001
0000
0000
0000
0000
0000
1000
0000
0100
0000
0010
0000
1001
0000
0000
0110
0000
0000
0000
0000
0000
1010
0000
0000
0000
0000
0000
0101
0000
0000
1001
0000
0000
0000
0000
0000
0000
0000
0000
0000
0000
0000
0000
0000
0000
0000
0000
0000
;
