#TITLE:Afterburner;
#SUBTITLE:;
#ARTIST:Dubmood;
#TITLETRANSLIT:;
#SUBTITLETRANSLIT:;
#ARTISTTRANSLIT:;
#CREDIT:owenviau1;
#BANNER:../Banner.png;
#BACKGROUND:../BG.PNG;
#LYRICSPATH:;
#CDTITLE:../CDTitleOV1.png;
#MUSIC:Dubmood - Afterburner.ogg;
#OFFSET:-0.085;
#SAMPLESTART:111.413;
#SAMPLELENGTH:29.999;
#SELECTABLE:YES;
#BPMS:0.000=185.398;
#STOPS:;
#BGCHANGES:;
// cache tags:
#FIRSTBEAT:6.500;
#LASTBEAT:696.000;
#SONGFILENAME:Songs/Index Fusion/Afterburner - [owenviau1 and Braeden]/Afterburner.sm;
#HASMUSIC:1;
#HASBANNER:1;
#MUSICLENGTH:231.079;
// end cache tags

//---------------dance-single - ----------------
#NOTES:
     dance-single:
     :
     Challenge:
     29:
     1.000,1.000,0.061,0.121,1.000,3520.000,14.000,28.000,0.000,0.000:

0000
0000
0000
0000
,
0000
0000
0000
0000
0000
1000
0010
0100
,
0004
0403
0340
4030
3400
0340
0034
0403
,
0340
4030
3400
0340
0034
0103
0100
0100
,
0010
1000
0001
0010
0100
1000
0001
0100
0010
1000
0100
0010
0001
0010
0100
1000
0001
0100
0010
1000
0001
0010
0100
1000
,
0001
0000
0100
0000
0010
0000
1000
0000
0100
0000
0010
0000
0001
0000
0100
0000
0010
0000
1000
0000
0001
0000
0100
0000
0010
0000
0000
0000
0000
0000
0000
0000
0000
1000
0000
0000
0000
0000
0000
0000
0000
0000
0010
0000
0100
0000
0001
0000
,
0100
0010
1000
0100
0010
0001
0010
0100
1000
0001
0100
0010
1000
0100
0010
0001
0010
0100
1000
0001
0100
0010
1000
0100
,
0010
0000
0001
0000
0010
0000
0100
0000
1000
0000
0001
0000
0100
0000
0010
0000
0100
0000
0001
0000
0010
0000
0100
0000
1000
0000
0000
0000
0000
0000
0000
0000
0000
0001
0000
0000
0000
0000
0000
0000
0000
0000
1000
0000
0100
0000
0010
0000
,
0001
0010
0100
1000
0001
0100
0010
1000
0100
0010
0001
0010
0100
1000
0001
0100
0010
1000
0100
0010
0001
0010
0100
1000
,
0001
0000
0010
0000
0001
0000
1000
0000
0100
0000
0010
0000
0001
0000
0010
0000
0100
0000
1000
0000
0001
0000
0100
0000
0010
0000
0000
0000
0000
0000
0000
0000
0000
1000
0000
0000
0000
0000
0000
0000
0000
0000
0010
0000
0100
0000
0001
0000
,
0100
0010
1000
0100
0010
0001
1000
0100
1000
0001
0100
0010
1000
0100
0010
0001
0010
0100
1000
0001
0100
0010
1000
0100
,
0010
0000
0001
0000
1000
0000
0100
0000
1000
0000
0001
0000
0100
0000
0010
0000
1000
0000
0001
0000
0010
0000
0100
0000
1000
0000
0000
0000
0000
0000
0000
0000
0000
0101
0000
0000
0000
0000
0000
0000
0000
0000
0100
0000
0010
0000
1000
0000
,
0100
0010
0001
0010
0100
1000
0001
0100
0010
1000
0100
0010
0001
0010
0100
1000
0001
0100
0010
1000
0100
0010
0001
1000
,
0020
0000
0000
0000
0000
0000
0000
0000
0000
0000
0000
0000
0000
0000
0000
0000
0000
0000
0030
0000
0000
0000
0000
0000
0101
0000
0000
0000
0000
0000
0000
0000
0000
0110
0000
0000
0000
0000
0000
0000
0000
0000
0010
0000
1000
0000
0001
0000
,
0010
0100
1000
0001
0100
0010
1000
0100
0010
0001
0010
0100
1000
0001
0100
0010
0100
0001
0010
0100
1000
0001
0100
0010
,
1000
0000
0100
0000
0010
0000
0001
0000
0010
0000
0100
0000
1000
0000
0001
0000
0100
0000
0010
0000
1000
0000
0001
0000
1000
0000
0000
0000
0000
0000
0000
0000
0000
0010
0000
0000
0000
0000
0000
0000
0000
0000
0100
0000
0001
0000
0100
0000
,
0010
1000
0001
0010
0100
1000
0001
0100
0010
1000
0100
0010
0001
0010
0100
1000
0001
0010
0001
1000
0100
0010
0001
0100
,
0010
0000
0100
0000
0001
0000
1000
0000
0100
0000
1000
0000
0001
0000
0010
0000
0001
0000
0100
0000
0010
0000
1000
0000
0001
0000
0000
0000
0000
0000
0000
0000
0000
0100
0000
0000
0000
0000
0000
0000
0000
0000
0010
0000
1000
0000
0001
0000
,
0010
0100
1000
0001
0100
0010
1000
0100
0010
0001
0010
0100
1000
0001
0010
0001
1000
0100
0010
0001
0010
0100
1000
0001
,
0010
0000
0001
0000
1000
0000
0100
0000
0010
0000
0001
0000
0100
0000
0010
0000
0100
0000
0001
0000
1000
0000
0010
0000
1000
0000
0000
0000
0000
0000
0000
0000
0000
0010
0000
0000
0000
0000
0000
0000
0000
0000
0100
0000
0000
0000
0000
0000
,
0002
0000
0000
0000
0003
0000
1001
1001
,
0000
0000
0000
0000
1000
0010
0100
0001
,
1000
0040
0000
0030
0400
0000
0300
0000
,
0020
0000
0030
1000
0100
0010
0001
1000
,
1000
0001
0010
0100
1000
0001
0100
0010
1000
0100
0010
0001
0010
0100
1000
0001
0010
0001
1000
0010
0100
0001
0010
0001
,
1000
0100
0010
0001
0010
0100
1000
0001
0010
0001
0100
0010
0100
0001
0010
0100
1000
0001
1000
0000
0000
0001
0000
0000
,
1000
0100
0010
0001
0010
0100
1000
0001
0010
0001
0100
0010
1000
0001
0010
0100
1000
0001
0100
0010
0100
0001
0010
0100
,
1000
0001
0100
0010
0100
0001
0010
0100
1000
0001
0100
0010
0100
0001
0010
0100
1000
0001
0100
0010
1000
0100
0010
0001
,
1000
0100
0010
0001
0010
0100
1000
0001
0010
0001
1000
0010
0100
0001
0010
0100
1000
0001
0100
0010
1000
0100
0010
0001
,
0010
0100
1000
0001
0010
0001
1000
0100
0010
0100
1000
0001
0010
0100
1000
0001
0010
0100
0020
0000
0000
0032
0000
0000
,
0013
0100
1000
0001
0100
0010
1000
0100
0010
0001
0010
0100
1000
0001
0100
0010
1000
0100
0020
0000
0000
2030
0000
0000
,
3100
0010
0001
0010
0100
1000
0001
0100
0010
2000
0000
0000
3002
0000
0000
0023
0000
0000
0032
0000
0000
0203
0000
0000
,
0301
0100
0010
1000
0001
0010
0100
1000
0001
0100
0010
1000
0100
0010
0001
0010
0100
1000
0001
0100
0010
1000
0100
0010
,
0001
0010
0100
1000
0001
0100
0010
0100
0001
0010
0100
1000
0001
0100
0010
1000
0100
0010
0002
0000
0000
0203
0000
0000
,
0310
1000
0001
0010
0100
1000
0001
0100
0010
1000
0100
0010
0001
0010
0100
1000
0001
0100
0010
1000
0100
0010
0100
1000
,
0001
0100
0010
0100
0001
0010
0100
1000
0001
0100
0010
0100
0001
0010
0100
1000
0001
0100
0010
1000
0100
0010
0001
0010
,
0100
1000
0001
0100
0010
0100
0001
0010
0100
1000
0001
0100
0010
1000
0100
1000
0001
0010
0100
1000
0001
0100
0010
0100
,
0001
0010
0100
1000
0001
0100
0010
0100
0001
0010
0100
1000
0001
0100
0010
0100
0001
1000
0002
0000
0000
0203
0000
0000
,
0310
1000
0100
0010
0001
0010
0100
1000
0001
0100
0010
1000
0100
0010
0001
0100
0010
1000
0200
0000
0000
0320
0000
0000
,
0130
1000
0001
0100
0010
1000
0100
0010
0001
0200
0000
0000
0320
0000
0000
2030
0000
0000
3200
0000
0000
0320
0000
0000
,
0031
0010
0100
1000
0001
0100
0010
1000
0100
0010
0001
0010
0100
1000
0001
0100
0010
0100
0001
0010
0100
1000
0001
0100
,
0010
1000
0100
0010
0001
0010
0100
1000
0001
0100
0010
0100
0001
0010
0100
1000
0001
0100
0010
1000
0100
0010
0001
1000
,
0010
0100
0001
1000
0010
0100
0001
1000
0010
0100
0001
0010
0001
1000
0001
0010
0001
1000
0100
1000
0001
1000
0100
1000
,
0001
0100
0010
0100
0001
0100
0010
0100
0001
1000
0100
1000
0001
1000
0100
1000
0001
0100
0010
1000
0010
0100
0001
1000
,
0010
0100
0001
1000
0100
0010
0001
0010
0100
1000
0001
0010
0001
1000
0100
0010
0001
0010
0100
1000
0001
0100
0010
1000
,
0100
0010
0001
0010
0100
1000
0001
0100
0010
0100
0001
0010
0100
1000
0001
0100
0010
1000
0100
0010
0001
0010
0100
1000
,
0001
0100
0010
1000
0001
0010
0100
1000
0001
0100
0010
1000
0100
0010
0001
0010
0100
1000
0001
0100
0010
1000
0100
0010
,
0001
0010
0100
1000
0001
0100
0010
1000
0100
0010
0001
0010
0100
1000
0001
0100
0010
1000
0100
0010
0001
0010
0100
1000
,
0001
0100
0010
1000
0001
0010
0100
1000
0001
0100
0010
1000
0100
0010
0100
1000
0001
0100
0010
1000
0100
0010
0001
0010
,
0100
1000
0001
0100
0010
1000
0100
0010
0001
0010
0100
1000
0001
0100
0010
1000
0100
0010
0001
0000
0000
1000
0000
0000
,
0001
1000
0100
0010
0001
0010
0100
1000
0001
0100
0010
1000
0100
0010
0001
0010
0100
1000
0001
0010
0001
1000
0010
0100
,
0001
0010
0001
1000
0010
0100
0001
0010
0001
0010
0100
1000
0001
0010
0100
1000
0001
0010
0001
1000
0100
0010
0001
1000
,
0100
0010
0001
1000
0100
0010
0100
1000
0001
0100
0010
1000
0100
1000
0001
0100
0010
0100
0001
0100
0010
0100
0001
1000
,
0100
0010
0001
0010
0100
1000
0001
0100
0010
1000
0100
0010
0001
0010
0100
1000
0001
0100
0010
1000
0001
0010
0001
1000
,
0100
0010
0001
0010
0100
1000
0001
0010
0001
1000
0010
0100
0001
0010
0001
1000
0100
0010
0001
0010
0100
1000
0001
0100
,
0010
0100
0001
0010
0100
1000
0001
0100
0010
1000
0100
0010
0001
0010
0100
1000
0001
0100
0010
1000
0100
0010
0001
0010
,
0100
1000
0001
0100
0010
1000
0100
0010
0001
0010
0100
1000
0001
0010
0001
1000
0001
0010
0100
1000
0001
0100
0010
1000
,
0100
0010
0001
0010
0100
1000
0001
0100
0010
1000
0001
0010
0100
1000
0001
0100
0010
1000
0100
0010
0001
0010
0100
1000
,
0001
0100
0010
1000
0100
0010
0001
0010
0100
1000
0001
0100
0010
0100
0001
0100
0010
1000
0001
0100
0010
0100
0001
0100
,
0010
1000
0001
0100
0010
1000
0001
0100
0010
1000
0001
0010
0100
1000
0001
0100
0010
1000
0100
0010
0001
0010
0100
1000
,
0001
0100
0010
1000
0100
0010
0001
0010
0100
1000
0001
0010
0001
1000
0010
0100
0001
0010
0001
1000
0100
1000
0001
0010
,
0100
1000
0001
0010
0001
0100
0010
0100
0001
1000
0001
1000
0010
0100
0010
1000
0001
0010
0001
1000
0100
1000
0001
0100
,
0001
1000
0010
1000
0001
0010
0100
1000
0001
0010
0000
1000
0100
1000
0001
0100
0001
1000
0010
1000
0001
0010
0100
1000
,
0001
0010
0001
1000
0100
1000
0001
0100
0010
1000
0100
0010
0001
0010
0100
1000
0001
0010
0001
1000
0100
0010
0001
0010
,
0100
1000
0001
0010
0100
1000
0001
0100
0010
1000
0001
0010
0001
0100
0010
1000
0001
0010
0100
1000
0000
0100
0010
1000
,
0002
0000
0103
0010
1000
0100
0010
0001
,
0100
0010
1000
0001
0010
0100
1000
0001
0100
0010
1000
0100
0010
0001
0010
0100
1000
0001
0100
0010
1000
0100
0010
0001
,
0010
0000
0100
0000
1000
0000
0001
0000
0100
0000
0010
0000
1000
0000
0100
0000
0010
0000
0001
0000
0100
0000
0001
0000
0010
0000
0000
0000
0000
0000
0000
0000
0000
0100
0000
0000
0000
0000
0000
0000
0000
0000
1000
0000
0001
0000
0100
0000
,
0010
1000
0001
0010
0100
1000
0001
0100
0010
1000
0100
0010
0001
0010
0100
1000
0001
0100
0010
0100
0001
0010
0100
1000
,
0001
0000
0010
0000
0001
0000
1000
0000
0010
0000
0100
0000
0001
0000
1000
0000
0100
0000
0010
0000
0001
0000
1000
0000
0010
0000
0000
0000
0000
0000
0000
0000
0000
0100
0000
0000
0000
0000
0000
0000
0000
0000
0001
0000
1000
0000
0100
0000
,
0010
0001
0010
0100
1000
0001
0100
0010
1000
0001
0010
0100
1000
0001
0100
0010
0100
0001
0010
0100
1000
0001
0100
0010
,
1000
0000
0100
0000
0010
0000
0001
0000
0100
0000
0010
0000
1000
0000
0001
0000
0010
0000
0100
0000
1000
0000
0001
0000
1000
0000
0000
0000
0000
0000
0000
0000
0000
0010
0000
0000
0000
0000
0000
0000
0000
0000
0100
0000
1000
0000
0010
0000
,
1000
0001
1000
0010
0100
0001
1000
0001
0100
0001
1000
0100
0010
0001
0010
0100
1000
0001
0100
0010
1000
0001
1000
0100
,
1000
0000
0001
0000
1000
0000
0100
0000
1000
0000
0001
0000
0010
0000
0001
0000
1000
0000
0001
0000
0010
0000
0001
0000
0100
0000
0000
0000
0000
0000
0000
0000
0000
0101
0000
0000
0000
0000
0000
0000
0000
0000
0100
0000
0010
0000
1000
0000
,
0001
0010
0100
1000
0001
0100
0010
1000
0100
0010
0001
0010
0100
1000
0001
0100
0010
1000
0100
0010
0001
1000
0010
0100
,
0004
0000
0000
0000
0000
0000
0000
0000
0000
0000
0000
0000
0000
0000
0000
0000
0000
0000
0000
0000
0000
0000
0000
0000
1003
0000
0000
0000
0000
0000
0000
0000
0000
0010
0000
0000
0000
0000
0000
0000
0000
0000
0100
0000
0001
0000
0100
0000
,
0010
1000
0001
0010
0100
1000
0001
0100
0010
1000
0100
0010
0001
0010
0100
1000
0001
0100
0010
0100
0001
0010
0100
1000
,
0001
0000
0100
0000
0010
0000
1000
0000
0100
0000
0010
0000
0001
0000
0010
0000
0100
0000
1000
0000
0001
0000
0100
0000
0010
0000
0000
0000
0000
0000
0000
0000
0000
0100
0000
0000
0000
0000
0000
0000
0000
0000
0001
0000
1000
0000
0010
0000
,
0100
0001
1000
0100
0010
0001
0010
0100
1000
0001
0100
0010
1000
0001
0010
0100
1000
0001
0100
0010
1000
0100
0010
0001
,
0010
0000
0100
0000
1000
0000
0001
0000
0100
0000
0010
0000
1000
0000
0100
0000
0010
0000
0001
0000
0010
0000
0100
0000
1000
0000
0000
0000
0000
0000
0000
0000
0000
0010
0000
0000
0000
0000
0000
0000
0000
0000
0100
0000
0001
0000
0100
0000
,
0010
1000
0001
0010
0100
1000
0001
0100
0010
0100
0001
0010
0100
1000
0001
0100
0010
0100
0001
0010
0100
1000
0001
0100
,
0010
0000
1000
0000
0100
0000
0010
0000
0001
0000
0010
0000
0100
0000
1000
0000
0001
0000
0100
0000
0010
0000
1000
0000
0001
0000
0000
0000
0000
0000
0000
0000
0000
0100
0000
0000
0000
0000
0000
0000
0000
0000
0010
0000
0000
0000
0000
0000
,
0100
0000
0010
0010
0000
0000
1001
1001
,
0000
0000
0000
0000
0001
0100
0010
1000
,
0000
0040
0000
0030
0400
0000
0300
0000
,
0040
0000
0030
1000
0010
0100
0001
1000
,
0100
0010
1000
0001
0010
0100
1000
0001
0100
0010
1000
0100
0010
0001
0010
0100
1000
0001
0100
0010
1000
0100
0010
0001
,
0010
0100
1000
0001
0100
0010
1000
0001
0010
0001
1000
0100
0010
0001
0010
0100
1000
0001
0100
0010
1000
0100
0010
0001
,
0010
0100
1000
0001
0100
0010
1000
0001
0010
0100
1000
0001
0100
0010
1000
0100
0010
0001
0010
0100
1000
0001
0100
0010
,
1000
0100
0010
0001
0010
0100
1000
0001
0100
0010
1000
0100
0010
0001
0010
0100
1000
0001
0100
0010
1000
0100
0010
0001
,
1000
0100
0010
0001
0010
0100
1000
0001
0100
0010
0100
0001
1000
0100
0010
0001
0010
0100
1000
0001
0100
0010
1000
0100
,
0010
0001
0010
0100
1000
0001
0100
0010
1000
0001
0010
0100
1000
0001
0100
0010
1000
0100
0010
0001
0010
0100
1000
0001
,
0010
0001
0100
0010
0100
0001
0010
0100
1000
0001
0100
0010
1000
0100
0010
0001
0010
0100
1000
0001
0100
0010
0100
0001
,
0010
0100
1000
0001
0100
0010
1000
0100
0010
0001
0010
0100
1000
0001
0100
0010
1000
0100
0010
0001
0010
0100
1000
0001
,
1000
0100
0010
0001
1000
0010
0100
0001
1000
0100
0010
0001
1000
0010
0100
0001
1000
0100
0010
0001
0010
0100
1000
0001
,
0100
0010
0100
0001
0010
0100
1000
0001
0100
0010
0100
0001
0010
0100
1000
0001
0100
0010
1000
0100
0010
0001
0010
0100
,
1000
0001
0100
0010
0100
0001
1000
0100
0010
0001
0010
0100
1000
0001
0100
0010
1000
0001
0010
0100
1000
0001
0100
0010
,
1000
0010
0100
0001
1000
0100
0010
0001
0010
0100
1000
0001
0100
0010
1000
0100
0010
0001
0010
0100
1000
0001
0100
0010
,
1000
0100
0010
0001
0010
0100
1000
0001
0100
0010
0100
0001
0010
0100
1000
0001
0010
0100
1000
0001
0100
0010
1000
0001
,
0010
0001
1000
0100
0010
0001
0010
0100
1000
0001
0100
0010
1000
0100
0010
0100
0010
0001
0100
0010
1000
0001
0010
0100
,
1000
0001
0100
0010
1000
0100
0010
0001
0010
0100
1000
0001
0100
0010
1000
0100
0010
0001
0010
0100
1000
0001
0100
0010
,
1000
0100
0010
0001
0010
0100
1000
0001
0100
0010
1000
0001
4000
0000
0000
0000
0000
0000
0000
0000
0000
0000
0000
0000
,
3002
0103
0010
1000
0100
0010
0001
0100
,
0010
0000
0000
0000
0000
0000
1000
0000
0000
0000
0000
0000
0001
0000
0000
0000
0000
0000
0100
0000
0000
0000
0000
0000
0010
0000
0000
0000
0000
0000
0000
0000
0000
1000
0000
0000
0000
0000
0000
0000
0000
0000
0010
0000
0100
0000
0001
0000
,
1000
0100
0010
0001
0010
0100
1000
0001
0100
0010
1000
0100
0010
0001
0010
0100
1000
0001
0100
0010
1000
0100
0010
0001
,
0100
0000
0010
0000
1000
0000
0001
0000
0010
0000
0100
0000
1000
0000
0010
0000
0100
0000
0001
0000
1000
0000
0100
0000
0010
0000
0000
0000
0000
0000
0000
0000
0000
0001
0000
0000
0000
0000
0000
0000
0000
0000
0100
0000
0010
0000
1000
0000
,
0001
0010
0100
1000
0001
0100
0010
1000
0100
0010
0001
0010
0100
1000
0001
0100
0010
1000
0100
0010
0001
0010
0100
1000
,
0001
0000
0100
0000
0010
0000
1000
0000
0100
0000
0010
0000
0001
0000
0010
0000
0100
0000
1000
0000
0001
0000
0100
0000
0010
0000
0000
0000
0000
0000
0000
0000
0000
1000
0000
0000
0000
0000
0000
0000
0000
0000
0010
0000
0100
0000
0001
0000
,
0010
0100
1000
0001
0100
0010
1000
0100
0010
0001
0010
0100
1000
0001
0100
0010
1000
0001
0010
0100
1000
0001
0100
0010
,
1000
0000
0001
0000
0010
0000
0100
0000
1000
0000
0001
0000
0100
0000
0010
0000
0100
0000
0001
0000
1000
0000
0100
0000
0010
0000
0000
0000
0000
0000
0000
0000
0000
1000
0000
0000
0000
0000
0000
0000
0000
0000
0010
0000
0100
0000
0001
0000
,
1000
0100
0010
0001
0010
0100
1000
0001
0100
0010
1000
0100
0010
0001
0010
0100
1000
0001
0100
0010
1000
0001
0010
0100
,
2000
0000
0000
0000
0000
0000
0000
0000
0000
0000
0000
0000
0000
0000
0000
0000
0000
0000
0000
0000
0000
0000
0000
0000
3001
0000
0000
0000
0000
0000
0000
0000
0000
0010
0000
0000
0000
0000
0000
0000
0000
0000
0100
0000
0010
0000
0001
0000
,
0100
0010
1000
0001
0010
0100
1000
0001
0100
0010
1000
0100
0010
0001
0010
0100
1000
0001
0100
0010
1000
0100
0010
0001
,
1000
0000
0100
0000
0010
0000
0100
0000
1000
0000
0001
0000
0010
0000
0100
0000
1000
0000
0001
0000
0100
0000
0010
0000
1000
0000
0000
0000
0000
0000
0000
0000
0000
0010
0000
0000
0000
0000
0000
0000
0000
0000
0100
0000
0001
0000
0100
0000
,
0010
1000
0001
0010
0100
1000
0001
0100
0010
0100
0001
0010
0100
1000
0001
0100
0010
1000
0100
0010
0001
1000
0100
0010
,
0001
0000
1000
0000
0010
0000
0100
0000
0001
0000
1000
0000
0100
0000
1000
0000
0001
0000
0010
0000
0100
0000
1000
0000
0001
0000
0000
0000
0000
0000
0000
0000
0000
0010
0000
0000
0000
0000
0000
0000
0000
0000
0100
0000
1000
0000
0001
0000
,
0100
0010
1000
0100
0010
0001
0010
0100
1000
0001
0100
0010
1000
0100
0010
0001
0010
0100
1000
0001
0100
0010
1000
0001
,
0010
0000
0100
0000
1000
0000
0001
0000
0100
0000
0010
0000
1000
0000
0100
0000
0010
0000
0001
0000
1000
0000
0001
0000
0100
0000
0000
0000
0000
0000
0000
0000
0000
0010
0000
0000
0000
0000
0000
0000
0000
0000
1000
0000
0000
0000
0000
0000
,
0001
0000
0010
0010
0000
0000
0110
0110
,
0000
0000
0000
0000
0100
0010
1000
0001
,
0000
0400
0000
0300
0040
0000
0030
0000
,
4000
0000
3000
0001
0100
0010
1000
0100
,
0010
0001
0010
0100
1000
0001
0100
0010
1000
0100
0010
0001
0010
0100
1000
0001
0010
0001
1000
0100
0010
0001
0010
0100
,
1000
0001
0100
0010
0100
0001
0010
0100
1000
0001
0100
0010
1000
0100
0010
0001
0010
0100
1000
0001
0100
0010
0100
0001
,
0010
0100
1000
0001
0100
0010
1000
0100
0010
0001
0010
0100
1000
0001
0100
0010
1000
0001
0010
0100
1000
0001
0100
0010
,
1000
0100
0010
0001
0010
0100
1000
0001
0010
0001
0100
0010
0100
0001
0010
0100
1000
0001
0100
0010
1000
0100
0010
0001
,
0010
0100
1000
0001
0100
0010
1000
0100
0010
0001
0010
0100
1000
0001
0100
0010
1000
0100
0010
0001
0010
0100
1000
0001
,
0100
0010
1000
0100
0010
0001
0010
0100
1000
0001
0100
0010
0100
0001
0010
0100
1000
0001
0100
0010
0100
0001
0010
0100
,
1000
0001
0010
0001
1000
0100
0010
0001
0010
0100
1000
0001
0100
0010
1000
0100
0010
0001
0010
0100
1000
0001
0010
0100
,
1000
0001
0010
0001
1000
0100
0010
0001
0010
0100
1000
0001
0100
0010
1000
0001
0010
0100
1000
0001
0100
0010
0100
0001
,
0010
0100
1000
0001
0100
0010
1000
0100
0010
0001
0010
0100
1000
0001
0100
0010
0100
0001
0010
0100
1000
0001
0100
0010
,
1000
0100
0010
0001
0010
0100
1000
0001
0100
0010
1000
0001
0010
0100
1000
0001
0100
0010
1000
0100
0010
0001
0010
0100
,
1000
0001
0100
0010
0100
0001
0010
0100
1000
0001
0100
0010
1000
0100
0010
0001
0010
0100
1000
0001
0100
0010
1000
0001
,
0010
0100
1000
0001
0100
0001
0100
0010
1000
0001
0100
0010
1000
0001
0010
1000
0010
1000
0001
0100
0010
1000
0100
0010
,
0001
0010
0100
1000
0001
0100
0010
1000
0100
0010
0001
0010
0100
1000
0001
0100
0010
1000
0001
0010
0001
1000
0100
0010
,
0001
0010
0100
1000
0001
0100
0001
0100
0010
1000
0001
0010
0100
1000
0001
0100
0010
1000
0100
0010
0001
0010
0100
1000
,
0001
0100
0001
0100
0001
1000
0010
1000
0001
0010
0100
1000
0001
0100
0010
1000
0100
0010
0001
0010
0100
1000
0001
1000
,
0010
1000
0001
0100
0001
0100
0010
0100
0001
1000
0010
0100
0001
1000
0010
0100
0001
1000
0100
1000
0001
0010
0100
1000
,
0001
0100
0010
1000
0100
0010
0001
0010
0100
1000
0001
0100
0010
0100
0001
0010
0100
1000
0001
0100
0010
1000
0100
0010
,
0001
0100
0010
1000
0001
0010
0100
1000
0001
0100
0010
1000
0100
0010
0001
0010
0100
1000
0001
0100
0010
0100
0001
0010
,
0100
1000
0001
0100
0010
1000
0100
0010
0100
1000
0001
0010
0100
1000
0001
0100
0010
1000
0100
0010
0001
0010
0100
1000
,
0001
0100
0010
1000
0001
0100
0010
1000
0100
0010
0001
0010
0100
1000
0001
0100
0010
0100
0001
0010
0100
1000
0001
0100
,
0010
0100
0001
0010
0100
1000
0001
0100
0010
0100
0001
0010
0100
1000
0001
0100
0010
1000
0100
0010
0001
0010
0100
1000
,
0001
0100
0010
0100
0001
0010
0100
1000
0001
0100
0010
0100
0001
1000
0100
0010
0001
0010
0100
1000
0001
0010
0001
1000
,
0100
0010
0001
0010
0100
1000
0001
0100
0010
1000
0100
0010
0001
0010
0100
1000
0001
0100
0010
0100
0001
0100
0010
1000
,
0001
0010
0100
1000
0001
0100
0010
1000
0100
0010
0001
0010
0100
1000
0001
0100
0010
1000
0001
0010
0100
1000
0001
0100
,
0010
1000
0100
0010
0001
0010
0100
1000
0001
0100
0010
1000
0100
0010
0001
0010
0100
1000
0001
0100
0010
0100
0001
0010
,
0100
1000
0001
0010
0001
1000
0100
0010
0001
0010
0100
1000
0001
0100
0010
0100
0001
0010
0100
1000
0001
0100
0010
1000
,
0100
0010
0001
0010
0100
1000
0001
0100
0010
0100
0001
0010
0100
1000
0001
0100
0010
1000
0100
0010
0001
0010
0100
1000
,
0001
0100
0010
1000
0001
0010
0100
1000
0001
0100
0010
1000
0100
0010
0001
0010
0100
1000
0001
0100
0010
1000
0100
0010
,
0001
0010
0100
1000
0001
0100
0010
0100
0001
0010
0100
1000
0001
0100
0010
0100
0001
1000
0100
1000
0001
0010
0100
1000
,
0001
0100
0010
0100
0001
0010
0100
1000
0001
0010
0001
1000
0010
1000
0001
0100
0010
1000
0001
0010
0100
1000
0001
0100
,
0010
1000
0100
0010
0001
0010
0100
1000
0001
0100
0010
1000
0001
0010
0100
1000
0001
0100
0010
0100
0001
0010
0100
1000
,
0001
0100
0010
1000
0100
0010
0001
0010
0100
1000
0001
0100
0010
0100
0001
0010
0100
1000
0001
0100
0010
1000
0100
0010
,
0001
0010
0100
1000
0001
0100
0010
1000
0001
0010
0001
0100
0010
1000
0001
0010
0100
1000
0001
0010
0001
1000
0100
1000
,
0001
1000
0100
1000
0001
0100
0010
0100
0001
0100
0010
0100
0001
1000
0100
1000
0001
1000
0100
1000
0001
0100
0010
0100
,
0001
1000
0100
0010
0001
0010
0100
1000
0010
1000
0001
1000
0100
0010
0001
0010
0100
1000
0001
1000
0100
1000
0001
1000
,
0100
1000
0001
0100
0010
0100
0001
0100
0010
0100
0001
0010
0100
1000
0001
0100
0010
1000
0100
0010
0001
0010
0100
1000
,
0001
0100
0010
0100
0001
0100
0010
0100
0001
1000
0010
0100
0010
1000
0010
0100
0010
1000
0001
0010
0100
1000
0001
0100
,
0010
1000
0100
0010
0001
1000
0010
0100
0001
1000
0010
0100
0001
1000
0100
1000
0001
1000
0100
1000
0001
0100
0010
0100
,
0001
0100
0010
0100
0001
0010
0100
1000
0001
0100
0010
1000
0100
0010
0001
0010
0100
1000
0001
0100
0001
1000
0010
1000
,
0001
0010
0100
1000
0001
0010
0001
1000
0001
0010
0001
1000
0001
0100
0010
0100
0001
0100
0010
0100
0001
1000
0100
0010
,
0001
0010
0100
1000
0001
0010
0100
1000
0001
0100
0010
1000
0100
0010
0001
0100
0010
1000
0100
0010
0100
0001
0100
0010
,
0100
0001
1000
0100
1000
0001
1000
0100
1000
0001
0100
0010
0100
0001
0100
0010
0100
0001
0100
0010
1000
0001
0010
0100
,
1000
0001
0100
0010
1000
0100
0010
0001
1000
0010
0100
0001
0010
0001
1000
0100
1000
0001
0100
0001
1000
0010
1000
0001
,
0010
0001
1000
0100
0010
0001
0010
0100
1000
0001
0010
0001
0100
0010
0100
0001
1000
0001
0100
0010
1000
0001
0010
0100
,
1000
0001
0100
0010
1000
0100
0010
0001
0010
0100
1000
0001
0100
0010
1000
0100
0010
0001
0010
0100
1000
0001
0100
0010
,
1000
0100
0010
0001
0010
0100
1000
0001
0100
0010
1000
0100
0010
0001
1000
0010
0100
0001
1000
0100
0010
0001
0010
0100
,
1000
0001
0100
0010
0100
0001
0010
0100
1000
0001
0100
0010
1000
0100
0010
0001
0010
0100
1000
0001
0100
0010
0100
0001
,
0010
0100
1000
0001
0100
0010
0100
0001
0010
0100
1000
0001
0100
0010
0100
0001
1000
0100
0010
0100
1000
0001
0010
0100
,
1000
0001
0100
0010
1000
0100
0010
0001
0010
0100
1000
0001
0100
0010
1000
0100
0010
0001
0010
0100
1000
0001
0100
0010
,
0100
0001
0010
0100
1000
0001
0100
0010
0100
0001
0010
0100
1000
0001
0100
0010
0100
0001
1000
0010
1000
0001
1000
0100
,
0010
0001
0010
0100
1000
0001
0100
0010
0100
0001
1000
0100
0010
0001
0010
0100
1000
0001
0010
0100
1000
0001
0010
0001
,
1000
0000
0100
0000
0010
0000
0001
0000
1000
0000
0100
0000
1000
0000
0001
0000
0010
0000
0100
0000
1000
0000
0100
0000
1000
0000
0000
0000
0000
0000
0000
0000
0000
0001
0000
0000
0000
0000
0000
0000
0000
0000
2002
0000
0000
0000
0000
0000
,
3003
0000
0000
0000
;
