#TITLE:Black Sheep;
#SUBTITLE:;
#ARTIST:Sonata Artica;
#TITLETRANSLIT:;
#SUBTITLETRANSLIT:;
#ARTISTTRANSLIT:;
#CREDIT:;
#BANNER:BlackSheep-banner.PNG;
#BACKGROUND:BlackSheep-bg.PNG;
#LYRICSPATH:;
#CDTITLE:cmgcdtitle3.PNG;
#MUSIC:black sheep.ogg;
#OFFSET:0.060;
#SAMPLESTART:38.940;
#SAMPLELENGTH:12.000;
#SELECTABLE:YES;
#BPMS:0.000=200.020;
#STOPS:;
#BGCHANGES:;
// cache tags:
#FIRSTBEAT:4.000;
#LASTBEAT:356.500;
#SONGFILENAME:Songs/in the groove2/black/black sheep.sm;
#HASMUSIC:1;
#HASBANNER:0;
#MUSICLENGTH:109.348;
// end cache tags

//---------------dance-single - Steps By CMG-UTOPIA----------------
#NOTES:
     dance-single:
     Steps By CMG-UTOPIA:
     Hard:
     11:
     0.985,1.000,0.073,0.421,0.604,700.000,8.000,46.000,109.000,0.000:


0000
0000
0000
0000
,
1100
1000
0010
0100
0001
0010
0002
0100
,
0010
0003
1000
0000
0100
0000
1000
0000
0020
0000
0100
0000
0001
0030
1000
0000
,
0100
0000
0010
0000
0002
0000
1000
0000
0010
0003
0100
0000
0001
0000
0010
0000
,
0200
0000
1000
0000
0001
0300
0100
0000
0010
0000
1000
0000
0200
0000
1000
0000
,
0010
0300
0100
0000
0001
0000
0010
0000
0200
0000
0010
0000
0001
0300
1000
0000
,
0010
0000
0100
0000
0002
0000
0010
0000
0100
0003
1000
0000
0100
0000
0010
0000
,
0011
0001
1000
0010
0100
0001
0020
0100
,
1000
0030
0001
0000
0100
0000
0010
0000
2000
0000
0100
0000
0010
3000
0100
0000
,
1000
0000
0001
0000
0200
0000
0001
0000
0010
0300
0001
0000
1000
0000
0010
0000
,
0200
0000
0001
0000
0010
0300
0100
0000
1000
0000
0001
0000
0200
0000
0010
0000
,
1000
0300
0100
0000
1000
0000
0001
0000
0200
0000
0010
0000
1000
0300
0010
0000
,
0100
0000
0001
0000
2000
0000
0100
0000
0010
3000
0001
0000
1000
0000
0010
0000
,
0100
0001
0010
0001
0100
0001
1000
0010
,
1000
0100
1000
0010
1020
0M0M
M000
0M01
,
M000
010M
M230
000M
00M0
100M
00M0
M001
,
03M2
M000
0M00
10M0
0M00
M010
0M23
M000
,
000M
M100
000M
0M00
203M
0M00
00M0
010M
,
00M0
0M01
30M2
0M00
M000
0M10
M000
01M0
,
M203
00M0
M000
00M1
M000
001M
M320
000M
,
0M00
000M
1M00
000M
M230
000M
00M0
100M
,
00M0
M001
00M2
M300
00M0
M100
0M00
M010
,
0M23
M000
000M
1M00
000M
M100
023M
M000
,
00M0
001M
M000
00M0
230M
00M0
0M00
01M0
,
000M
0M10
302M
0M00
M000
0M01
000M
M100
,
023M
M000
00M0
001M
M000
100M
23M0
0M00
,
00M0
000M
00M1
0M00
301M
0100
0001
0100
,
0010
1000
0001
0100
0010
1000
0100
0010
,
0001
1000
0010
0100
0001
0010
0100
1000
,
0001
0100
0010
1000
0100
1000
0001
0100
,
0001
1000
0010
1000
0001
0010
0001
0100
,
0010
1000
0010
0100
0001
0010
0001
0100
,
0010
1000
0100
1000
1100
0100
1000
0001
,
1000
0100
1000
0001
1000
0010
1000
0001
,
1000
0010
1000
0001
0011
0010
0001
1000
,
0001
0010
0001
1000
0001
0100
0001
1000
,
0001
0100
0001
1000
0010
0100
0001
0100
,
0010
0100
0001
0100
0010
1000
0010
0100
,
0010
1000
0010
0100
0001
0010
0100
1000
,
0001
0010
0100
1000
0001
1000
0010
0100
,
0001
1000
0010
0100
0101
0001
0010
0001
,
0100
0001
0010
0001
0100
0010
1000
0010
,
0100
0001
0100
0010
1010
1000
0100
1000
,
0010
1000
0100
1000
0010
0100
0001
0100
,
0010
1000
0010
0100
0001
0010
0001
0010
,
0001
0100
0001
0100
0010
1000
0010
1000
,
0100
1000
0100
1000
0001
0100
0010
1000
,
0001
0100
0010
1000
0M02
00M0
M000
00M0
,
0M00
0000
0000
00M0
0000
0000
M000
0000
0000
00M0
0000
0000
1003
0000
0100
0000
0010
0000
0001
0000
0010
0000
0100
0000
,
1000
0100
0010
0001
0010
0100
1000
0001
0100
0010
0100
0001
,
1000
0001
0100
0010
0100
0001
1000
0100
1000
0001
0100
0001
,
1000
0010
1000
0001
0010
0001
1000
0100
0010
0001
1000
0010
,
0100
0001
0010
0100
1000
0001
0100
0010
1000
0100
1000
0010
,
0100
0001
0010
0001
0100
0010
1000
0100
1000
0001
0100
0010
,
1000
0100
0010
0100
1000
0001
0010
0100
0010
0001
1000
0010
,
0100
0001
0100
0010
1000
0100
0010
0001
0010
0100
1000
0001
,
0100
0010
0100
0001
1000
0010
1000
0001
0010
0001
1000
0100
,
1000
0001
0100
0001
0010
0001
0100
0001
1000
0010
1000
0100
,
1000
0010
1000
0001
0100
0010
1000
0100
0010
0001
1000
0010
,
0100
0001
0010
0100
1000
0001
0100
0010
1000
0100
1000
0010
,
0100
0001
0010
0001
0100
0010
1000
0100
1000
0010
1000
0001
,
0010
0001
0100
0001
1000
0010
0100
0010
1000
0100
0010
0001
,
0010
0100
1000
0010
0100
0001
0010
0001
0100
0010
0100
0001
,
1000
0010
0100
0001
0010
0100
1000
0001
0100
0010
1000
0100
,
0010
0000
0000
0000
0001
0000
0000
0000
1000
0000
0000
0000
0010
0000
0000
0000
0100
0000
0000
0000
0001
0000
0000
0000
0100
0000
0000
0010
0000
0000
0100
0000
0000
0010
0000
0000
1000
0000
0000
0001
0000
0000
1000
0000
0000
0001
0000
0000
,
0200
0000
0310
1000
0100
0010
0001
0010
,
0100
1000
0002
0100
0020
0000
0000
0000
,
0003
0000
0130
1000
0010
0100
0001
0100
,
0010
0000
1000
0000
0100
0000
0010
0000
0002
0000
1000
0000
0010
0003
0100
0000
,
0001
0000
0010
0000
0100
0000
1000
0000
0002
0000
0100
0000
0010
0003
1000
0000
,
0100
0000
0010
0000
0001
0000
1000
0000
0002
0000
0100
0000
0010
0003
1000
0000
,
0010
0100
0001
0010
0100
1000
0100
1000
,
0010
0100
0001
0100
0010
1000
1000
0001
,
1000
1000
0100
1000
0001
0010
0010
0001
,
0100
0100
0001
0010
0100
0010
0010
0001
,
0010
0000
0010
0000
0100
0000
1000
0000
0002
0000
0010
0000
0100
0003
0000
0000
,
2000
0000
0100
0000
0010
3000
0000
0000
0002
0000
0100
0000
0010
0003
1000
0000
,
0010
0000
0100
0000
0001
0000
0010
0000
0200
0000
1000
0000
0001
0300
0100
0000
,
0010
0000
1000
0000
0100
0000
0010
0000
0002
0000
0100
0000
0010
0003
1000
0000
,
0010
0000
0100
0000
0001
0000
0010
0000
0200
0000
1000
0000
0010
0300
0000
0000
,
0200
0000
0001
0000
0010
0300
0000
0000
1000
0000
0100
0000
0010
0000
0100
0000
,
1000
0001
0010
0100
0010
0001
1000
0010
,
0100
0001
0010
0100
1000
0001
0100
0010
,
1000
0100
0010
0001
1000
0010
0100
0001
,
0010
0001
1000
0010
1000
0001
0100
0001
,
1000
0100
1000
0010
0100
0001
0100
0010
,
1000
0100
0010
0100
1000
0001
0010
0100
,
0010
0001
1000
0001
0100
0001
0010
0001
,
0100
0010
1000
0001
2002
0000
0000
0000
,
3MM3
M00M
0000
0000
0000
0000
0000
0000
;

//---------------dance-single - Steps By CMG-UTOPIA----------------
#NOTES:
     dance-single:
     Steps By CMG-UTOPIA:
     Beginner:
     2:
     0.169,0.202,0.101,0.073,0.000,110.000,11.000,8.000,0.000,0.000:


0000
0000
0000
0000
,
1000
0000
0000
1000
,
0000
0000
1000
0000
,
0000
1000
0000
0000
,
0001
0000
0000
0001
,
0000
0000
0001
0000
,
0000
0001
0000
0000
,
0100
0000
0000
0100
,
0000
0000
0100
0000
,
0000
0100
0000
0000
,
0010
0000
0000
0010
,
0000
0000
0010
0000
,
0000
0010
0000
0000
,
2002
0000
0000
3003
,
0000
0000
1000
0000
,
0000
0001
0000
0000
,
1000
0000
0000
0001
,
0000
0000
0100
0000
,
0000
0010
0000
0000
,
0100
0000
0000
0010
,
0000
0000
0001
0000
,
0000
1000
0000
0000
,
0001
0000
0000
1000
,
0000
0000
0010
0000
,
0000
0100
0000
0000
,
0010
0000
0000
0100
,
0000
0000
1000
0000
,
0000
1001
0000
0000
,
0001
0000
0000
1001
,
0000
0000
0100
0000
,
0000
0110
0000
0000
,
0010
0000
0000
0110
,
0000
0000
1000
0000
,
0000
0000
0100
0000
,
0000
0000
0010
0000
,
0000
0000
0001
0000
,
0000
0000
1000
0000
,
0000
0000
0010
0000
,
0000
0000
0100
0000
,
0000
0000
0001
0000
,
0000
0000
1000
0000
,
0000
0000
0100
0000
,
0000
0000
0001
0000
,
0000
0000
0010
0000
,
0000
0000
1000
0000
,
0000
0000
0010
0000
,
0000
0000
0001
0000
,
0000
0000
2002
0000
,
3003
0000
1000
0000
,
1000
0000
1000
0000
,
1000
0000
1000
0000
,
1000
0000
2000
0000
,
3000
0000
0001
0000
,
0001
0000
0001
0000
,
0001
0000
0001
0000
,
0001
0000
0002
0000
,
0003
0000
0100
0000
,
0100
0000
0100
0000
,
0100
0000
0100
0000
,
0100
0000
0200
0000
,
0300
0000
0010
0000
,
0010
0000
0010
0000
,
0010
0000
0010
0000
,
0010
0000
0020
0000
,
0030
0000
1000
0000
,
0000
0000
0001
0000
,
0000
0000
1000
0000
,
0000
0000
0001
0000
,
0000
0000
0100
0000
,
0000
0000
0010
0000
,
0000
0000
0100
0000
,
0000
0000
0010
0000
,
0000
0000
0001
0000
,
0000
0000
1000
0000
,
0000
0000
0001
0000
,
0000
0000
1000
0000
,
0000
0000
0010
0000
,
0000
0000
0100
0000
,
0000
0000
0010
0000
,
0000
0000
0100
0000
,
0000
0000
1000
0000
,
0000
0000
1001
0000
,
0000
0000
0001
0000
,
0000
0000
1001
0000
,
0000
0000
0100
0000
,
0000
0000
0110
0000
,
0000
0000
0010
0000
,
0000
0000
0110
0000
,
0000
0000
1001
0000
;

//---------------dance-single - Steps By CMG-UTOPIA----------------
#NOTES:
     dance-single:
     Steps By CMG-UTOPIA:
     Easy:
     3:
     0.295,0.366,0.183,0.494,0.000,152.000,20.000,54.000,0.000,0.000:


0000
0000
0000
0000
,
2000
0000
0000
3000
,
0000
0000
2002
0000
,
0000
3003
0000
0000
,
0002
0000
0000
0003
,
0000
0000
2002
0000
,
0000
3003
0000
0000
,
0200
0000
0000
0300
,
0000
0000
0220
0000
,
0000
0330
0000
0000
,
0020
0000
0000
0030
,
0000
0000
0220
0000
,
0000
0330
0000
0000
,
2002
0000
0000
0000
,
3003
0000
1000
0000
,
0000
1100
0000
0000
,
0001
0000
0000
0101
,
0000
0000
1000
0000
,
0000
1010
0000
0000
,
0001
0000
0000
0011
,
0000
0000
0100
0000
,
0000
1100
0000
0000
,
0010
0000
0000
1010
,
0000
0000
0100
0000
,
0000
0101
0000
0000
,
0010
0000
0000
0011
,
0000
0000
1000
0000
,
1000
0001
0000
0001
,
1000
0000
1000
0001
,
0000
0001
0100
0000
,
0100
0010
0000
0010
,
0100
0000
0100
0010
,
0000
0010
1000
0000
,
0100
0000
0010
0000
,
0100
0000
1000
0000
,
0010
0000
0100
0000
,
0010
0000
1000
0000
,
1100
0000
0001
0000
,
0101
0000
1000
0000
,
0001
0000
2002
0000
,
3003
0000
0001
0000
,
0010
0000
0100
0000
,
0010
0000
0001
0000
,
0100
0000
0010
0000
,
0100
0000
0001
0000
,
0011
0000
1000
0000
,
1010
0000
0001
0000
,
1000
0000
2002
0000
,
3003
0000
2000
3000
,
0200
0300
0020
0030
,
0002
0003
2000
3000
,
0020
0030
0200
0300
,
0002
0003
0020
0030
,
0200
0300
2000
3000
,
0002
0003
0200
0300
,
0020
0030
2000
3000
,
0200
0300
2000
3000
,
0002
0003
0200
0300
,
0002
0003
2000
3000
,
0020
0030
2000
3000
,
0002
0003
0020
0030
,
0002
0003
0200
0300
,
0020
0030
2000
3000
,
0200
0300
0020
0030
,
0002
0003
1000
0100
,
0010
0000
0001
0010
,
0100
0000
1000
0010
,
0100
0000
0001
0100
,
0010
0000
2000
0000
,
0000
0000
0100
0000
,
0000
0000
0001
0000
,
0000
0000
0010
0000
,
3000
0000
0001
1000
,
0100
0000
1000
0001
,
0100
0000
0001
1000
,
0010
0000
1000
0001
,
0010
0000
0002
0000
,
0000
0000
0010
0000
,
0000
0000
1000
0000
,
0000
0000
0100
0000
,
0003
0000
1000
0000
,
0100
0000
0010
0000
,
0001
0000
0010
0000
,
0100
0000
1000
0000
,
0001
0000
0100
0000
,
0010
0000
1000
0000
,
0010
0000
0100
0000
,
0001
0000
0010
0000
,
0100
0000
2200
0000
,
3300
0000
0000
0000
;

//---------------dance-single - Steps By CMG-UTOPIA----------------
#NOTES:
     dance-single:
     Steps By CMG-UTOPIA:
     Medium:
     7:
     0.533,0.529,0.037,0.320,0.000,369.000,4.000,35.000,65.000,0.000:


0000
0000
0000
0000
,
2000
0100
0010
3002
,
0010
0100
2003
0010
,
0100
3002
0100
0010
,
1003
0100
0010
0001
,
0010
0100
1000
0010
,
0100
0001
0100
0010
,
2000
0010
0001
3200
,
1000
0001
0320
0100
,
1000
0032
0100
1000
,
0013
0001
0100
0010
,
1000
0100
1000
0010
,
0100
0001
0010
0001
,
2000
0100
0001
0010
,
0001
0000
3100
0000
1100
0000
0100
1000
,
0000
1000
0010
0000
0010
0100
0000
0100
,
0001
0000
0001
0010
0000
0010
0200
0000
,
0000
2300
0000
0000
3010
0000
0010
1000
,
0000
1000
0100
0000
0100
0010
0000
0010
,
0001
0000
0001
0100
0000
0100
0020
0000
,
0000
0000
2030
0000
3001
0000
0001
1000
,
0000
1000
0010
0000
0010
0100
0000
0100
,
0001
0000
0001
0010
0000
0010
0200
0000
,
0000
0320
0000
0000
0031
0000
0001
0010
,
0000
0010
0001
0000
0001
0100
0000
0100
,
0010
0000
0010
1000
0000
1000
0200
0000
,
0000
2300
3001
0010
,
0001
1000
0010
1000
,
0001
0100
0001
1000
,
0100
1000
0001
0010
,
0100
1000
0100
0010
,
0001
0100
0010
1000
,
0010
0100
0001
0100
,
1000
0100
0001
0100
,
1000
0100
0001
0010
,
1000
0010
0001
0010
,
1000
0000
0010
0000
0001
0100
0001
0000
,
1000
0100
1000
0000
0001
0010
0001
0000
,
1000
0010
1000
0000
0001
1000
0001
0000
,
1000
0001
1000
0000
2002
0000
0000
0000
,
3003
0000
0100
1000
,
0010
1000
0100
1000
,
0010
1000
0100
0001
,
0010
0001
0100
0001
,
0010
0000
0001
0000
0100
0001
0100
0000
,
0010
0001
0010
0000
0100
1000
0100
0000
,
0010
1000
0010
0000
0100
0010
0100
0000
,
0010
0100
0010
0000
0220
0000
0000
0000
,
0330
0000
10M0
010M
,
M010
0M01
100M
M010
,
01M0
0M01
001M
M100
,
10M0
M001
010M
0M10
,
10M0
010M
10M0
0M01
,
M100
00M1
1M00
001M
,
1M00
00M1
M010
0M01
,
010M
M010
10M0
010M
,
1M00
M010
010M
0M01
,
M010
00M1
010M
0M01
,
10M0
M010
1M00
01M0
,
100M
0M01
01M0
100M
,
01M0
0M01
M010
1M00
,
001M
M001
01M0
1M00
,
001M
M100
0M01
001M
,
10M0
M100
0M01
001M
,
00M1
0000
M100
0000
100M
0100
0010
0001
,
2000
0000
3001
1000
,
0010
0000
0100
0000
0001
0010
0100
1000
,
0002
0000
1003
0001
,
0100
0010
2000
0100
,
0001
3010
0200
0001
,
0010
1300
0002
0010
,
1000
0103
0020
1000
,
0100
0000
0031
0000
1000
0010
0100
0001
,
2000
0000
3001
1000
,
0100
0000
0010
0000
0001
0100
0010
1000
,
0002
0000
1003
0001
,
0010
0100
2000
0010
,
0001
3100
0020
0001
,
0100
1030
0002
0100
,
1000
0013
0200
1000
,
0010
0301
1000
0100
,
0010
0100
1000
0001
,
0010
0100
0010
0001
,
1000
0010
0100
0010
,
1000
0001
0100
0010
,
0100
0001
1000
0010
,
0100
0001
0010
0100
,
1000
0001
0100
0010
,
1000
0001
2002
0000
,
3003
0000
0000
0000
;
