#TITLE:RUSTY RUIN ZONE ACT 1;
#SUBTITLE:(Sonic 3D Blast);
#ARTIST:SONIC TEAM;
#TITLETRANSLIT:;
#SUBTITLETRANSLIT:;
#ARTISTTRANSLIT:;
#CREDIT:;
#BANNER:;
#BACKGROUND:;
#LYRICSPATH:;
#CDTITLE:;
#MUSIC:Rusty Ruin act 1.ogg;
#OFFSET:-0.078;
#SAMPLESTART:4.280;
#SAMPLELENGTH:12.500;
#SELECTABLE:YES;
#BPMS:0.000=112.500;
#STOPS:;
#BGCHANGES:;
// cache tags:
#FIRSTBEAT:8.000;
#LASTBEAT:203.000;
#SONGFILENAME:Songs/Owem Extras -l/RUSTY RUIN ZONE ACT 1/RUSTY RUIN ZONE ACT 1.sm;
#HASMUSIC:1;
#HASBANNER:0;
#MUSICLENGTH:109.191;
// end cache tags

//---------------dance-single - ----------------
#NOTES:
     dance-single:
     :
     Beginner:
     13:
     1.000,1.000,0.092,0.147,1.000,745.000,10.000,16.000,10.000,0.000:
0000
0000
0000
0000
,
0000
0000
0000
0000
,
1000
0000
1000
0100
0000
0010
0000
0000
0001
0010
0000
0100
0000
0000
1000
0010
1000
0010
1000
0000
0100
0010
0000
0001
,
0010
0000
0010
0001
0000
0010
0100
0000
1000
0100
0000
0100
0010
0000
0010
0001
0100
0001
0100
0010
1000
0010
0000
0000
,
1000
0000
1000
0100
0000
0010
0001
0000
0010
0100
0000
1000
0010
0000
1000
0010
1000
0010
1000
0000
0100
0010
0000
0001
,
0010
0000
0010
0001
0000
0100
0010
0000
0010
1000
0000
0010
0100
0000
0100
0001
0100
0010
1000
0100
1000
0001
0100
0010
,
0100
0000
0100
0001
0000
0010
0100
0000
0100
0010
0000
0010
1000
0000
0100
0001
0100
0001
0010
0000
0100
1000
0000
1000
,
0100
0000
0010
0001
0000
0010
0000
0000
0001
1000
0000
0001
0010
0001
0100
0010
1000
0010
0100
0001
0100
0010
1000
0100
,
0010
0000
0001
0010
0000
0100
1000
0000
0100
0010
0000
0001
0010
0000
0100
1000
0010
0100
0001
0000
0000
0100
0000
0001
,
0100
0000
0010
1000
0000
0010
1000
0000
0100
0010
0000
0001
0100
0000
0001
0100
0001
0100
0001
0000
0000
1000
0000
0010
,
1000
0000
0010
0100
0000
1000
0100
0000
0100
0010
0000
0001
1000
0000
1000
0001
0010
0100
0010
0000
0000
0100
0000
0100
,
1000
0000
1000
0010
0000
0100
0001
0000
0001
0100
0000
0010
1000
0000
1000
0100
0010
0100
1000
0000
1000
0100
0000
0010
,
0100
0000
0100
0010
0000
0001
0100
0000
0100
0001
0000
0100
0001
0000
0001
0010
0100
0010
0100
0000
0100
1000
0000
1000
,
0010
0000
0100
0001
0000
0100
0010
0000
0010
1000
0000
0100
0010
0000
0010
0100
0010
0001
0010
0000
0100
1000
0000
1000
,
0100
0000
1000
0100
0000
1000
0001
0000
0010
0100
0000
1000
0100
0000
0001
0010
0001
0010
0001
0000
0000
0100
0000
0000
,
1000
0000
0100
0010
0000
0001
0010
0000
0100
1000
0000
0010
1000
0010
0100
0001
0100
0001
0100
0010
1000
0010
1000
0100
,
0010
0000
0001
0010
0000
0100
0000
0000
1000
0100
0000
1000
0000
0000
1000
0100
0010
0001
0010
0000
0000
0001
0000
1000
,
0001
0000
0001
0100
0000
0000
0100
0000
0010
1000
0000
0010
0000
0000
0100
0001
1000
0001
0100
0000
0000
0001
0000
0000
,
0010
0000
0100
1000
0000
0010
0000
0000
0100
0001
0000
0100
0000
0000
0010
1000
0100
1000
0100
0000
0000
1000
0000
0001
,
1000
0000
0100
0010
0000
0100
0000
0000
0010
0001
0000
0100
0000
0000
0010
1000
0001
1000
0010
0000
0000
0000
0000
0000
,
0100
0000
0001
1000
0000
0001
0000
0000
1000
0001
0000
1000
0000
0000
0100
0010
0001
0010
0100
0000
0000
0100
0000
0000
,
1000
0000
0010
0100
0000
0010
0000
0000
0100
0010
0000
0100
0000
0000
0001
1000
0001
1000
0002
0000
0000
0000
0000
0000
,
0103
0000
0010
1000
0000
0010
0000
0000
0100
0001
0000
0100
0000
0000
0010
1000
0010
1000
0100
0000
0000
0010
0000
0000
,
0010
0000
0100
1000
0000
0100
0000
0000
0010
0001
0000
0010
0100
0010
0100
1000
0100
0010
0100
0010
0001
0100
0001
0100
,
0010
0000
0010
1000
0000
0100
0000
0000
0010
0001
0000
0100
0000
0000
0010
1000
0010
0100
0001
0000
0000
0100
0000
0000
,
0001
0100
0001
0100
0001
0100
0010
1000
0010
1000
0010
1000
0001
0100
0010
1000
0010
0100
0001
0100
0010
1000
0010
0100
,
0001
0000
0000
0010
0000
0000
1010
0000
0000
0010
0000
0000
0110
0000
0000
0100
0000
0000
0001
0000
0010
0000
0000
0000
,
0100
0000
0100
1000
0000
0000
0010
0000
0000
0100
0000
0001
0000
0000
0010
0100
1000
0100
0020
0000
0000
0000
0000
0000
,
0031
0100
0010
1000
0010
0100
0001
0010
0001
0010
0100
1000
0100
1000
0010
1000
0010
1000
0001
1000
0001
0100
0001
0100
,
0010
1000
0100
2200
00MM
0000
00MM
3300
,
0010
0001
0010
0001
0100
0001
0100
0010
1000
0010
1000
0100
0010
0001
1000
0100
0010
0001
0010
0100
1000
0001
0010
0100
,
1000
0000
0000
1100
0000
0000
0011
0000
0000
0101
0000
0000
0010
0000
0010
1000
0000
1000
0100
0000
0100
0010
0000
0010
,
0001
0100
0010
1000
0010
0100
0001
0100
0010
1000
0010
0100
0001
0010
0100
0010
0100
1000
0100
0010
0100
0010
0001
0100
,
0001
0010
0100
1000
0010
0100
0001
0100
0010
1000
0010
0100
0001
0000
0001
0010
0000
0100
1000
0000
0010
0100
0000
0001
,
0100
0010
1000
0100
0010
0001
0010
0100
1000
0010
0100
0001
0100
0010
1000
0100
0010
0001
0100
0001
0100
0010
1000
0010
,
1000
0100
1000
0100
0010
0001
0010
0100
1000
0100
0010
0100
1000
0010
1000
0100
0001
0100
0010
0000
0001
0000
0000
0000
,
0100
0000
0100
0010
0000
0000
1000
0000
0000
0010
0000
0100
0000
0000
0100
0001
0000
0000
0100
0000
0000
0010
0000
0000
,
1000
0000
1000
0100
0000
0000
0010
0000
0000
0001
0000
0010
0100
0010
0100
0010
0100
0010
0100
0010
0100
0010
0000
0000
,
0100
0000
0100
1000
0000
0000
0010
0000
0000
0100
0000
0000
00M1
0100
0001
0100
0001
0100
M001
0100
0001
0100
0001
0100
,
0001
0000
0010
0200
0000
0000
1000
0000
0000
1300
0000
0010
0000
0000
0010
0100
0000
0000
0002
0000
0000
0203
0000
0000
,
2300
0000
0000
3200
0000
0000
0302
0000
0000
0013
0000
0100
0000
0000
0100
0010
0000
0010
1000
0000
0000
0010
0000
0100
,
0001
0000
0010
0001
0000
1000
0100
0000
1000
0010
0000
0100
0000
0000
0001
0010
0000
0001
0100
0000
0000
1000
0000
0000
,
1100
0000
0000
0110
0000
0000
0011
0000
0000
0001
0000
0010
0100
0010
0100
M010
0100
0010
010M
0010
0100
0010
0000
0000
,
0002
0000
0000
0203
0000
0000
0320
0000
0000
1030
0000
0001
0100
0001
0100
00M1
0100
0001
M100
0001
0100
0001
0000
0000
,
0010
0000
0000
1000
0000
0000
0010
0000
0000
0001
0000
0100
0000
0000
0100
0010
0000
1000
0100
0000
0000
0000
0000
0000
,
0010
0000
0000
0001
0000
0000
1000
0000
0000
0010
0000
0100
0000
0000
0100
0001
0000
0010
0100
0000
0000
0000
0000
0000
,
1000
0000
1000
0100
0000
0100
0010
0000
0000
0001
0000
0000
1000
0000
1000
0010
0000
0010
0100
0000
0000
0001
0000
0000
,
1000
0000
1000
0001
0000
0001
0100
0000
0100
0010
0000
0010
1000
0100
1000
0100
0010
0001
0010
0001
0100
0001
0100
0010
,
1000
0000
1000
0100
0000
0010
0000
0000
0001
0010
0000
0100
0000
0000
1000
0010
1000
0010
1000
0000
0000
0100
0000
0000
,
0010
0000
0001
0010
0000
0100
0000
0000
1000
0010
0000
0100
0000
0000
0001
0100
0010
1000
0200
0000
0000
0000
0000
0000
,
0310
0000
0010
0100
0000
0010
0000
0000
0001
1000
0000
2002
0000
0000
0000
0000
0000
0000
3003
0000
0000
0000
0000
0000
,
0000
0000
0000
0000
;

//---------------dance-single - ----------------
#NOTES:
     dance-single:
     :
     Easy:
     3:
     0.211,0.232,0.101,0.073,0.009,142.000,11.000,8.000,0.000,0.000:
0000
0000
0000
0000
,
0000
0000
0000
0000
,
0000
0000
0000
0000
,
0000
0000
0000
0000
,
1000
0001
1000
0100
,
0010
0001
0010
0011
,
0000
1000
0100
0010
,
0001
1000
0001
1001
,
0100
0100
0100
0001
,
1000
0000
0001
0100
,
1000
0000
0100
0000
,
0100
0010
0001
1001
,
0100
0000
0000
0100
,
1000
0000
0100
1000
,
0200
0000
0010
0000
,
0000
0000
1300
1000
,
0200
0000
0000
0000
,
1300
0000
0000
1000
0000
0000
1000
0000
0000
0000
0000
0000
0100
0000
0000
0000
,
1000
0001
1000
0100
,
0010
0001
0010
1001
,
0000
0100
1000
0100
,
0010
0001
0010
0100
,
0000
0100
1000
0100
,
0010
0001
0010
0010
,
0100
0000
0001
0000
,
0001
0000
0000
0000
0000
0000
0000
0000
1000
0000
0000
1000
0000
0000
1000
0000
,
0000
0001
1000
0100
,
0010
0001
1000
0000
,
0001
0000
0010
0000
0100
0010
0100
0000
,
0100
0100
0000
0000
,
0001
0000
1000
0000
0001
1000
0001
0000
,
0100
0001
0000
0000
,
0001
0000
1000
0000
0001
1000
0001
0000
,
0100
0010
0000
0000
,
0001
0000
1000
0000
0001
1000
0001
0000
,
0100
0010
0000
1000
,
0100
0100
0010
0000
,
0001
0000
1000
0001
,
0000
0000
0100
0010
,
0000
0000
1000
0001
,
0001
0100
0100
0010
,
0100
0000
0010
0010
,
0010
0000
0100
0000
,
0011
0000
0100
0000
,
0110
0000
0100
0100
,
0001
0010
0100
1000
,
1001
0000
0110
0000
,
1000
0100
0010
0001
,
2002
0000
0000
3003
,
0220
0000
0000
0330
,
2002
0000
0000
3003
,
0000
0000
0000
0000
;

//---------------dance-single - ----------------
#NOTES:
     dance-single:
     :
     Medium:
     5:
     0.323,0.372,0.110,0.119,0.000,222.000,12.000,13.000,0.000,0.000:
0000
0000
0000
0000
,
0000
0000
0000
0000
,
0000
0000
0000
0000
,
0000
0000
0000
0000
,
1000
0001
1000
0000
0100
0000
0010
0000
,
0001
0010
0001
0000
0100
0000
1001
0000
,
0100
0010
0100
0000
1000
0000
0001
0000
,
0100
0001
0100
0000
0001
1000
0001
0000
,
1000
0001
0100
1001
,
1100
0000
0100
1000
,
0100
0010
0100
0000
1000
0000
0001
0000
,
0010
0100
1000
0000
0001
0000
1100
0000
,
0001
0100
0001
0000
0100
0000
1000
0000
,
0001
0000
0010
0000
0100
1000
0100
0000
,
0010
0000
0001
0000
1000
0100
0010
0000
,
0001
0000
1000
0000
0100
1000
0100
1000
,
0100
0001
0010
0100
,
1000
0000
0001
0000
0100
0001
0100
0000
,
0100
0000
0001
0000
0010
1000
0010
0000
,
0100
0000
0001
0000
0100
0001
0100
0000
,
0002
0003
0000
0001
,
2000
0000
3200
0000
1300
0001
1000
0000
,
0200
0000
0320
0000
0031
1000
0100
0000
,
0020
0000
0230
0000
1300
0001
1000
0001
,
2000
0000
3200
0000
0310
0001
2000
0000
,
3200
0000
0320
0000
0031
0000
1000
0001
,
1000
0000
0001
0000
0010
0100
1000
0000
,
0100
1000
0001
0000
,
1000
0001
1000
0001
0100
0001
1000
0001
,
0100
0000
0000
0000
,
1000
0100
0010
0001
1000
0100
0010
0001
,
1000
0000
0100
0001
,
0001
0010
0100
1000
0001
0010
0100
1000
,
0001
0000
0100
0001
,
1000
0100
0010
0001
1000
0100
0010
0001
,
1000
0000
0100
1000
,
0100
0000
1000
0000
0001
1000
0001
0000
,
0100
0000
0001
0000
0001
0010
0001
0010
,
0000
0000
0000
0000
0100
1000
0100
1000
,
0000
0000
0001
1000
,
0001
0000
0010
0000
0100
1000
0100
0000
,
0010
0001
0002
0013
,
0100
0000
1000
0000
0100
1000
0100
1000
,
0000
0000
0000
0000
0001
0010
0001
0010
,
0000
0000
0000
0000
0100
0010
0100
0000
,
1000
0001
0100
0001
,
0101
0001
1001
0001
,
0011
1001
0101
1001
,
0001
1000
0001
0000
0100
0010
0100
0000
,
1000
0001
1000
0000
0001
0000
1001
0000
,
0001
1000
0100
0110
,
0000
0000
0000
0000
;

//---------------dance-single - ----------------
#NOTES:
     dance-single:
     :
     Hard:
     7:
     0.487,0.465,0.311,0.238,0.082,312.000,34.000,26.000,0.000,0.000:
0000
0000
0000
0000
,
0000
0000
0000
0000
,
1000
0000
0000
0100
0000
0010
0000
0000
0000
0001
0000
1000
0000
0000
0000
0100
0000
0000
0010
0000
0000
0000
0000
0000
,
0001
0000
0000
1000
0000
0100
0000
0000
0000
0010
0000
0001
0000
0000
0000
1000
0000
0000
1001
0000
0000
0000
0000
0000
,
0100
0000
0000
0010
0000
0001
0000
0000
0000
1000
0000
0010
0000
0000
0000
0100
0000
0000
1001
0000
0000
0000
0000
0000
,
0100
0000
0000
0010
0000
0001
0000
0000
0000
1000
0000
0001
0000
0000
0000
0100
0000
0000
1001
0000
0000
0000
0000
0000
,
0100
0000
0000
1000
0000
0100
0000
0000
0000
0010
0000
0001
0000
0000
0000
0010
0000
0000
0011
0000
0000
0000
0000
0000
,
0100
0000
0000
1000
0000
0100
0000
0000
0000
0010
0000
0000
0100
0000
0000
0100
0000
0000
1000
0000
0000
1000
0000
0000
,
0100
0000
0100
1000
0100
0000
1100
0000
,
1001
0100
0010
0100
1000
0001
0200
0000
,
0301
0010
0001
1000
0001
0100
0002
0000
,
0103
0010
0001
1000
0100
0010
0002
0000
,
0013
0010
0001
1000
0010
0100
0002
0000
,
0103
0010
1000
0100
0001
0100
2000
0000
,
3010
0100
0001
1000
0100
0010
0002
0000
,
0103
0100
0001
0010
1100
0001
1100
0001
,
0100
0100
0001
0010
0100
1000
0002
0000
,
0103
0100
0001
1000
0010
0100
0002
0000
,
1003
0100
0001
0100
1000
0010
0002
0000
,
0013
1000
0100
1000
0001
0010
0011
0000
,
0100
1000
0001
0100
0010
1000
1010
0000
,
0100
0001
1000
0100
0010
0001
1000
0000
,
2000
0100
0100
3000
0002
0100
0103
0000
,
2000
0100
3100
0000
0002
0010
0013
0000
,
1000
0000
0000
1000
0000
0000
0100
0000
0000
0000
0000
0000
0010
0000
0000
0010
0000
0000
0001
0000
1000
0000
0000
0000
,
1001
0000
0000
0000
0000
0000
0100
0000
0000
0000
0000
0000
1000
0000
0000
0000
0000
0010
0000
0000
0000
1000
0000
0000
,
0010
0000
1000
0001
0010
0000
0100
0000
,
1000
0100
0010
0001
1000
0100
0001
0000
,
0100
0010
0100
1000
0001
0010
0100
1000
,
1001
1001
1001
1001
0000
0000
0100
0000
,
0010
0100
1000
0001
0100
0001
1000
0100
,
0110
1001
1001
0101
0000
0000
0011
0000
,
0001
0010
0001
1000
0100
0010
0001
0100
,
0110
0110
1001
1001
0100
0000
0010
0000
,
0100
1000
0001
0010
0100
1000
0010
1000
,
1010
0110
0101
0011
0001
1000
0001
0000
,
0001
0000
0000
1000
0000
0000
0001
0000
0000
0010
0000
0100
0000
0000
0000
1000
0000
0000
0001
0000
0000
0000
0000
0000
,
1000
0000
0001
0000
1000
0100
0010
0001
,
2002
0000
3003
0000
0001
0010
0100
1000
,
2001
0000
3001
0000
1000
0100
1000
0000
,
0001
0000
1000
0000
1000
0100
1000
0001
,
0001
0000
0100
0000
0010
1000
0001
1000
,
1001
0000
0100
0000
0010
0100
0010
0001
,
0011
0000
0100
0000
0001
0010
0001
1000
,
1001
0000
0100
0000
0010
0100
0020
0000
,
0032
2003
3002
0203
,
2300
0000
3200
0000
,
0302
0023
0230
1300
,
0001
0000
0000
1000
0000
0100
0000
0000
0000
0010
0000
0001
0000
0000
0000
0010
0000
0000
0100
0000
0000
1000
0000
0000
,
0010
0000
0000
0100
0000
0001
0000
0000
0000
0100
0000
0010
0000
0000
0000
1000
0000
0000
0100
0000
0000
0000
0000
0000
,
0010
0001
1000
1001
,
0000
0000
0000
0000
;

//---------------dance-single - ----------------
#NOTES:
     dance-single:
     :
     Challenge:
     12:
     0.925,0.953,0.092,0.275,1.000,667.000,10.000,30.000,12.000,4.000:
0000
0000
0000
0000
,
0000
0000
0000
0000
,
1000
0000
1000
0100
0000
0010
0000
0000
0001
0010
0000
0100
0000
0000
1000
0010
1000
0010
2000
0000
0000
3200
0000
0000
,
0310
0000
0010
0001
0000
0010
0000
0000
0100
1000
0000
0100
0000
0000
0010
0001
0100
0001
0100
0010
1000
0010
0000
0000
,
1000
0000
1000
0100
0000
0010
0000
0000
0001
0010
0000
0100
0000
0000
1000
0010
1000
0010
2000
0000
0000
3200
0000
0000
,
0310
0000
0010
0001
0000
0100
0000
0000
0010
1000
0000
0010
0000
0000
0100
0001
0100
0010
2000
0000
0000
0000
0000
0000
,
3100
0000
0010
0001
0000
0100
0000
0000
0010
1000
0000
0010
0000
0000
0100
0001
0100
0001
0010
0000
0000
0100
0000
0000
,
1000
0000
1000
0100
0000
0010
0000
0000
0001
1000
0000
0001
0010
0001
0100
0010
1000
0010
0100
0001
0100
0010
1000
0100
,
0010
0000
0000
0001
0000
0000
0010
0000
0000
0100
0000
1000
0000
0000
0010
1000
0010
0100
0001
0000
0000
0100
0000
0001
,
0100
0000
0010
1000
0000
0010
0000
0000
1000
0100
0000
0010
0000
0000
0001
0100
0001
0100
0002
0000
0000
0000
0000
0000
,
0013
0000
0010
0100
0000
1000
0000
0000
0100
0010
0000
0001
0000
0000
1000
0001
0010
0100
0010
0000
0000
0100
0000
0100
,
1000
0000
1000
0010
0000
0100
0000
0000
0001
0100
0000
0010
0000
0000
1000
0100
0010
0100
2000
0000
0000
0000
0000
0000
,
3100
0000
0100
0010
0000
0001
0000
0000
0100
0001
0000
0100
0000
0000
0001
0010
0100
0010
0100
0000
0100
1000
0000
1000
,
0010
0000
0100
0001
0000
0100
0000
0000
0010
1000
0000
0100
0000
0000
0010
0100
0010
0001
0020
0000
0000
0000
0000
0000
,
0130
0000
1000
0100
0000
1000
0000
0000
0010
1000
0000
0001
0000
0000
1000
0010
1000
0010
1000
0000
0000
0100
0000
0000
,
0010
0000
0010
0001
0000
0010
0000
0000
0100
1000
0000
0010
1000
0010
0100
0001
0100
0001
0100
0010
1000
0010
1000
0100
,
0010
0000
0001
0010
0000
0100
0000
0000
1000
0100
0000
1000
0000
0000
1000
0100
0010
0001
0010
0000
0000
0001
0000
1000
,
0001
0000
0001
0100
0000
0000
0100
0000
0010
1000
0000
0010
0000
0000
0100
0001
1000
0001
0100
0000
0000
0001
0000
0000
,
0010
0000
0100
1000
0000
0010
0000
0000
0100
0001
0000
0100
0000
0000
0010
1000
0100
1000
0100
0000
0000
1000
0000
0001
,
1000
0000
0100
0010
0000
0100
0000
0000
0010
0001
0000
0100
0000
0000
0010
1000
0001
1000
0010
0000
0000
0000
0000
0000
,
0100
0000
0001
1000
0000
0001
0000
0000
1000
0001
0000
1000
0000
0000
0100
0010
0001
0010
0100
0000
0000
0100
0000
0000
,
1000
0000
0010
0100
0000
0010
0000
0000
0100
0010
0000
0100
0000
0000
0001
1000
0001
1000
0002
0000
0000
0000
0000
0000
,
0103
0000
0010
1000
0000
0010
0000
0000
0100
0001
0000
0100
0000
0000
0010
1000
0010
1000
0100
0000
0000
0010
0000
0000
,
0010
0000
0100
1000
0000
0100
0000
0000
0010
0001
0000
0010
0100
0010
0100
1000
0100
0010
0100
0010
0001
0100
0001
0100
,
0010
0000
0010
1000
0000
0100
0000
0000
0010
0001
0000
0100
0000
0000
0010
1000
0010
0100
0001
0000
0000
0000
0000
0000
,
0002
0000
0000
0000
0000
0000
0200
0000
0000
0000
0000
0000
0010
0000
0000
0000
0000
1000
0000
0000
0000
0010
0000
0000
,
1303
0000
0000
0000
0000
0000
1010
0000
0000
0010
0000
0000
0110
0000
0000
0100
0000
0000
0001
0000
0010
0000
0000
0000
,
0100
0000
0100
1000
0000
0000
0010
0000
0000
0100
0000
0001
0000
0000
0010
0100
1000
0100
0020
0000
0000
0000
0000
0000
,
0031
0100
0010
1000
0010
0100
0001
0010
0001
0010
0100
1000
0100
1000
0010
1000
0010
1000
0001
1000
0001
0100
0001
0100
,
0010
1000
0100
2200
00MM
0000
00MM
3300
,
0010
0001
0010
0001
0100
0001
0100
0010
1000
0010
1000
0100
0010
0001
1000
0100
0010
0001
0010
0100
1000
0001
0010
0100
,
1000
0000
0000
1100
0000
0000
0011
0000
0000
0101
0000
0000
0010
0000
0010
1000
0000
1000
0100
0000
0100
0010
0000
0010
,
0001
0100
0010
1000
0010
0100
0001
0100
0010
1000
0010
0100
0001
0010
0100
0010
0100
1000
0100
0010
0100
0010
0001
0100
,
0002
0000
0000
0023
0000
0000
0230
0000
0000
2300
0000
0000
3001
0000
0001
0010
0000
0100
1000
0000
0010
0100
0000
0001
,
0100
0010
1000
0100
0010
0001
0010
0100
1000
0010
0100
0001
0100
0010
1000
0100
0010
0001
0100
0001
0100
0010
1000
0010
,
1000
0100
1000
0100
0010
0001
0010
0000
0000
0100
0000
0100
1000
0000
1000
0100
0000
0100
0010
0000
0001
0000
0000
0000
,
0100
0000
0100
0010
0000
0000
1000
0000
0000
0010
0000
0100
0000
0000
0100
0001
0000
0000
0100
0000
0000
0010
0000
0000
,
1000
0000
1000
0100
0000
0000
0010
0000
0000
0001
0000
0010
0100
0010
0100
001M
0100
0010
M100
0010
0100
0010
0000
0000
,
0100
0000
0100
1000
0000
0000
0010
0000
0000
0100
0000
0000
00M1
0100
0001
0100
0001
0100
M001
0100
0001
0100
0001
0100
,
0001
0000
0010
0200
0000
0000
1000
0000
0000
1300
0000
0010
0000
0000
0010
0100
0000
0000
0002
0000
0000
0203
0000
0000
,
2300
0000
0000
3200
0000
0000
0302
0000
0000
0013
0000
0100
0000
0000
0100
0010
0000
0010
1000
0000
0000
0010
0000
0100
,
0001
0000
0010
0001
0000
1000
0100
0000
1000
0010
0000
0100
0000
0000
0001
0010
0000
0001
0100
0000
0000
1000
0000
0000
,
1100
0000
0000
0110
0000
0000
0011
0000
0000
0001
0000
0010
0100
0010
0100
M010
0100
0010
010M
0010
0100
0010
0000
0000
,
0002
0000
0000
0203
0000
0000
0320
0000
0000
1030
0000
0001
0100
0001
0100
00M1
0100
0001
M100
0001
0100
0001
0000
0000
,
0010
0000
0000
1000
0000
0000
0010
0000
0000
0001
0000
0100
0000
0000
0100
0010
0000
1000
0100
0000
0000
0000
0000
0000
,
0010
0000
0000
0001
0000
0000
1000
0000
0000
0010
0000
0100
0000
0000
0100
0001
0000
0010
0100
0000
0000
0000
0000
0000
,
1000
0000
1000
0100
0000
0100
0010
0000
0000
0001
0000
0000
1000
0000
1000
0010
0000
0010
0100
0000
0000
0001
0000
0000
,
1000
0000
1000
0001
0000
0001
0100
0000
0100
0010
0000
0010
1000
0100
1000
0100
0010
0001
0010
0001
0100
0001
0100
0010
,
1000
0000
1000
0100
0000
0010
0000
0000
0001
0010
0000
0100
0000
0000
1000
0010
1000
0010
1000
0000
0000
0100
0000
0000
,
0010
0000
0001
0010
0000
0100
0000
0000
1000
0010
0000
0100
0000
0000
0001
0100
0010
1000
0200
0000
0000
0000
0000
0000
,
0310
0000
0010
0100
0000
0010
0000
0000
0001
1000
0000
2002
0000
0000
0000
0000
0000
0000
3003
0000
0000
0000
0000
0000
,
0000
0000
0000
0000
;

//---------------dance-single - ----------------
#NOTES:
     dance-single:
     :
     Edit:
     15:
     0.951,1.000,0.000,0.549,1.000,667.000,0.000,60.000,0.000,0.000:
0000
0000
0000
0000
,
0000
0000
0000
0000
,
1000
0000
0100
0000
0010
0000
0001
0000
0000
0000
1000
0000
0010
0000
0100
0000
0000
0000
0001
1000
0001
0100
0010
1000
0020
0000
0000
0000
0130
0000
0001
0000
,
0100
0000
0010
0000
1000
0000
0001
0000
0000
0000
0100
0000
0010
0000
0100
0000
0000
0000
0001
1000
0010
1000
0001
0100
0020
0000
0000
0000
0000
0000
0000
0000
,
1030
0000
0100
0000
1000
0000
0001
0000
0000
0000
0100
0000
0010
0000
1000
0000
0000
0000
0001
0100
0001
0100
0001
0100
0002
0000
0000
0000
1003
0000
0100
0000
,
1000
0000
0010
0000
0100
0000
0001
0000
0000
0000
1000
0000
0010
0000
0100
0000
0000
0000
0001
1000
0001
0100
0010
1000
0002
0000
0000
0000
0000
0000
0000
0000
,
0103
0000
0010
0000
1000
0000
0010
0000
0000
0000
0100
0000
0001
0000
1000
0000
0000
0000
0010
0100
0010
0100
0010
0100
0020
0000
0000
0000
1030
0000
0001
0000
,
1000
0000
0100
0000
0010
0000
0001
0000
0000
0000
1000
0000
0010
0000
1000
0000
0001
0100
0001
1000
0010
0100
0001
1000
0100
1000
0010
0100
0001
1000
0001
0010
,
0200
0000
0000
2300
,
3020
0000
0000
0000
0000
0000
0000
0000
0130
0000
0000
0001
0000
0000
1000
0000
,
0200
0000
0320
0000
,
0031
0000
1000
0000
0001
0000
0100
0000
0000
0000
0010
0000
0100
0000
0010
0000
0000
0000
1000
0001
1000
0001
1000
0001
2000
0000
0000
0000
0000
0000
0000
0000
,
3200
0000
0000
0000
,
0320
0000
0000
0000
0000
0000
0000
0000
0031
0000
0000
1000
0000
0000
0010
0000
,
0200
0000
0000
0302
0000
2003
0000
0000
,
3100
0000
0010
0000
0001
0000
1000
0000
0000
0000
0010
0000
0100
0000
0010
0000
1000
0001
1000
0100
0010
0001
1000
0010
1000
0001
0100
0010
1000
0010
0100
0001
,
2000
0000
3200
0000
,
0320
0000
0000
0032
0000
0000
2003
0000
0000
0000
0000
0000
3010
0000
0100
0000
,
0002
0000
0000
2003
0000
0000
0000
0000
,
0000
0000
0000
0000
0000
0000
0000
0000
0000
0000
0000
0000
0000
0000
0000
0000
3000
0000
0001
0100
0001
0100
0001
0100
0002
0000
0000
0000
0000
0000
0000
0000
,
1003
0000
0100
0000
1000
0000
0010
0000
0000
0000
0100
0000
0001
0000
0100
0000
0000
0000
0010
1000
0010
1000
0010
1000
0020
0000
0000
0000
0130
0000
0001
0000
,
1000
0000
0010
0000
1000
0000
0100
0000
0000
0000
0010
0000
0001
0000
1000
0000
0000
0000
0010
0100
0010
0100
0010
0100
0020
0000
0000
0000
0000
0000
0000
0000
,
1030
0000
0001
0000
1000
0000
0100
0000
0000
0000
0010
0000
0001
0000
1000
0000
0000
0000
0001
1000
0001
1000
0001
1000
0002
0000
0000
0000
0013
0000
0100
0000
,
1000
0000
0001
0000
1000
0000
0010
0000
0000
0000
0100
0000
0001
0000
1000
0000
0100
0010
0001
1000
0001
0100
0010
1000
0010
0100
0001
1000
0100
1000
0010
0100
,
0001
0000
0000
2000
0000
0000
0000
0000
0000
0000
0000
0000
3010
0000
0000
0000
0000
0000
0100
0000
0000
0000
0000
0000
0001
0000
0000
0000
0000
0000
1000
0000
0000
0000
0000
0000
0100
0000
0000
0000
0010
0000
0000
0000
0000
0000
0001
0000
,
2000
0000
0000
0000
3020
0000
0000
0000
0230
0000
0000
0302
0000
0000
2003
0000
,
3100
0000
0010
0000
0001
0000
1000
0000
0000
0000
0010
0000
0100
0000
0010
0000
0000
0000
1000
0001
1000
0001
1000
0001
2000
0000
0000
0000
3100
0000
0010
0000
,
0001
0000
1000
0000
0001
0000
0100
0000
0000
0000
0010
0000
1000
0000
0010
0000
0000
0000
0100
0001
0100
0001
0100
0001
0200
0000
0000
0000
0000
0000
0000
0000
,
0310
1000
0001
0100
0001
0010
0100
1000
0001
1000
0010
0100
0001
1000
0100
1000
0010
0100
0001
1000
0001
0010
0100
1000
0001
0010
0001
0100
0010
1000
0001
1000
,
0200
0320
0032
2003
0000
0000
3010
0000
,
0100
0001
1000
0100
0010
0001
1000
0010
1000
0100
0010
0001
1000
0001
0100
0010
1000
0010
0100
0001
1000
0010
0100
0010
1000
0001
0010
0001
0100
0010
1000
0001
,
2000
0000
0000
3200
0000
0000
0320
0000
0000
0032
0000
0000
1003
0000
0010
0100
0000
0001
0100
0000
0010
1000
0000
0001
,
1000
0100
0010
0001
1000
0001
0100
0010
1000
0001
0100
0001
0010
0100
1000
0001
0010
0001
0100
0010
1000
0010
0100
0001
1000
0100
0010
0100
1000
0001
0100
0001
,
0010
0100
1000
0001
1000
0010
0100
0001
0100
0010
1000
0001
1000
0100
0010
0001
1000
0010
1000
0100
0010
0001
1000
0001
0100
0010
0100
0001
1000
0010
1000
0001
,
0100
0010
1000
0010
0100
0001
1000
0100
1000
0010
0100
0010
1000
0001
0100
0001
0010
0100
1000
0100
0010
0001
1000
0010
1000
0001
0100
0010
0100
0001
1000
0001
,
0010
0100
1000
0001
0010
0001
0100
0010
1000
0010
0100
0001
1000
0001
0100
0010
0100
0001
1000
0100
1000
0010
0100
0001
0100
0010
1000
0001
1000
0100
0010
0001
,
2000
0000
0000
0000
0000
0000
0010
0000
0000
0000
3000
0100
0010
0000
0001
1000
0000
0010
1000
0000
0001
0100
0000
0010
,
2000
0000
0000
0000
0000
0000
0000
0000
0001
0000
0000
0000
0000
0000
0000
0000
3100
0010
0001
1000
0001
0100
0010
1000
0010
0100
0001
1000
0100
0010
0001
1000
,
0020
0000
0000
0000
0000
0000
0000
0000
0100
0000
0000
0000
0000
0000
0000
0000
0130
0001
1000
0010
1000
0100
0010
0001
1000
0100
1000
0001
0100
0010
1000
0010
,
0100
0000
0001
2000
0000
0000
0000
0000
0000
0000
0000
0000
3000
0000
0000
0000
0000
0000
0100
0000
0010
0000
0000
0001
,
1000
0000
0010
2000
0000
0000
0000
0000
0000
0000
0000
0000
3000
0000
0000
0000
0000
0000
0100
0000
0010
0000
0000
0001
,
0100
0000
0010
0200
0000
0000
0000
0000
0000
0000
0000
0000
0301
0000
0000
1000
0000
0000
0010
0000
0000
0100
0000
0000
,
0002
0000
0000
0000
0000
0000
0000
0000
1000
0000
0000
0000
0000
0000
0000
0000
1003
0100
1000
0010
0100
0001
1000
0001
0100
0010
1000
0010
0100
0001
1000
0100
,
0010
0000
0000
0000
0000
0000
0000
0000
0001
0000
0000
0000
2000
0000
0000
0000
0000
0000
0000
0000
0000
0000
0000
0000
0010
0000
0000
0000
0000
0000
0000
0000
0000
0000
0000
0000
0000
0000
0000
0000
0000
0000
0000
0000
0000
0000
0000
0000
3010
0000
0000
0100
0000
0000
0001
0000
0000
0100
0000
0000
0010
0000
0000
1000
0000
0000
0001
0000
0000
1000
0000
0000
0100
0000
0000
0010
0000
0000
0001
0000
0000
1000
0000
0000
0100
0000
0000
1000
0000
0000
0010
0000
0000
0100
0000
0000
,
0001
0000
1000
0020
0000
0000
0000
0000
0000
0000
0000
0000
0030
0000
0000
0000
0000
0000
0100
0000
0001
0000
0000
1000
,
0200
0320
0032
2003
,
3010
0000
0000
0100
0000
0001
1000
0000
0000
0100
0000
0010
0001
0000
1000
0010
0000
0100
0001
1000
0010
1000
0000
0001
,
0200
0000
0000
0000
0000
0000
0000
0000
0320
0000
0000
0000
0000
0000
0000
0000
1030
0001
0100
0010
0100
0001
1000
0010
1000
0100
0010
0001
0100
0001
1000
0010
,
0100
0000
0001
0000
1000
0000
0010
0000
0000
0000
0100
0000
0001
0000
0100
0000
0000
0000
0010
1000
0010
1000
0010
1000
0020
0000
0000
0000
0130
0000
0001
0000
,
1000
0000
0001
0000
0100
0000
0010
0000
0000
0000
1000
0000
0100
0000
1000
0000
0000
0000
0001
0100
0001
0100
0001
0100
0002
0000
0000
0000
0000
0000
0000
0000
,
0003
0000
0000
0000
,
0000
0000
0000
0000
;
