#TITLE:Power Ranger Theme;
#SUBTITLE:;
#ARTIST:Buckethead;
#TITLETRANSLIT:;
#SUBTITLETRANSLIT:;
#ARTISTTRANSLIT:;
#CREDIT:;
#BANNER:jsjsjjsja.banner.jpg;
#BACKGROUND:hhhahsha.bg.jpg;
#LYRICSPATH:;
#CDTITLE:CDTITLE.jpg;
#MUSIC:buckethead - power rangers theme(2).mp3;
#OFFSET:0.000;
#SAMPLESTART:43.705;
#SAMPLELENGTH:13.200;
#SELECTABLE:YES;
#BPMS:0.000=187.920;
#STOPS:;
#BGCHANGES:;
// cache tags:
#FIRSTBEAT:13.000;
#LASTBEAT:187.000;
#SONGFILENAME:Songs/Definitive Keyboard Megapack/Power Rangers Theme - buckethead(Leone510)/buckethead - power rangers theme(2).sm;
#HASMUSIC:1;
#HASBANNER:1;
#MUSICLENGTH:65.470;
// end cache tags

//---------------dance-single - ----------------
#NOTES:
     dance-single:
     :
     Hard:
     12:
     1.000,1.000,1.000,0.153,0.741,396.000,107.000,10.000,0.000,7.000:
0000
0000
0000
0000
,
0000
0000
0000
0000
,
0000
0000
0000
0000
,
0000
0000
1100
0001
1001
0010
0011
1000
,
0101
0000
1000
1000
0101
0100
0100
0101
,
0001
0001
1001
0100
0100
0110
0000
1100
,
0010
1001
0100
0100
1100
0001
0001
1001
,
0100
0100
1010
0100
0100
0011
0000
1010
,
0100
0000
1001
0000
0010
0001
1000
0010
0100
0001
0100
1000
0100
0010
0100
1000
,
0001
0100
0001
1000
0001
0010
0001
0100
0010
0100
1000
0001
1000
0100
0010
0100
,
1000
0010
0001
0010
0100
1000
0010
0100
1000
0100
0001
1000
0001
0100
0010
0001
,
0010
0100
0010
1000
0010
0001
0010
0100
0010
1000
0100
1000
0010
0001
0010
0100
,
0010
1000
0100
1000
0001
0010
1000
0001
0100
1000
0100
0001
0100
1000
0001
0010
,
1000
0100
0010
0001
0010
0100
0001
0100
1000
0010
0100
0001
0010
1000
0001
0100
,
1000
0000
0000
0000
0000
0000
0001
0000
0000
1000
0000
0000
0020
0000
0000
0000
0100
0000
0000
0000
1000
0000
0000
0000
0001
0000
0000
0000
1000
0000
0000
0000
0001
0000
0000
0000
0100
0000
0000
0000
1000
0000
0000
0000
0100
0000
0000
0000
,
0001
0100
1000
0001
1000
0001
0100
1000
0100
0001
1000
0001
,
1030
0000
1000
1000
0101
0100
0100
0101
,
0001
0001
1001
0100
0100
0110
0000
1100
,
0010
1001
0100
0100
1100
0001
0001
1001
,
0100
0100
1010
0100
0100
0011
0000
1010
,
0100
1001
1000
1000
0101
0100
0100
0101
,
0001
0001
1001
0100
0100
0110
0000
1100
,
0010
1001
0100
0100
1100
0001
0001
1001
,
0100
0100
1010
0100
0100
0011
0000
1010
,
0100
1001
1000
1000
0101
0100
0100
0101
,
0001
0001
1001
0100
0100
0110
0000
1100
,
0010
1001
0101
0000
1001
0000
0101
0000
,
0110
1010
0101
1001
,
0110
1001
0000
0000
,
0000
0101
1001
0000
0000
0000
0000
0000
,
0000
0110
1010
0000
0000
0101
0110
0000
,
0000
1010
1001
0000
0000
0101
0011
0000
,
0000
1010
0201
1000
0312
0010
2013
0001
,
3120
1000
0231
1000
0312
0010
2103
0001
,
3120
0100
1030
1000
0101
0100
0100
0101
,
0001
0001
1001
0100
0100
0110
0000
1100
,
0010
1001
0100
0100
1100
0001
0001
1001
,
0100
0100
1010
0100
0100
0011
0000
1010
,
0100
1001
1000
1000
0101
0100
0100
0101
,
0001
0001
1001
0100
0100
0110
0000
1100
,
0010
1001
0100
0100
1100
0001
0001
1001
,
0100
0100
1010
0100
0100
0011
0000
1010
,
0100
0000
1010
0000
0001
0010
0100
1000
0001
1000
0100
0010
0001
1000
0001
0010
,
0001
0100
0001
1000
0001
0100
1000
0100
0010
1000
0001
0100
1000
0001
0010
0100
,
1000
0100
0010
0001
1100
0010
0001
0100
1010
0001
1000
0001
1100
0010
0001
0100
,
1010
0001
1000
0001
1100
0010
0001
0100
1010
0001
1000
0001
1100
0010
0001
0100
,
1010
0000
0000
0001
0000
0000
1000
0000
0000
0001
0000
0000
1200
0000
0000
0000
0010
0000
0000
0000
0001
0000
0000
0000
0010
0000
0000
0000
1000
0000
0000
0000
0010
0000
0000
0000
0301
0000
0000
0000
0000
0000
0000
0000
0000
0000
0000
0000
;
