#TITLE:My Insomnias;
#SUBTITLE:;
#ARTIST:TheMetea11;
#TITLETRANSLIT:;
#SUBTITLETRANSLIT:;
#ARTISTTRANSLIT:;
#CREDIT:Mad Matt;
#BANNER:../Tachyon Spectrum-bn.png;
#BACKGROUND:../Tachyon Spectrum-bg.png;
#LYRICSPATH:;
#CDTITLE:;
#MUSIC:my insomnias.ogg;
#OFFSET:0.005;
#SAMPLESTART:37.154;
#SAMPLELENGTH:12.000;
#SELECTABLE:YES;
#BPMS:0.000=160.000;
#STOPS:;
#BGCHANGES:;
// cache tags:
#FIRSTBEAT:16.000;
#LASTBEAT:476.000;
#SONGFILENAME:Songs/Tachyon Spectrum/My Insomnias - [Mad Matt]/my insomnias.sm;
#HASMUSIC:1;
#HASBANNER:1;
#MUSICLENGTH:181.504;
// end cache tags

//---------------dance-single - Tachyon Delta----------------
#NOTES:
     dance-single:
     Tachyon Delta:
     Easy:
     17:
     1.000,1.000,0.033,0.573,1.000,1497.000,6.000,104.000,0.000,0.000:









0000
0000
0000
0000
,
0000
0000
0000
0000
,
0000
0000
0000
0000
,
0000
0000
0000
0000
,
1000
0100
1000
0100
0010
0001
1000
0010
0100
0001
0100
0001
1000
0100
0010
0001
,
1000
0010
1000
0010
0100
0001
1000
0010
0100
0001
0100
0001
1000
0100
0010
0001
,
1000
0100
1000
0100
0010
0001
1000
0010
0100
0001
0100
0001
1000
0010
0100
0001
,
1000
0010
1000
0010
0100
0001
1000
0100
0010
0001
0010
0001
1000
0100
0010
0001
,
1000
0010
1000
0010
0100
0001
1000
0100
0010
0001
0010
0001
1000
0010
0100
0001
,
1000
0100
1000
0100
0010
0001
1000
0100
0010
0001
0010
0001
1000
0010
0100
0001
,
1000
0010
1000
0010
0100
0001
1000
0100
0010
0001
0010
0001
1000
0100
0010
0001
,
1000
0100
1000
0100
0010
0001
1000
0010
0100
0001
0100
0001
1000
0010
0100
0001
,
1000
0100
1000
0100
0010
0001
1000
0010
0100
0001
0100
0001
1000
0100
0010
0001
,
1000
0010
1000
0010
0100
0001
1000
0010
0100
0001
0100
0001
1000
0100
0010
0001
,
1000
0100
1000
0100
0010
0001
1000
0010
0100
0001
0100
0001
1000
0010
0100
0001
,
2000
0000
0000
3002
,
1003
0100
0010
0100
1000
0001
0100
0010
,
1000
0001
0010
0100
1000
0010
0100
0001
,
1000
0100
1000
0010
1000
0001
1000
0010
,
0100
0001
0100
0010
1000
0100
0020
0000
,
0031
0010
0100
0010
0001
1000
0010
0100
,
0001
1000
0100
0010
0001
0100
0100
0010
,
1000
0100
1000
0001
1000
0010
1000
0100
,
0020
0000
0000
0000
0032
0000
0000
0000
0203
0000
0000
0000
0310
1000
0010
0100
,
0001
0010
0100
0010
0001
1000
0010
0100
,
0001
1000
0100
0010
0001
0100
0010
1000
,
0001
0010
0001
0100
0001
1000
0001
0100
,
0010
1000
0010
0100
0001
0010
0200
0000
,
1300
0100
0010
0100
1000
0001
0100
0010
,
1000
0001
0010
0100
1000
0010
0010
0100
,
0001
0010
0001
1000
0001
0100
0001
0010
,
0200
0000
0000
0000
2300
0000
0000
0000
3020
0000
0000
0000
0130
0001
0100
0010
,
1000
0100
1000
0010
1000
0001
0200
0000
,
0320
0000
0000
0000
2030
0000
0000
0000
3001
0010
0100
1000
0001
0010
0100
1000
,
0002
0203
0302
0023
,
0031
0100
0001
1000
0010
1000
0001
0010
0001
1000
0100
0010
0002
0000
0000
0000
,
1003
0000
0000
0010
0000
0000
0100
0000
0000
0001
0000
0000
1000
0000
0000
0100
0000
0000
0010
0000
0000
0001
0000
0000
1000
0000
0000
0100
0000
0000
1000
0000
0000
0001
0000
0000
0010
0000
0100
0000
1000
0000
0001
0000
1000
0000
0001
0000
,
0200
0000
0310
0000
0200
0000
0310
0000
0100
0000
0010
1000
0000
0001
0010
0000
,
0220
0330
2200
3300
2002
0000
0000
3003
,
0202
0000
0303
0000
0220
0000
0330
0000
0010
1000
0001
0010
0100
1000
0100
0010
,
0001
1000
0100
0010
0100
1000
0001
0010
0100
0010
0001
1000
0100
0010
0001
1000
,
0001
0010
0001
1000
0010
1000
0001
0100
0001
0010
0100
1000
,
0002
0203
0320
0000
,
2030
0000
0000
0000
3200
0000
0000
0000
0320
0000
0000
0000
0031
1000
0000
0000
,
0001
0010
0100
0000
1000
0100
0010
0000
0001
0200
0000
0000
0310
2000
0000
0000
,
3001
0010
0100
1000
0001
0010
0100
1000
0001
0010
0001
1000
0010
1000
0001
0100
0010
1000
0001
1000
0010
0100
0001
1000
,
0001
0010
0100
1000
0001
1000
0001
0010
0100
1000
0001
1000
0001
0100
0010
1000
0001
1000
0001
0100
0010
1000
0001
1000
,
0001
0000
0100
0000
0010
0000
0100
0000
0001
0000
1000
0000
0001
0000
0000
0010
0000
0000
0100
0000
0000
1000
0000
0000
0020
0000
0000
0000
0000
0000
0000
0000
0000
0000
0000
0000
0230
0000
0000
0000
0000
0000
0000
0000
0000
0000
0000
0000
,
0301
0000
1000
0010
0100
0001
1000
0000
0001
0000
0010
0100
0000
0100
1000
0000
,
0001
0000
1000
0100
0010
0001
1000
0000
0001
0000
0100
0010
0000
0010
1000
0000
,
0001
0100
0010
1000
0010
1000
0001
0010
0100
1000
0001
1000
0001
0010
0100
1000
0100
0010
0001
1000
0010
0100
0001
1000
,
0001
0100
0010
0100
0001
0000
1000
0000
0100
0000
0010
0000
0100
0000
1000
0000
,
0001
0010
0001
0100
0010
1000
1000
0001
,
2000
0000
3200
0000
0320
0000
0000
0031
,
1000
0010
0100
0001
0100
0010
1000
0001
0010
0100
1000
0001
2000
0000
0000
0000
0000
0000
0000
0000
0000
0000
0000
0000
,
3001
0000
0010
0000
0100
0000
1000
0000
0100
0000
0010
0000
0001
0000
1000
0000
0010
0000
0100
0000
0001
0000
1000
0000
0001
0000
0000
0100
0000
0000
0010
0000
0000
1000
0000
0000
0001
0000
0000
0100
0000
0000
0010
0000
0000
1000
0000
0000
,
0001
0010
0100
0010
0001
0100
0010
0100
,
0001
0100
0010
0100
0010
1000
0001
0100
0010
0100
0001
1000
0100
0010
0001
1000
,
0001
0010
0001
0100
0001
1000
0001
0010
0001
0100
0001
1000
0001
0100
0001
0010
,
0100
1000
0001
0010
0100
1000
0001
1000
0001
0010
0100
1000
0001
0100
0010
1000
0001
1000
0001
0100
0010
1000
0001
0100
,
0001
1000
0100
0010
0200
0000
2300
0000
,
3001
0000
0100
0010
0000
0100
0010
0000
1000
0000
0100
0010
0000
0100
0010
0000
,
0001
0010
0001
0100
0010
1000
0010
0100
,
0001
0010
0100
1000
0010
0100
0001
0010
0100
1000
0010
0100
0002
0000
0000
0000
,
1003
0100
0010
0001
0100
0010
1000
0100
0010
0001
0100
0010
2000
0000
0000
0000
,
3001
0010
0100
1000
0010
0100
0001
0010
0100
0010
0001
0100
0010
1000
0100
0010
,
0001
0010
0100
1000
0010
0100
0001
0010
0100
1000
0010
0100
0002
0000
0000
0000
,
1003
0100
0010
0001
0100
0010
1000
0100
0010
0001
0100
0010
2000
0000
0000
0000
,
3002
0000
0203
0000
,
0320
0000
0000
2030
,
3200
0000
0000
0000
0320
0000
0000
0000
0031
1000
0010
0100
0001
1000
0100
0010
,
0001
1000
0100
0010
0001
1000
0010
0100
0001
1000
0100
0010
0001
1000
0001
1000
0100
0010
0100
1000
0001
1000
0001
0010
,
0100
1000
0001
0000
0100
0000
0010
0000
2000
0000
3001
0100
0010
0100
0001
0000
,
2000
3100
2000
3100
0020
0031
2000
3010
,
0200
0301
2000
3100
0020
0031
2000
3010
,
0200
0000
0000
0000
0302
0000
0000
0000
1003
0100
0010
0001
1000
0100
0010
0001
,
2000
0000
3100
0010
0100
1000
0020
0000
,
0230
0300
0000
0000
0000
0000
0000
0000
0002
0003
0000
0000
0000
0000
0000
0000
0200
0300
0000
0000
0000
0000
0000
0000
0002
0003
0000
0000
0000
0000
0000
0000
2000
0000
0000
0000
0000
0000
0000
0000
0000
0000
0000
0000
0000
0000
0000
0000
3200
0000
0000
0000
0000
0000
0000
0000
0000
0000
0000
0000
0000
0000
0000
0000
,
0310
0001
1000
0010
0100
0001
1000
0100
0010
0001
0010
0100
1000
0001
0010
0100
,
1000
0002
0000
0000
0000
0000
0203
0000
0000
0000
0000
0000
0320
0000
0000
0000
0000
0000
0230
0000
0000
0000
0000
0000
,
0302
0000
0000
1003
0100
0010
0002
0000
0000
0203
0000
0000
,
0310
0000
1000
0000
0001
0000
0100
0000
0001
0000
0100
0000
0010
0000
1000
0000
0010
0000
0100
0000
0001
0000
0100
0000
0010
0000
1000
0000
0001
0000
0010
0000
0100
0000
1000
0000
0001
0000
0000
0100
0000
0000
0010
0000
0000
1000
0000
0000
,
0100
1000
0001
0010
0001
0010
0100
1000
0100
0010
0001
0010
0100
1000
0001
0100
0010
1000
0010
1000
0001
0010
0100
1000
,
0001
0010
0001
1000
0100
0010
0001
1000
0100
1000
0001
0010
0100
0010
0001
1000
0100
0010
0001
1000
0010
1000
0001
0100
,
0001
1000
0100
0000
0010
0000
0001
0000
0010
0000
0100
0000
2000
0000
0000
0000
,
0000
3001
0100
0010
0100
0001
0020
0000
,
0031
0000
0010
0000
0001
0000
0100
0000
0001
0000
1000
0000
0001
0010
0001
0010
,
0100
1000
0001
0100
0001
1000
0100
0010
0001
0010
0100
1000
0010
0100
0001
0010
,
0002
0203
0320
2030
,
3020
0000
0000
0000
0130
0002
0000
0000
1003
0000
0100
0000
0010
0000
0001
0000
,
1000
0000
0100
0000
0010
0000
0100
0000
1000
0000
0010
0000
0100
0000
0010
1000
,
0001
0000
0000
0010
0000
0000
0100
0000
0000
1000
0000
0000
0001
0000
0000
0100
0000
0000
0010
0100
0001
1000
0001
0100
,
0010
1000
0001
1000
0100
0010
0001
0000
0000
0010
0000
0000
0200
0000
0000
0000
0000
0000
2300
0000
0000
0000
0000
0000
,
3002
0203
0320
2030
,
3002
0000
1003
0100
1000
0010
0100
0010
,
2000
0000
0000
0000
3001
0000
0010
0000
0100
1000
0001
0010
0100
1000
0100
0010
,
0002
0203
0320
2030
,
3100
0010
0001
1000
0100
0010
0100
1000
0001
0010
0100
1000
0001
0010
0100
0010
,
0001
1000
0100
0010
0001
0010
0100
1000
0001
0010
0001
1000
0100
0010
0001
1000
0010
1000
0001
0100
0010
0100
0001
1000
,
0001
1000
0010
0100
0001
1000
0010
1000
0001
0100
0010
0100
0001
1000
0001
1000
0100
0010
0001
1000
0001
1000
0010
0100
,
0001
0000
1000
0000
0001
0000
1000
0000
0010
0000
0100
0000
0001
0000
1000
0000
0001
0000
1000
0000
0100
0000
0010
0000
0001
0000
0000
0000
0000
0000
0000
0000
0000
1000
0000
0000
0000
0000
0000
0100
0000
0000
0010
0000
0000
0001
0000
0000
,
1000
0100
0010
0001
0010
0100
1000
0001
0010
0100
0010
0001
1000
0100
0010
0001
0010
0100
1000
0001
0010
0100
0010
0001
,
1000
0010
0100
0001
0100
0010
1000
0001
0010
0100
0010
0001
1000
0010
0100
0001
0100
0010
1000
0001
0010
0100
0010
0001
,
1000
0100
1000
0100
0010
0001
1000
0100
0010
0001
1000
0001
1000
0010
0100
0001
0100
0001
1000
0010
0100
0001
1000
0001
,
1000
0010
1000
0010
0100
0001
1000
0010
0100
0001
1000
0001
1000
0100
0010
0001
0010
0001
1000
0100
0010
0001
1000
0001
,
1000
0100
0010
0001
1000
0001
0010
0100
1000
0001
0100
0001
1000
0010
0100
0001
0100
0001
1000
0100
0010
0001
0010
0100
,
1000
0100
0010
0100
0010
0001
1000
0100
0010
0001
1000
0100
0010
0100
1000
0001
0100
0001
1000
0010
1000
0001
0010
0001
,
1000
0100
0010
0100
0010
0001
1000
0100
0010
0001
1000
0100
0010
0100
1000
0001
0100
0001
1000
0010
1000
0001
0010
0001
,
1000
0100
0010
0100
0010
0001
1000
0100
0010
0001
1000
0100
0010
0100
1000
0001
0100
0001
1000
0010
1000
0001
0010
0001
,
1000
0010
0100
0010
0100
0001
1000
0010
0100
0001
1000
0010
0100
0010
1000
0001
0010
0001
1000
0100
1000
0001
0100
0001
,
1000
0010
0100
0010
0100
0001
1000
0010
0100
0001
1000
0010
0100
0010
1000
0001
0010
0001
1000
0100
1000
0001
0100
0001
,
1000
0010
0100
0010
0100
0001
1000
0010
0100
0001
1000
0100
0010
0001
1000
0001
0010
0100
1000
0001
0010
0100
0010
0001
,
1000
0010
0100
0010
0100
0001
1000
0010
0100
0001
1000
0010
0100
0010
1000
0001
0100
0001
1000
0100
1000
0001
0010
0001
,
1000
0100
0010
0100
1000
0001
0010
0100
0010
0001
1000
0100
0010
0001
0010
0100
1000
0001
0100
0010
1000
0001
0100
0001
,
1000
0100
0010
0100
1000
0001
0010
0100
0010
0001
1000
0100
0010
0001
0010
0100
1000
0001
0100
0010
1000
0001
0100
0001
,
1000
0100
0010
0100
1000
0001
0010
0100
0010
0001
1000
0100
0010
0001
0010
0100
1000
0001
0100
0010
1000
0001
0100
0001
,
1000
0010
0100
0010
1000
0001
0100
0010
0100
0001
1000
0100
0010
0001
1000
0100
0010
0100
1000
0001
0010
0100
0010
0004
,
4000
0000
0000
0000
0000
0000
0000
0000
0000
0000
0000
0000
0000
0000
0000
0000
0000
0000
0000
0003
0000
0000
0000
0000
,
3020
0230
0000
0000
,
0300
0000
0000
0000
;

//---------------dance-single - Mad Matt----------------
#NOTES:
     dance-single:
     Mad Matt:
     Medium:
     17:
     1.000,1.000,0.033,0.573,1.000,1489.000,6.000,104.000,0.000,0.000:





0000
0000
0000
0000
,
0000
0000
0000
0000
,
0000
0000
0000
0000
,
0000
0000
0000
0000
,
1000
0100
1000
0100
0010
0001
1000
0010
0100
0001
0100
0001
1000
0100
0010
0001
,
1000
0010
1000
0010
0100
0001
1000
0010
0100
0001
0100
0001
1000
0100
0010
0001
,
1000
0100
1000
0100
0010
0001
1000
0010
0100
0001
0100
0001
1000
0010
0100
0001
,
1000
0010
1000
0010
0100
0001
1000
0100
0010
0001
0010
0001
1000
0100
0010
0001
,
1000
0010
1000
0010
0100
0001
1000
0100
0010
0001
0010
0001
1000
0010
0100
0001
,
1000
0100
1000
0100
0010
0001
1000
0100
0010
0001
0010
0001
1000
0010
0100
0001
,
1000
0010
1000
0010
0100
0001
1000
0100
0010
0001
0010
0001
1000
0100
0010
0001
,
1000
0100
1000
0100
0010
0001
1000
0010
0100
0001
0100
0001
1000
0010
0100
0001
,
1000
0100
1000
0100
0010
0001
1000
0010
0100
0001
0100
0001
1000
0100
0010
0001
,
1000
0010
1000
0010
0100
0001
1000
0010
0100
0001
0100
0001
1000
0100
0010
0001
,
1000
0100
1000
0100
0010
0001
1000
0010
0100
0001
0100
0001
1000
0010
0100
0001
,
2000
0000
0000
3002
,
1003
0100
0010
0100
1000
0001
0100
0010
,
1000
0001
0010
0100
1000
0010
0100
0001
,
1000
0100
1000
0010
1000
0001
1000
0010
,
0100
0001
0100
0010
1000
0100
0020
0000
,
0031
0010
0100
0010
0001
1000
0010
0100
,
0001
1000
0100
0010
0001
0100
0100
0010
,
1000
0100
1000
0001
1000
0010
1000
0100
,
0020
0000
0000
0000
0032
0000
0000
0000
0203
0000
0000
0000
0310
1000
0010
0100
,
0001
0010
0100
0010
0001
1000
0010
0100
,
0001
1000
0100
0010
0001
0100
0010
1000
,
0001
0010
0001
0100
0001
1000
0001
0100
,
0010
1000
0010
0100
0001
0010
0200
0000
,
1300
0100
0010
0100
1000
0001
0100
0010
,
1000
0001
0010
0100
1000
0010
0010
0100
,
0001
0010
0001
1000
0001
0100
0001
0010
,
0200
0000
0000
0000
2300
0000
0000
0000
3020
0000
0000
0000
0130
0001
0100
0010
,
1000
0100
1000
0010
1000
0001
0200
0000
,
0320
0000
0000
0000
2030
0000
0000
0000
3001
0010
0100
1000
0001
0010
0100
1000
,
0002
0203
0302
0023
,
0031
0100
0001
1000
0010
1000
0001
0010
0001
1000
0100
0010
0002
0000
0000
0000
,
1003
0000
0000
0010
0000
0000
0100
0000
0000
0001
0000
0000
1000
0000
0000
0100
0000
0000
0010
0000
0000
0001
0000
0000
1000
0000
0000
0100
0000
0000
1000
0000
0000
0001
0000
0000
0010
0000
0100
0000
0010
0000
0001
0000
1000
0000
0001
0000
,
0200
0000
0310
0000
0200
0000
0310
0000
0100
0000
0010
1000
0000
0001
0010
0000
,
0220
0330
2200
3300
2002
0000
0000
3003
,
0202
0000
0303
0000
0220
0000
0330
0000
0010
1000
0001
0010
0100
1000
0100
0010
,
0001
1000
0100
0010
0100
1000
0001
0010
0100
0010
0001
1000
0100
0010
0001
1000
,
0001
0010
0001
1000
0010
1000
0001
0100
0001
0010
0100
1000
,
0002
0203
0320
0000
,
2030
0000
0000
0000
3200
0000
0000
0000
0320
0000
0000
0000
0031
1000
0000
0000
,
0001
0010
0000
0000
0100
1000
0000
0000
0001
0200
0000
0000
0310
2000
0000
0000
,
3001
0010
0100
0010
0001
1000
0100
0010
0100
1000
0001
1000
0010
0100
0010
1000
0001
0100
0010
0100
0001
1000
0001
0010
,
0100
0010
0001
1000
0001
0100
0010
0100
0001
1000
0100
0010
0100
1000
0001
1000
0010
0100
0010
1000
0001
1000
0100
1000
,
0001
0000
0100
0000
0001
0000
1000
0000
0010
0000
0100
0000
0001
0000
0000
0010
0000
0000
0100
0000
0000
1000
0000
0000
0020
0000
0000
0000
0000
0000
0000
0000
0000
0000
0000
0000
0230
0000
0000
0000
0000
0000
0000
0000
0000
0000
0000
0000
,
0301
0000
1000
0010
0100
0001
1000
0000
0001
0000
0010
0100
0000
0100
1000
0000
,
0001
0000
1000
0100
0010
0001
1000
0000
0001
0000
0100
0010
0000
0010
1000
0000
,
0001
0100
0010
1000
0001
1000
0100
0010
0100
1000
0001
1000
0010
0100
0010
1000
0001
1000
0100
0010
0100
1000
0001
1000
,
0010
0100
0010
0100
0001
0000
1000
0000
0100
0000
0010
0000
0100
0000
1000
0000
,
0001
0010
0001
0100
0010
1000
1000
0001
,
2000
0000
3200
0000
0320
0000
0000
0031
,
1000
0010
0100
0001
1000
0010
1000
0001
1000
0100
0010
0001
2000
0000
0000
0000
0000
0000
0000
0000
0000
0000
0000
0000
,
3001
0000
0010
0000
0100
0000
1000
0000
0001
0000
0010
0000
0001
0000
1000
0000
0001
0000
0100
0000
0010
0000
1000
0000
0001
0000
0000
0100
0000
0000
0010
0000
0000
1000
0000
0000
0001
0000
0000
0100
0000
0000
0010
0000
0000
1000
0000
0000
,
0001
0010
0100
0010
0001
0100
0010
0100
,
0001
0000
0100
0000
0010
1000
0001
0100
0010
0100
0001
1000
0100
0010
0001
1000
,
0001
0010
0001
0100
0001
1000
0001
0010
0001
0100
0001
1000
0001
0100
0001
0010
,
0100
1000
0001
0010
0001
1000
0001
0100
0010
0100
0001
1000
0100
1000
0001
0100
0001
1000
0001
0010
0100
0010
0001
1000
,
0100
1000
0100
0010
0200
0000
2300
0000
,
3001
0000
0100
0010
0000
0100
0010
0000
1000
0000
0100
0010
0000
0100
0010
0000
,
0001
0010
0001
0100
0010
1000
0010
0100
,
0001
0010
0100
1000
0010
0100
0001
0010
0100
1000
0010
0100
0002
0000
0000
0000
,
1003
0100
0010
0001
0100
0010
1000
0100
0010
0001
0100
0010
2000
0000
0000
0000
,
3001
0010
0100
1000
0010
0100
0001
0010
0100
0010
0001
0100
0010
1000
0100
0010
,
0001
0010
0100
1000
0010
0100
0001
0010
0100
1000
0010
0100
0002
0000
0000
0000
,
1003
0100
0010
0001
0100
0010
1000
0100
0010
0001
0100
0010
2000
0000
0000
0000
,
3002
0000
0203
0000
,
0320
0000
0000
2030
,
3200
0000
0000
0000
0320
0000
0000
0000
0031
1000
0010
0100
0001
1000
0100
0010
,
0001
1000
0100
0010
0100
1000
0001
0010
0100
1000
0001
1000
0010
0100
0001
1000
0010
0100
0010
1000
0001
0100
0001
1000
,
0100
1000
0001
0000
0100
0000
0010
0000
2000
0000
3001
0100
0010
0100
0001
0000
,
2000
3100
2000
3100
0020
0031
2000
3010
,
0200
0301
2000
3100
0020
0031
2000
3010
,
0200
0000
0000
0000
0302
0000
0000
0000
1003
0100
0010
0001
1000
0100
0010
0001
,
2000
0000
3100
0010
0100
1000
0020
0000
,
0230
0300
0000
0000
0000
0000
0000
0000
0002
0003
0000
0000
0000
0000
0000
0000
0200
0300
0000
0000
0000
0000
0000
0000
0002
0003
0000
0000
0000
0000
0000
0000
2000
0000
0000
0000
0000
0000
0000
0000
0000
0000
0000
0000
0000
0000
0000
0000
3200
0000
0000
0000
0000
0000
0000
0000
0000
0000
0000
0000
0000
0000
0000
0000
,
0310
0001
1000
0010
0100
0001
1000
0100
0010
0001
0010
0100
1000
0001
0010
0100
,
1000
0002
0000
0000
0203
0000
0000
0000
0320
0000
0000
0000
0230
0000
0000
0000
,
0302
0000
0000
1003
0100
0010
0002
0000
0000
0203
0000
0000
,
0310
0000
1000
0000
0001
0000
1000
0000
0100
0000
1000
0000
0001
0000
0100
0000
0001
0000
1000
0000
0100
0000
0010
0000
0100
0000
1000
0000
0001
0000
0010
0000
0000
0000
0000
0000
0001
0000
0000
1000
0000
0000
0010
0000
0000
1000
0000
0000
,
0001
0100
0010
0100
0001
1000
0001
0100
0010
1000
0001
1000
0100
0010
0100
1000
0001
1000
0100
0010
0001
1000
0001
0100
,
0010
0100
0001
1000
0001
0100
0010
1000
0001
1000
0100
0010
0001
1000
0001
0100
0001
1000
0001
0010
0100
1000
0001
1000
,
0010
1000
0001
0000
0010
0000
0001
0000
0010
0000
0100
0000
2000
0000
0000
0000
,
0000
3001
0100
0010
0100
0001
0020
0000
,
0031
0000
0010
0000
0001
0000
0100
0000
0001
0000
1000
0000
0001
0010
0001
0010
,
0100
0000
0000
1000
0000
0000
0001
0000
0000
0100
0000
0000
0001
0000
0000
1000
0000
0000
0100
0000
0000
0010
0000
0000
0001
0000
0000
0000
1000
0000
0000
0000
0010
0000
0000
0000
0100
0000
0000
0000
0001
0000
0000
0000
1000
0000
0000
0000
,
0002
0203
0320
2030
,
3020
0000
0000
0000
0130
0002
0000
0000
1003
0000
0100
0000
0010
0000
0001
0000
,
1000
0000
0100
0000
0010
0000
0100
0000
1000
0000
0010
0000
0100
0000
0010
1000
,
0001
0000
0000
0010
0000
0000
0100
0000
0000
1000
0000
0000
0001
0000
0000
0100
0000
0000
0010
1000
0001
0100
0010
0100
,
0001
1000
0001
0010
0001
1000
0100
0000
0000
1000
0000
0000
0200
0000
0000
0000
0000
0000
2300
0000
0000
0000
0000
0000
,
3002
0203
0320
2030
,
3002
0000
1003
0100
1000
0010
0100
0010
,
2000
0000
0000
0000
3001
0000
0010
0000
0100
1000
0001
0010
0100
1000
0100
0010
,
0002
0203
0320
2030
,
3100
0010
0001
1000
0100
0010
0100
1000
0001
0010
0100
1000
0001
0010
0100
0010
,
0001
1000
0100
0010
0100
1000
0001
1000
0010
0100
0001
1000
0010
0100
0010
1000
0001
0100
0010
0100
0001
1000
0100
1000
,
0001
0010
0100
0010
0001
1000
0100
0010
0001
1000
0001
0100
0010
1000
0001
1000
0100
0010
0001
1000
0001
0100
0010
1000
,
0001
0000
1000
0000
0100
0000
0010
0000
0001
0000
1000
0000
0001
0000
0100
0000
0010
0000
1000
0000
0001
0000
1000
0000
0100
0000
0000
0000
0000
0000
0000
0000
0000
1000
0000
0000
0000
0000
0000
0100
0000
0000
0010
0000
0000
0001
0000
0000
,
1000
0100
1000
0001
1000
0010
0100
0001
1000
0001
0010
0001
1000
0100
1000
0001
1000
0010
0100
0001
1000
0100
0010
0100
,
1000
0001
0010
0001
1000
0001
0100
0010
1000
0001
1000
0100
1000
0001
0010
0001
1000
0001
0100
0010
1000
0001
0010
0100
,
1000
0100
0010
0001
1000
0010
1000
0001
0100
0010
0100
0001
1000
0001
0010
0100
1000
0001
0100
0010
1000
0001
1000
0100
,
1000
0001
0100
0010
0100
0001
1000
0100
1000
0001
0010
0100
0010
0001
1000
0001
0100
0010
1000
0001
1000
0100
0010
0001
,
1000
0010
1000
0001
0100
0010
1000
0001
1000
0100
1000
0001
0010
0100
1000
0001
0100
0001
1000
0001
0010
0100
1000
0001
,
1000
0010
1000
0001
0100
0010
0100
0001
1000
0100
1000
0001
0010
0100
0010
0001
1000
0010
1000
0001
1000
0100
0010
0001
,
1000
0001
0100
0001
1000
0010
0100
0010
1000
0001
0100
0001
1000
0100
0010
0100
1000
0001
1000
0010
1000
0001
0010
0001
,
1000
0010
1000
0001
0100
0010
0100
0001
1000
0100
1000
0001
0010
0100
0010
0001
1000
0010
1000
0001
1000
0100
0010
0001
,
1000
0100
1000
0001
0010
0100
0010
0001
1000
0010
1000
0001
0100
0010
0100
0001
1000
0100
1000
0001
1000
0010
0100
0001
,
1000
0001
0010
0001
1000
0100
0010
0100
1000
0001
0010
0001
1000
0010
0100
0010
1000
0001
1000
0100
1000
0001
0100
0001
,
1000
0100
1000
0001
0010
0100
0010
0001
1000
0010
1000
0001
0010
0100
0010
0001
1000
0010
0100
0010
1000
0001
0010
0100
,
1000
0001
0100
0001
1000
0010
0100
0010
1000
0001
0100
0001
1000
0100
0010
0100
1000
0001
1000
0010
1000
0001
0010
0001
,
1000
0100
0010
0100
1000
0001
0010
0100
0010
0001
1000
0001
0100
0010
0100
0001
1000
0100
1000
0001
1000
0010
0100
0001
,
1000
0100
0010
0100
1000
0001
0010
0100
0010
0001
1000
0001
0100
0010
0100
0001
1000
0100
1000
0001
1000
0010
0100
0001
,
1000
0100
0010
0100
1000
0001
0010
0100
0010
0001
1000
0001
0100
0010
0100
0001
1000
0100
1000
0001
1000
0010
0100
0001
,
1000
0010
0100
0010
1000
0001
0100
0010
0100
0001
1000
0001
0010
0100
0010
0001
1000
0010
1000
0001
1000
0100
0010
0004
,
4000
0000
0000
0003
,
3020
0230
0000
0000
,
0300
0000
0000
0000
;

//---------------dance-single - Mad Matt----------------
#NOTES:
     dance-single:
     Mad Matt:
     Hard:
     17:
     1.000,1.000,0.028,0.573,1.000,1514.000,5.000,104.000,0.000,0.000:



0000
0000
0000
0000
,
0000
0000
0000
0000
,
0000
0000
0000
0000
,
0000
0000
0000
0000
,
1000
0100
1000
0100
0010
0001
1000
0010
0100
0001
0100
0001
1000
0100
0010
0001
,
1000
0010
1000
0010
0100
0001
1000
0010
0100
0001
0100
0001
1000
0100
0010
0001
,
1000
0100
1000
0100
0010
0001
1000
0010
0100
0001
0100
0001
1000
0010
0100
0001
,
1000
0010
1000
0010
0100
0001
1000
0100
0010
0001
0010
0001
1000
0100
0010
0001
,
1000
0010
1000
0010
0100
0001
1000
0100
0010
0001
0010
0001
1000
0010
0100
0001
,
1000
0100
1000
0100
0010
0001
1000
0100
0010
0001
0010
0001
1000
0010
0100
0001
,
1000
0010
1000
0010
0100
0001
1000
0100
0010
0001
0010
0001
1000
0100
0010
0001
,
1000
0100
1000
0100
0010
0001
1000
0010
0100
0001
0100
0001
1000
0010
0100
0001
,
1000
0100
1000
0100
0010
0001
1000
0010
0100
0001
0100
0001
1000
0100
0010
0001
,
1000
0010
1000
0010
0100
0001
1000
0010
0100
0001
0100
0001
1000
0100
0010
0001
,
1000
0100
1000
0100
0010
0001
1000
0010
0100
0001
0100
0001
1000
0010
0100
0001
,
2000
0000
0000
3002
,
1003
0100
0010
0100
1000
0001
0100
0010
,
1000
0001
0010
0100
1000
0010
0100
0001
,
1000
0100
1000
0010
1000
0001
1000
0010
,
0100
0001
0100
0010
1000
0100
0020
0000
,
0031
0010
0100
0010
0001
1000
0010
0100
,
0001
1000
0100
0010
0001
0100
0100
0010
,
1000
0100
1000
0001
1000
0010
1000
0100
,
0020
0000
0000
0000
0032
0000
0000
0000
0203
0000
0000
0000
0310
1000
0010
0100
,
0001
0010
0100
0010
0001
1000
0010
0100
,
0001
1000
0100
0010
0001
0100
0010
1000
,
0001
0010
0001
0100
0001
1000
0001
0100
,
0010
1000
0010
0100
0001
0010
0200
0000
,
1300
0100
0010
0100
1000
0001
0100
0010
,
1000
0001
0010
0100
1000
0010
0010
0100
,
0001
0010
0001
1000
0001
0100
0001
0010
,
0200
0000
0000
0000
2300
0000
0000
0000
3020
0000
0000
0000
0130
0001
0100
0010
,
1000
0100
1000
0010
1000
0001
0200
0000
,
0320
0000
0000
0000
2030
0000
0000
0000
3001
0010
0100
1000
0001
0010
0100
1000
,
0002
0203
0302
0023
,
0031
0100
0001
1000
0010
1000
0001
0010
0001
1000
0100
0010
0002
0000
0000
0000
,
1003
0000
0000
0010
0000
0000
0100
0000
0000
0001
0000
0000
1000
0000
0000
0100
0000
0000
0010
0000
0000
0001
0000
0000
1000
0000
0000
0100
0000
0000
1000
0000
0000
0001
0000
0000
0010
0000
0100
0000
0010
0000
0001
0000
1000
0000
0001
0000
,
0200
0000
0310
0000
0200
0000
0310
0000
0100
0000
0010
1000
0000
0001
0010
0000
,
0220
0330
2200
3300
2002
0000
0000
3003
,
0202
0000
0303
0000
0220
0000
0330
0000
0010
1000
0001
0010
0100
1000
0100
0010
,
0001
1000
0100
0010
0100
1000
0001
0010
0100
0010
0001
1000
0100
0010
0001
1000
,
0001
0010
0001
1000
0010
1000
0001
0100
0001
0010
0100
1000
,
0002
0203
0320
0000
,
2030
0000
0000
0000
3200
0000
0000
0000
0320
0000
0000
0000
0031
1000
0000
0000
,
0001
0010
0000
0000
0100
1000
0000
0000
0001
0200
0000
0000
0310
2000
0000
0000
,
3001
0010
0100
0010
0001
1000
0100
0010
0100
1000
0001
1000
0010
0100
0010
1000
0001
0100
0010
0100
0001
1000
0001
0010
,
0100
0010
0001
1000
0001
0100
0010
0100
0001
1000
0100
0010
0100
1000
0001
1000
0010
0100
0010
1000
0001
1000
0100
1000
,
0001
0000
0100
0000
0001
0000
1000
0000
0010
0000
0100
0000
0001
0000
0000
0010
0000
0000
0100
0000
0000
1000
0000
0000
0020
0000
0000
0000
0000
0000
0000
0000
0000
0000
0000
0000
0230
0000
0000
0000
0000
0000
0000
0000
0000
0000
0000
0000
,
0301
0000
1000
0010
0100
0001
1000
0000
0001
0000
0010
0100
0000
0100
1000
0000
,
0001
0000
1000
0100
0010
0001
1000
0000
0001
0000
0100
0010
0000
0010
1000
0000
,
0001
0100
0010
1000
0001
1000
0100
0010
0100
1000
0001
1000
0010
0100
0010
1000
0001
1000
0100
0010
0100
1000
0001
1000
,
0010
0100
0010
0100
0001
0000
1000
0000
0100
0000
0010
0000
0100
0000
1000
0000
,
0001
0010
0001
0100
0010
1000
1000
0001
,
2000
0000
3200
0000
0320
0000
0000
0031
,
1000
0010
0100
0001
1000
0010
1000
0001
1000
0100
0010
0001
2000
0000
0000
0000
0000
0000
0000
0000
0000
0000
0000
0000
,
3001
0000
0010
0000
0100
0000
1000
0000
0001
0000
0010
0000
0001
0000
1000
0000
0001
0000
0100
0000
0010
0000
1000
0000
0001
0000
0000
0100
0000
0000
0010
0000
0000
1000
0000
0000
0001
0000
0000
0100
0000
0000
0010
0000
0000
1000
0000
0000
,
0001
0010
0100
0010
0001
0100
0010
0100
,
0001
0000
0100
0000
0010
1000
0001
0100
0010
0100
0001
1000
0100
0010
0001
1000
,
0001
0010
0001
0100
0001
1000
0001
0010
0001
0100
0001
1000
0001
0100
0001
0010
,
0100
1000
0001
0010
0001
1000
0001
0100
0010
0100
0001
1000
0100
1000
0001
0100
0001
1000
0001
0010
0100
0010
0001
1000
,
0100
1000
0100
0010
0200
0000
2300
0000
,
3001
0000
0100
0010
0000
0100
0010
0000
1000
0000
0100
0010
0000
0100
0010
0000
,
0001
0010
0001
0100
0010
1000
0010
0100
,
0001
0010
0100
1000
0010
0100
0001
0010
0100
1000
0010
0100
0002
0000
0000
0000
,
1003
0100
0010
0001
0100
0010
1000
0100
0010
0001
0100
0010
2000
0000
0000
0000
,
3001
0010
0100
1000
0010
0100
0001
0010
0100
0010
0001
0100
0010
1000
0100
0010
,
0001
0010
0100
1000
0010
0100
0001
0010
0100
1000
0010
0100
0002
0000
0000
0000
,
1003
0100
0010
0001
0100
0010
1000
0100
0010
0001
0100
0010
2000
0000
0000
0000
,
3002
0000
0203
0000
,
0320
0000
0000
2030
,
3200
0000
0000
0000
0320
0000
0000
0000
0031
1000
0010
0100
0001
1000
0100
0010
,
0001
1000
0100
0010
0100
1000
0001
0010
0100
1000
0001
1000
0010
0100
0001
1000
0010
0100
0010
1000
0001
0100
0001
1000
,
0100
1000
0001
0000
0100
0000
0010
0000
2000
0000
3001
0100
0010
0100
0001
0000
,
2000
3100
2000
3100
0020
0031
2000
3010
,
0200
0301
2000
3100
0020
0031
2000
3010
,
0200
0000
0000
0000
0302
0000
0000
0000
1003
0100
0010
0001
1000
0100
0010
0001
,
2000
0000
3100
0010
0100
1000
0020
0000
,
0230
0300
0000
0000
0000
0000
0000
0000
0002
0003
0000
0000
0000
0000
0000
0000
0200
0300
0000
0000
0000
0000
0000
0000
0002
0003
0000
0000
0000
0000
0000
0000
2000
0000
0000
0000
0000
0000
0000
0000
0000
0000
0000
0000
0000
0000
0000
0000
3200
0000
0000
0000
0000
0000
0000
0000
0000
0000
0000
0000
0000
0000
0000
0000
,
0310
0001
1000
0010
0100
0001
1000
0100
0010
0001
0010
0100
1000
0001
0010
0100
,
1000
0002
0000
0000
0203
0000
0000
0000
0320
0000
0000
0000
0230
0000
0000
0000
,
0302
0000
0000
1003
0100
0010
0002
0000
0000
0203
0000
0000
,
0310
0000
1000
0000
0001
0000
1000
0000
0100
0000
1000
0000
0001
0000
0100
0000
0001
0000
1000
0000
0100
0000
0010
0000
0100
0000
1000
0000
0001
0000
0010
0000
0000
0000
0000
0000
0001
0000
0000
1000
0000
0000
0010
0000
0000
1000
0000
0000
,
0001
0100
0010
0100
0001
1000
0001
0100
0010
1000
0001
1000
0100
0010
0100
1000
0001
1000
0100
0010
0001
1000
0001
0100
,
0010
0100
0001
1000
0001
0100
0010
1000
0001
1000
0100
0010
0001
1000
0001
0100
0001
1000
0001
0010
0100
1000
0001
1000
,
0010
1000
0001
0000
0010
0000
0001
0000
0010
0000
0100
0000
2000
0000
0000
0000
,
0000
3001
0100
0010
0100
0001
0020
0000
,
0031
0000
0010
0000
0001
0000
0100
0000
0001
0000
1000
0000
0001
0010
0001
0010
,
0100
0000
0000
1000
0000
0000
0001
0000
0000
0100
0000
0000
0001
0000
0000
1000
0000
0000
0100
0000
0000
0010
0000
0000
0001
0000
0000
0000
1000
0000
0000
0000
0010
0000
0000
0000
0100
0000
0000
0000
0001
0000
0000
0000
1000
0000
0000
0000
,
0002
0203
0320
2030
,
3020
0000
0000
0000
0130
0002
0000
0000
1003
0000
0100
0000
0010
0000
0001
0000
,
1000
0000
0100
0000
0010
0000
0100
0000
1000
0000
0010
0000
0100
0000
0010
1000
,
0001
0000
0000
0010
0000
0000
0100
0000
0000
1000
0000
0000
0001
0000
0000
0100
0000
0000
0010
1000
0001
0100
0010
0100
,
0001
1000
0001
0010
0001
1000
0100
0000
0000
1000
0000
0000
0200
0000
0000
0000
0000
0000
2300
0000
0000
0000
0000
0000
,
3002
0203
0320
2030
,
3002
0000
1003
0100
1000
0010
0100
0010
,
2000
0000
0000
0000
3001
0000
0010
0000
0100
1000
0001
0010
0100
1000
0100
0010
,
0002
0203
0320
2030
,
3100
0010
0001
1000
0100
0010
0100
1000
0001
0010
0100
1000
0001
0010
0100
0010
,
0001
1000
0100
0010
0100
1000
0001
1000
0010
0100
0001
1000
0010
0100
0010
1000
0001
0100
0010
0100
0001
1000
0100
1000
,
0001
0010
0100
0010
0001
1000
0100
0010
0001
1000
0001
0100
0010
1000
0001
1000
0100
0010
0001
1000
0001
0100
0010
1000
,
0001
0000
1000
0000
0100
0000
0010
0000
0001
0000
1000
0000
0001
0000
0100
0000
0010
0000
1000
0000
0001
0000
1000
0000
0100
0000
0000
0000
0000
0000
0000
0000
0000
1000
0000
0000
0000
0000
0000
0100
0000
0000
0010
0000
0000
0001
0000
0000
,
1000
0001
1000
0001
0100
0010
1000
0001
1000
0001
0010
0100
1000
0001
1000
0001
0100
0010
1000
0001
1000
0001
0010
0100
,
1000
0001
1000
0001
0100
0010
1000
0001
1000
0001
0010
0100
1000
0001
1000
0001
0100
0010
1000
0001
1000
0100
0010
0100
,
1000
0001
1000
0010
0100
0001
1000
0001
0010
0001
1000
0010
0100
0010
1000
0001
1000
0100
0010
0001
1000
0100
0010
0100
,
1000
0001
1000
0010
0100
0001
1000
0001
0010
0001
1000
0010
0100
0010
1000
0001
1000
0100
0010
0001
1000
0001
0100
0010
,
1000
0001
1000
0100
1000
0001
0010
0001
1000
0001
0100
0010
1000
0001
1000
0100
1000
0001
0010
0100
1000
0001
1000
0100
,
1000
0001
0010
0001
0100
0001
1000
0100
1000
0001
0010
0001
0100
0001
1000
0100
1000
0001
0010
0100
1000
0001
0010
0100
,
1000
0001
0100
0001
0010
0001
1000
0010
1000
0001
0100
0001
0010
0001
1000
0010
1000
0001
0100
0010
1000
0001
0100
0010
,
1000
0001
0010
0001
0100
0001
1000
0100
1000
0001
0010
0001
0100
0001
1000
0100
1000
0001
0010
0100
1000
0001
0010
0100
,
1000
0001
1000
0100
1000
0010
1000
0001
0010
0001
1000
0100
1000
0010
1000
0001
0010
0001
1000
0100
0010
0001
1000
0100
,
0010
0001
1000
0010
1000
0100
1000
0001
0100
0001
1000
0010
1000
0100
1000
0001
0100
0001
1000
0010
0100
0001
1000
0010
,
0100
0001
1000
0100
1000
0010
1000
0001
0010
0001
1000
0100
1000
0010
1000
0001
0010
0001
0100
0001
1000
0100
1000
0010
,
0100
0001
1000
0010
1000
0100
1000
0001
0100
0001
1000
0010
1000
0100
1000
0001
0100
0001
1000
0010
0100
0001
1000
0010
,
1000
0001
0010
0001
0100
0001
1000
0100
1000
0001
0010
0001
0100
0001
1000
0100
1000
0001
0010
0001
1000
0100
0010
0100
,
1000
0001
0010
0001
0100
0001
1000
0100
1000
0001
0010
0001
0100
0001
1000
0100
1000
0001
0010
0001
1000
0100
0010
0100
,
1000
0001
0010
0001
0100
0001
1000
0100
1000
0001
0010
0001
0100
0001
1000
0100
1000
0001
0010
0001
1000
0100
0010
0100
,
1000
0001
0100
0001
0010
0001
1000
0010
1000
0001
0100
0001
0010
0001
1000
0010
1000
0001
0100
0001
1000
0010
0100
0010
,
1000
0001
0010
0001
1000
0100
1000
0001
0100
0010
1000
0001
1000
0100
1000
0001
0100
0010
1000
0001
0010
0001
1000
0010
,
0200
0320
0000
0000
,
0030
0000
0000
0000
;

//---------------dance-single - Mad Matt----------------
#NOTES:
     dance-single:
     Mad Matt:
     Challenge:
     18:
     1.000,1.000,0.028,0.573,1.000,1514.000,5.000,104.000,0.000,0.000:

0000
0000
0000
0000
,
0000
0000
0000
0000
,
0000
0000
0000
0000
,
0000
0000
0000
0000
,
1000
0100
1000
0100
0010
0001
1000
0010
0100
0001
0100
0001
1000
0100
0010
0001
,
1000
0010
1000
0010
0100
0001
1000
0010
0100
0001
0100
0001
1000
0100
0010
0001
,
1000
0100
1000
0100
0010
0001
1000
0010
0100
0001
0100
0001
1000
0010
0100
0001
,
1000
0010
1000
0010
0100
0001
1000
0100
0010
0001
0010
0001
1000
0100
0010
0001
,
1000
0010
1000
0010
0100
0001
1000
0100
0010
0001
0010
0001
1000
0010
0100
0001
,
1000
0100
1000
0100
0010
0001
1000
0100
0010
0001
0010
0001
1000
0010
0100
0001
,
1000
0010
1000
0010
0100
0001
1000
0100
0010
0001
0010
0001
1000
0100
0010
0001
,
1000
0100
1000
0100
0010
0001
1000
0010
0100
0001
0100
0001
1000
0010
0100
0001
,
1000
0100
1000
0100
0010
0001
1000
0010
0100
0001
0100
0001
1000
0100
0010
0001
,
1000
0010
1000
0010
0100
0001
1000
0010
0100
0001
0100
0001
1000
0100
0010
0001
,
1000
0100
1000
0100
0010
0001
1000
0010
0100
0001
0100
0001
1000
0010
0100
0001
,
2000
0000
0000
3002
,
1003
0100
0010
0100
1000
0001
0100
0010
,
1000
0001
0010
0100
1000
0010
0100
0001
,
1000
0100
1000
0010
1000
0001
1000
0010
,
0100
0001
0100
0010
1000
0100
0020
0000
,
0031
0010
0100
0010
0001
1000
0010
0100
,
0001
1000
0100
0010
0001
0100
0100
0010
,
1000
0100
1000
0001
1000
0010
1000
0100
,
0020
0000
0000
0000
0032
0000
0000
0000
0203
0000
0000
0000
0310
1000
0010
0100
,
0001
0010
0100
0010
0001
1000
0010
0100
,
0001
1000
0100
0010
0001
0100
0010
1000
,
0001
0010
0001
0100
0001
1000
0001
0100
,
0010
1000
0010
0100
0001
0010
0200
0000
,
1300
0100
0010
0100
1000
0001
0100
0010
,
1000
0001
0010
0100
1000
0010
0010
0100
,
0001
0010
0001
1000
0001
0100
0001
0010
,
0200
0000
0000
0000
2300
0000
0000
0000
3020
0000
0000
0000
0130
0001
0100
0010
,
1000
0100
1000
0010
1000
0001
0200
0000
,
0320
0000
0000
0000
2030
0000
0000
0000
3001
0010
0100
1000
0001
0010
0100
1000
,
0002
0203
0302
0023
,
0031
0100
0001
1000
0010
1000
0001
0010
0001
1000
0100
0010
0002
0000
0000
0000
,
1003
0000
0000
0010
0000
0000
0100
0000
0000
0001
0000
0000
1000
0000
0000
0100
0000
0000
0010
0000
0000
0001
0000
0000
1000
0000
0000
0100
0000
0000
1000
0000
0000
0001
0000
0000
0010
0000
0100
0000
0010
0000
0001
0000
1000
0000
0001
0000
,
0200
0000
0310
0000
0200
0000
0310
0000
0100
0000
0010
1000
0000
0001
0010
0000
,
0220
0330
2200
3300
2002
0000
0000
3003
,
0202
0000
0303
0000
0220
0000
0330
0000
0010
1000
0001
0010
0100
1000
0100
0010
,
0001
1000
0100
0010
0100
1000
0001
0010
0100
0010
0001
1000
0100
0010
0001
1000
,
0001
0010
0001
1000
0010
1000
0001
0100
0001
0010
0100
1000
,
0002
0203
0320
0000
,
2030
0000
0000
0000
3200
0000
0000
0000
0320
0000
0000
0000
0031
1000
0000
0000
,
0001
0010
0000
0000
0100
1000
0000
0000
0001
0200
0000
0000
0310
2000
0000
0000
,
3001
0010
0001
1000
0010
0100
0010
1000
0001
0010
0100
1000
0010
0100
0010
1000
0001
1000
0100
0010
0100
1000
0001
0100
,
0010
0100
0001
0010
0001
1000
0010
0100
0001
1000
0100
0010
0100
1000
0010
0100
0001
1000
0100
0010
0100
1000
0001
0100
,
0010
0000
0100
0000
0001
0000
0010
0000
0100
0000
1000
0000
0001
0000
0000
0010
0000
0000
0100
0000
0000
1000
0000
0000
0020
0000
0000
0000
0000
0000
0000
0000
0000
0000
0000
0000
0230
0000
0000
0000
0000
0000
0000
0000
0000
0000
0000
0000
,
0301
0000
1000
0010
0100
0001
1000
0000
0001
0000
0010
0100
0000
0100
1000
0000
,
0001
0000
1000
0100
0010
0001
1000
0000
0001
0000
0100
0010
0000
0010
1000
0000
,
0001
0100
0010
1000
0100
0010
0100
1000
0001
0100
0010
0100
0001
1000
0100
1000
0010
1000
0001
0010
0100
0010
0001
1000
,
0010
0100
0010
0100
0001
0000
1000
0000
0100
0000
0010
0000
0100
0000
1000
0000
,
0001
0010
0001
0100
0010
1000
1000
0001
,
2000
0000
3200
0000
0320
0000
0000
0031
,
1000
0010
0100
0010
1000
0100
0010
0100
1000
0010
0100
0010
2000
0000
0000
0000
0000
0000
0000
0000
0000
0000
0000
0000
,
3001
0000
0010
0000
0100
0000
0010
0000
0001
0000
0100
0000
0010
0000
0100
0000
0001
0000
0010
0000
0100
0000
0010
0000
0001
0000
0000
0100
0000
0000
0010
0000
0000
1000
0000
0000
0001
0000
0000
0100
0000
0000
0010
0000
0000
1000
0000
0000
,
0001
0010
0100
0010
0001
0100
0010
0100
,
0001
0000
0100
0000
0010
1000
0001
0100
0010
0100
0001
1000
0100
0010
0001
1000
,
0001
0010
0001
0100
0001
1000
0001
0010
0001
0100
0001
1000
0001
0100
0001
0010
,
0100
1000
0010
0100
0010
1000
0100
1000
0001
0100
0010
1000
0100
1000
0001
0100
0010
0100
0001
0010
0100
1000
0001
1000
,
0010
1000
0100
0010
0200
0000
2300
0000
,
3001
0000
0100
0010
0000
0100
0010
0000
1000
0000
0100
0010
0000
0100
0010
0000
,
0001
0010
0001
0100
0010
1000
0010
0100
,
0001
0010
0100
1000
0010
0100
0001
0010
0100
1000
0010
0100
0002
0000
0000
0000
,
1003
0100
0010
0001
0100
0010
1000
0100
0010
0001
0100
0010
2000
0000
0000
0000
,
3001
0010
0100
1000
0010
0100
0001
0010
0100
0010
0001
0100
0010
1000
0100
0010
,
0001
0010
0100
1000
0010
0100
0001
0010
0100
1000
0010
0100
0002
0000
0000
0000
,
1003
0100
0010
0001
0100
0010
1000
0100
0010
0001
0100
0010
2000
0000
0000
0000
,
3002
0000
0203
0000
,
0320
0000
0000
2030
,
3200
0000
0000
0000
0320
0000
0000
0000
0031
1000
0010
0100
0001
1000
0100
0010
,
0001
1000
0100
1000
0010
0100
0001
1000
0100
0010
0100
1000
0010
0100
0001
1000
0100
0010
0001
0100
0010
1000
0001
1000
,
0100
1000
0001
0000
0100
0000
0010
0000
2000
0000
3001
0100
0010
0100
0001
0000
,
2000
3100
2000
3100
0020
0031
2000
3010
,
0200
0301
2000
3100
0020
0031
2000
3010
,
0200
0000
0000
0000
0302
0000
0000
0000
1003
0100
0010
0001
1000
0100
0010
0001
,
2000
0000
3100
0010
0100
1000
0020
0000
,
0230
0300
0000
0000
0000
0000
0000
0000
0002
0003
0000
0000
0000
0000
0000
0000
0200
0300
0000
0000
0000
0000
0000
0000
0002
0003
0000
0000
0000
0000
0000
0000
2000
0000
0000
0000
0000
0000
0000
0000
0000
0000
0000
0000
0000
0000
0000
0000
3200
0000
0000
0000
0000
0000
0000
0000
0000
0000
0000
0000
0000
0000
0000
0000
,
0310
0001
1000
0010
0100
0001
1000
0100
0010
0001
0010
0100
1000
0001
0010
0100
,
1000
0002
0000
0000
0203
0000
0000
0000
0320
0000
0000
0000
0230
0000
0000
0000
,
0302
0000
0000
1003
0100
0010
0002
0000
0000
0203
0000
0000
,
0310
0000
1000
0000
0001
0000
0010
0000
0100
0000
0010
0000
0001
0000
0100
0000
0010
0000
1000
0000
0001
0000
0010
0000
0001
0000
0100
0000
0010
0000
1000
0000
0000
0000
0000
0000
0001
0000
0000
1000
0000
0000
0010
0000
0000
1000
0000
0000
,
0001
0100
0010
0100
0001
0010
0100
1000
0001
1000
0010
0100
0010
1000
0100
0010
0001
1000
0001
0100
0010
0100
0001
0010
,
0100
1000
0001
0010
0100
0010
0001
0100
0010
1000
0001
1000
0100
0010
0100
1000
0010
0100
0001
1000
0100
0010
0100
1000
,
0010
1000
0001
0000
0010
0000
0001
0000
0010
0000
0100
0000
2000
0000
0000
0000
,
0000
3001
0100
0010
0100
0001
0020
0000
,
0031
0000
0010
0000
0001
0000
0100
0000
0001
0000
1000
0000
0001
0010
0001
0010
,
0100
0000
0000
1000
0000
0000
0001
0000
0000
0100
0000
0000
0001
0000
0000
1000
0000
0000
0100
0000
0000
0010
0000
0000
0001
0000
0000
0000
1000
0000
0000
0000
0010
0000
0000
0000
0100
0000
0000
0000
0001
0000
0000
0000
1000
0000
0000
0000
,
0002
0203
0320
2030
,
3020
0000
0000
0000
0130
0002
0000
0000
1003
0000
0100
0000
0010
0000
0001
0000
,
1000
0000
0100
0000
0010
0000
0100
0000
1000
0000
0010
0000
0100
0000
0010
1000
,
0001
0000
0000
0010
0000
0000
0100
0000
0000
1000
0000
0000
0001
0000
0000
0100
0000
0000
0010
1000
0001
0010
0100
0010
,
0001
1000
0010
0100
0001
1000
0100
0000
0000
1000
0000
0000
0200
0000
0000
0000
0000
0000
2300
0000
0000
0000
0000
0000
,
3002
0203
0320
2030
,
3002
0000
1003
0100
1000
0010
0100
0010
,
2000
0000
0000
0000
3001
0000
0010
0000
0100
1000
0001
0010
0100
1000
0100
0010
,
0002
0203
0320
2030
,
3100
0010
0001
1000
0100
0010
0100
1000
0001
0010
0100
1000
0001
0010
0100
0010
,
0001
1000
0010
0100
0001
0010
0001
1000
0010
0100
0001
1000
0100
0010
0100
1000
0001
0100
0010
1000
0100
0010
0001
1000
,
0001
0100
0010
1000
0100
1000
0001
0100
0010
0100
0001
0010
0001
1000
0010
0100
0001
1000
0100
1000
0001
0100
0010
1000
,
0100
0000
0010
0000
0001
0000
1000
0000
0001
0000
0100
0000
0010
0000
0100
0000
0001
0000
0010
0000
0100
0000
1000
0000
0001
0000
0000
0000
0000
0000
0000
0000
0000
1000
0000
0000
0000
0000
0000
0100
0000
0000
0010
0000
0000
0001
0000
0000
,
1000
0100
1000
0010
0100
0010
1000
0001
0010
0100
0010
0001
1000
0010
1000
0100
0010
0100
1000
0001
0100
0001
0010
0001
,
1000
0100
1000
0010
0100
0010
1000
0001
0010
0100
0010
0001
1000
0010
1000
0100
0010
0100
1000
0001
0100
0001
1000
0010
,
1000
0001
0010
0001
1000
0100
1000
0010
0100
0001
1000
0100
0010
0100
1000
0010
0100
0001
1000
0100
0010
0001
1000
0010
,
1000
0001
0010
0100
0010
0001
0100
0010
1000
0001
1000
0100
0010
0100
1000
0010
0100
0001
1000
0100
1000
0010
0100
0001
,
1000
0100
0010
0001
0100
0001
1000
0100
1000
0001
0010
0001
1000
0010
0100
0001
1000
0100
0010
0100
1000
0010
0100
0001
,
1000
0100
0010
0001
0100
0010
1000
0100
1000
0001
0010
0001
1000
0010
0100
0001
0010
0100
0010
0001
1000
0010
0100
0001
,
1000
0100
0010
0001
0100
0010
1000
0100
1000
0001
0010
0001
1000
0010
0100
0001
0010
0100
0010
0001
1000
0010
0100
0001
,
1000
0100
0010
0001
0100
0010
1000
0100
1000
0001
0010
0001
1000
0010
0100
0001
0010
0100
0010
0001
1000
0010
0100
0001
,
1000
0001
0010
0100
1000
0010
0100
0001
0010
0001
1000
0100
1000
0001
0100
0010
1000
0100
0010
0100
1000
0001
0100
0010
,
1000
0001
0010
0100
1000
0010
0100
0001
0010
0001
1000
0100
1000
0001
0100
0010
1000
0100
0010
0100
1000
0001
0100
0010
,
1000
0001
0010
0100
1000
0010
0100
0001
0010
0001
1000
0100
1000
0001
0100
0010
0100
0001
0010
0100
0010
0001
1000
0010
,
1000
0001
0010
0100
1000
0010
0100
0001
0010
0001
1000
0100
1000
0001
0100
0010
1000
0100
0010
0100
1000
0001
0100
0010
,
1000
0001
0010
0001
0100
0001
1000
0100
1000
0001
0010
0001
0100
0001
1000
0100
1000
0010
0100
0001
1000
0100
0010
0100
,
1000
0001
0010
0001
0100
0001
1000
0100
1000
0001
0010
0001
0100
0001
1000
0100
1000
0010
0100
0001
1000
0100
0010
0100
,
1000
0001
0010
0001
0100
0001
1000
0100
1000
0001
0010
0001
0100
0001
1000
0100
1000
0010
0100
0001
1000
0100
0010
0100
,
1000
0001
0100
0001
0010
0001
1000
0010
1000
0001
0100
0001
0010
0001
1000
0010
1000
0100
0010
0001
1000
0010
0100
0010
,
1000
0001
0010
0001
1000
0100
1000
0001
0100
0010
1000
0001
1000
0100
1000
0001
0100
0010
1000
0001
0010
0001
1000
0010
,
0200
0320
0000
0000
,
0030
0000
0000
0000
;
