#TITLE:Livin' La Vida Loca;
#SUBTITLE:Sexuality Violation;
#ARTIST:Ricky Martin;
#TITLETRANSLIT:;
#SUBTITLETRANSLIT:;
#ARTISTTRANSLIT:;
#CREDIT:;
#BANNER:Livin La Vida Loca-bn.png;
#BACKGROUND:Livin La Vida Loca-bg.png;
#LYRICSPATH:;
#CDTITLE:GazeboCD.png;
#MUSIC:Livin La Vida Loca.ogg;
#OFFSET:-0.660;
#SAMPLESTART:51.871;
#SAMPLELENGTH:26.900;
#SELECTABLE:YES;
#BPMS:0.000=178.005;
#STOPS:;
#BGCHANGES:;
// cache tags:
#FIRSTBEAT:32.000;
#LASTBEAT:707.500;
#SONGFILENAME:Songs/Sexuality Violation 2/Livin La Vida Loca - [Gazebo]/Livin La Vida Loca.sm;
#HASMUSIC:1;
#HASBANNER:1;
#MUSICLENGTH:243.278;
// end cache tags

//---------------dance-single - Gazebo----------------
#NOTES:
     dance-single:
     Gazebo:
     Challenge:
     17:
     1.000,1.000,0.025,0.037,1.000,2449.000,6.000,9.000,7.000,0.000:
0000
0000
0000
0000
,
0000
0000
0000
0000
,
0000
0000
0000
0000
,
0000
0000
0000
0000
,
0000
0000
0000
0000
,
0000
0000
0000
0000
,
0000
0000
0000
0000
,
0000
0000
0000
0000
,
1000
0000
0010
0100
0010
0000
1000
0100
,
0010
0001
0000
0100
0000
0001
1000
0001
,
0010
0000
0100
0010
0100
0000
1000
0000
,
1000
0001
0000
0201
0000
0310
1000
0001
,
1000
0000
0100
0010
0100
0000
1000
0010
,
0100
0001
0000
0010
0000
0001
1000
0001
,
0100
0000
0010
0100
0010
0000
1000
0001
,
1000
0100
0000
0012
0000
1003
0001
0001
,
1000
0010
1000
0001
1000
0010
0100
0001
1000
0001
0010
0001
1000
0010
0100
0010
,
0100
0010
1000
0001
0010
0001
1000
0100
1000
0100
0010
0001
1000
0001
0010
0001
,
1000
0010
1000
0001
1000
0010
0100
0001
1000
0010
1000
0100
0010
0001
0100
0010
,
0100
0010
1000
0100
0010
0001
0100
0010
0100
0001
0010
0100
1000
0010
1000
0001
,
1000
0000
0100
0010
0100
0000
1000
0010
,
0100
0001
0000
0010
0000
0001
1000
0001
,
0100
0000
0010
0100
0010
0000
1000
0010
,
1000
0001
0000
0021
0000
0130
1000
0001
,
1000
0000
0010
0100
0010
0000
1000
0100
,
0010
0001
0000
0100
0000
0001
1000
0001
,
0010
0000
0100
0010
0100
0000
1000
0000
,
1000
0001
0000
0102
0000
1003
1000
0001
,
1000
0100
1000
0100
0010
0001
1000
0010
1000
0001
0100
0001
1000
0001
1000
0100
,
1000
0001
0010
0001
1000
0001
0100
0010
0100
0010
1000
0100
0010
0001
1000
0010
,
1000
0010
1000
0010
0100
0001
1000
0100
1000
0100
0010
0001
0100
0001
1000
0010
,
1000
0001
1000
0100
0010
0001
1000
0010
0100
0010
0100
0001
0010
0001
0100
0001
,
1000
0010
1000
0010
0100
0001
1000
0100
1000
0001
0010
0001
1000
0001
1000
0010
,
1000
0001
0100
0001
1000
0001
0010
0100
0010
0100
1000
0010
0100
0001
0010
0001
,
0010
0001
0010
0100
1000
0001
0100
0001
0100
0010
1000
0001
1000
0001
0010
0100
,
0010
0001
0010
0100
1000
0001
0100
0001
1000
0001
1000
0100
0010
0001
0100
0001
,
0100
0010
1000
0010
1000
0001
1000
0001
1000
0100
0010
0100
0010
0001
0100
0001
,
0100
0001
0100
0010
1000
0100
1000
0001
0010
0001
1000
0001
0100
0010
1000
0001
,
1000
0000
0100
0000
0010
0000
0001
0000
0000
1000
0000
0000
0001
0000
0000
0100
0000
0000
0001
0000
0100
0000
0010
0000
1000
0000
0000
0001
0000
0000
1000
0000
0000
0100
0000
0000
1000
0000
0100
0000
0010
0000
0001
0000
0000
1000
0000
0000
,
0100
0000
0000
1000
0000
0000
0001
0000
0010
0000
0100
0000
1000
0000
0000
0001
0000
0000
1000
0000
0100
0000
0010
0000
0001
0000
0000
1000
0000
0000
0001
0000
0000
0100
0000
0000
0001
0000
0000
1000
0000
0000
0100
0000
0000
0010
0000
0000
,
0001
0100
0001
1000
0001
0100
0001
1000
0010
1000
0100
0010
0100
1000
0010
0100
,
0010
1000
0001
0010
0001
0010
0100
1000
0001
0100
0001
1000
0001
0100
0010
1000
,
0001
0000
0010
0000
0100
0000
1000
0000
0000
0001
0000
0000
1000
0000
0000
0010
0000
0000
1000
0000
0010
0000
0100
0000
0001
0000
0000
1000
0000
0000
0001
0000
0000
0010
0000
0000
0001
0000
0010
0000
0100
0000
1000
0000
0000
0001
0000
0000
,
0010
0000
0000
0001
0000
0000
1000
0000
0100
0000
0010
0000
0001
0000
0000
1000
0000
0000
0100
0000
0000
1000
0000
0000
0001
0000
0010
0000
0100
0000
1000
0000
0000
0001
0000
0000
1000
0000
0000
0001
0000
0000
0100
0000
0000
0010
0000
0000
,
1000
0100
1000
0001
1000
0100
1000
0001
0010
0001
1000
0010
1000
0001
0010
0100
,
0010
0001
0100
0001
0010
0100
1000
0001
0100
0001
1000
0010
1000
0100
0010
0001
,
1000
0000
0010
0000
0100
0000
0001
0000
0000
1000
0000
0000
0001
0000
0000
0010
0000
0000
0001
0000
0010
0000
0100
0000
1000
0000
0000
0001
0000
0000
1000
0000
0000
0010
0000
0000
1000
0000
0010
0000
0100
0000
0001
0000
0000
1000
0000
0000
,
0010
0000
0000
1000
0000
0000
0001
0000
0100
0000
0010
0000
1000
0000
0000
0001
0000
0000
1000
0000
0010
0000
0100
0000
0001
0000
0000
1000
0000
0000
0001
0000
0000
0010
0000
0000
0001
0000
0000
1000
0000
0000
0010
0000
0000
0100
0000
0000
,
0001
0010
0001
1000
0001
0010
0001
1000
0100
1000
0010
0100
0010
1000
0100
0010
,
0100
1000
0001
0100
0001
0100
0001
0010
0001
0010
0100
1000
0100
1000
0001
1000
,
0001
0000
0100
0000
0010
0000
1000
0000
0000
0001
0000
0000
1000
0000
0000
0100
0000
0000
1000
0000
0100
0000
0010
0000
0001
0000
0000
1000
0000
0000
0001
0000
0000
0100
0000
0000
0001
0000
0100
0000
0010
0000
1000
0000
0000
0001
0000
0000
,
0100
0000
0000
0001
0000
0000
1000
0000
0010
0000
0100
0000
0001
0000
0000
1000
0000
0000
0001
0000
0100
0000
0010
0000
1000
0000
0000
0001
0000
0000
1000
0000
0000
0100
0000
0000
1000
0000
0000
0001
0000
0000
0100
0000
0000
0010
0000
0000
,
1000
0100
1000
0001
1000
0100
1000
0001
0010
0001
1000
0010
1000
0001
0010
0100
,
0010
0001
1000
0010
0100
0001
1000
0100
0010
0100
1000
0001
1000
0001
0010
0001
,
1000
0010
1000
0001
1000
0010
1000
0001
0100
0001
1000
0100
1000
0001
0100
0010
,
0100
0001
1000
0100
0010
0001
1000
0010
0100
0010
1000
0001
1000
0001
0100
0001
,
1000
0100
1000
0001
1000
0100
1000
0001
0010
0001
0100
0010
0100
0001
0010
0100
,
0010
0001
1000
0010
1000
0001
1000
0001
0100
0001
1000
0010
1000
0100
0010
0001
,
1000
0000
0010
0100
0010
0000
1000
0100
,
0010
0001
0000
0001
0000
1000
0020
0000
,
1030
0000
0100
0010
0100
0000
1000
0010
,
0010
0100
0000
0100
0000
0002
2000
0003
,
3001
0000
0010
0100
0010
0000
0001
0100
,
0010
1000
0000
1000
0000
0001
0010
0001
,
1000
0000
0010
0100
0010
0000
1000
0100
,
0100
0010
0000
0010
0000
0001
1000
0001
,
0000
0000
00M0
0000
00M0
0000
0000
M000
,
0M00
00M0
0000
000M
0000
00M0
0000
0000
,
1000
0000
0010
0100
0010
0000
1000
0001
,
1000
0100
0000
0021
0000
0130
1000
0001
,
1000
0010
0100
0001
0100
0000
0010
1000
,
0001
0010
0000
0100
0000
0010
0001
1000
,
0001
0100
0010
1000
0010
0000
1000
0001
,
1000
0100
0000
0021
0000
0031
0001
1000
,
0001
0100
0001
0100
0010
1000
0001
0010
0001
1000
0100
1000
0001
1000
0001
0100
,
0001
1000
0010
1000
0001
1000
0100
0010
0100
0010
0001
0100
0010
1000
0001
0010
,
0001
0010
0100
1000
0001
1000
0001
0100
0001
1000
0010
1000
0010
1000
0001
0010
,
0001
1000
0001
0100
0010
1000
0001
0010
0100
1000
0010
1000
0001
1000
0100
1000
,
0001
0010
0001
0010
0100
1000
0001
0100
0001
1000
0010
1000
0001
1000
0001
0010
,
0001
1000
0100
1000
0001
1000
0010
0100
0010
0100
0001
0010
0100
1000
0010
1000
,
0010
1000
0010
0100
0001
1000
0100
1000
0100
0010
0001
1000
0001
1000
0010
0100
,
0010
1000
0010
0100
0001
1000
0100
1000
0001
1000
0001
0100
0010
1000
0100
1000
,
0100
0010
0001
0010
0001
1000
0001
1000
0001
0100
0010
0100
0010
1000
0100
1000
,
0100
1000
0100
0010
0001
0100
0001
1000
0010
1000
0001
1000
0100
0010
0001
1000
,
0001
0000
0100
0000
0010
0000
1000
0000
0000
0001
0000
0000
1000
0000
0000
0100
0000
0000
1000
0000
0100
0000
0010
0000
0001
0000
0000
1000
0000
0000
0001
0000
0000
0100
0000
0000
0001
0000
0100
0000
0010
0000
1000
0000
0000
0001
0000
0000
,
0100
0000
0000
0001
0000
0000
1000
0000
0010
0000
0100
0000
0001
0000
0000
1000
0000
0000
0001
0000
0100
0000
0010
0000
1000
0000
0000
0001
0000
0000
1000
0000
0000
0100
0000
0000
1000
0000
0000
0001
0000
0000
0100
0000
0000
0010
0000
0000
,
1000
0100
1000
0001
1000
0100
1000
0001
0010
0001
0100
0010
0100
0001
0010
0100
,
0010
0001
1000
0010
1000
0010
0100
0001
1000
0100
1000
0001
1000
0100
0010
0001
,
1000
0000
0010
0000
0100
0000
0001
0000
0000
1000
0000
0000
0001
0000
0000
0010
0000
0000
0001
0000
0010
0000
0100
0000
1000
0000
0000
0001
0000
0000
1000
0000
0000
0010
0000
0000
1000
0000
0010
0000
0100
0000
0001
0000
0000
1000
0000
0000
,
0010
0000
0000
1000
0000
0000
0001
0000
0100
0000
0010
0000
1000
0000
0000
0001
0000
0000
0100
0000
0000
0001
0000
0000
1000
0000
0010
0000
0100
0000
0001
0000
0000
1000
0000
0000
0001
0000
0000
1000
0000
0000
0100
0000
0000
0010
0000
0000
,
0001
0100
0001
1000
0001
0100
0001
1000
0010
1000
0001
0010
0001
1000
0010
0100
,
0010
1000
0100
1000
0010
0100
0001
1000
0100
1000
0001
0010
0001
0100
0010
1000
,
0001
0000
0010
0000
0100
0000
1000
0000
0000
0001
0000
0000
1000
0000
0000
0010
0000
0000
1000
0000
0010
0000
0100
0000
0001
0000
0000
1000
0000
0000
0001
0000
0000
0010
0000
0000
0001
0000
0010
0000
0100
0000
1000
0000
0000
0001
0000
0000
,
0010
0000
0000
0001
0000
0000
1000
0000
0100
0000
0010
0000
0001
0000
0000
1000
0000
0000
0001
0000
0010
0000
0100
0000
1000
0000
0000
0001
0000
0000
1000
0000
0000
0010
0000
0000
1000
0000
0000
0001
0000
0000
0010
0000
0000
0100
0000
0000
,
1000
0010
1000
0001
1000
0010
1000
0001
0100
0001
0010
0100
0010
0001
0100
0010
,
0100
0001
1000
0100
1000
0100
1000
0010
1000
0010
0100
0001
0100
0001
1000
0001
,
1000
0000
0100
0000
0010
0000
0001
0000
0000
1000
0000
0000
0001
0000
0000
0100
0000
0000
0001
0000
0100
0000
0010
0000
1000
0000
0000
0001
0000
0000
1000
0000
0000
0100
0000
0000
1000
0000
0100
0000
0010
0000
0001
0000
0000
1000
0000
0000
,
0100
0000
0000
1000
0000
0000
0001
0000
0010
0000
0100
0000
1000
0000
0000
0001
0000
0000
1000
0000
0100
0000
0010
0000
0001
0000
0000
1000
0000
0000
0001
0000
0000
0100
0000
0000
0001
0000
0000
1000
0000
0000
0100
0000
0000
0010
0000
0000
,
0001
0100
0001
1000
0001
0100
0001
1000
0010
1000
0001
0010
0001
1000
0010
0100
,
0010
1000
0001
0010
0100
1000
0001
0100
0010
0100
0001
1000
0001
1000
0010
1000
,
0001
0010
0001
1000
0001
0010
0001
1000
0100
1000
0001
0100
0001
1000
0100
0010
,
0100
1000
0001
0100
0010
1000
0001
0010
0100
0010
0001
1000
0001
1000
0100
1000
,
0001
0100
0001
1000
0001
0100
0001
1000
0010
1000
0100
0010
0100
1000
0010
0100
,
0010
1000
0001
0010
0001
1000
0001
1000
0100
1000
0001
0010
0001
0100
0010
1000
,
0001
0010
0001
1000
0001
0010
0100
1000
0001
1000
0010
1000
0001
0010
0100
0010
,
0100
0010
0001
1000
0010
1000
0001
0100
0001
0100
0010
1000
0001
1000
0010
1000
,
0001
0010
0001
1000
0001
0010
0100
1000
0001
0010
0001
0100
0010
1000
0100
0010
,
0100
0010
0001
0100
0010
1000
0100
0010
0100
1000
0010
0100
0001
0010
0001
1000
,
0001
0100
0001
1000
0001
0100
0010
1000
0001
1000
0100
1000
0001
0100
0010
0100
,
0010
0100
0001
1000
0100
1000
0001
0010
0001
0100
0001
0100
0010
1000
0100
1000
,
0001
0010
0100
0010
0001
0010
0100
0010
0001
1000
0010
1000
0001
0100
0001
0010
,
0100
1000
0010
1000
0001
1000
0010
1000
0001
0010
0001
1000
0001
0100
0001
1000
,
0001
0010
0001
0010
0100
1000
0001
0100
0001
1000
0010
1000
0001
1000
0001
0010
,
0001
1000
0100
1000
0001
1000
0010
0100
0010
0100
0001
0010
0100
1000
0001
0100
,
0001
0100
0001
0100
0010
1000
0001
0010
0001
0010
0100
1000
0010
1000
0001
0100
,
0001
1000
0001
0010
0100
1000
0001
0100
0010
0100
0001
1000
0100
1000
0001
1000
,
0001
0100
0010
0100
0010
1000
0001
0010
0001
1000
0100
1000
0001
1000
0001
0100
,
0001
1000
0010
1000
0001
1000
0100
0010
0100
0010
0001
0100
0010
1000
0100
1000
,
0100
1000
0100
0010
0001
1000
0010
1000
0010
0100
0001
1000
0001
1000
0100
0010
,
0100
1000
0100
0010
0001
1000
0010
1000
0001
1000
0001
0010
0100
1000
0010
1000
,
0010
0100
0001
0100
0001
1000
0001
1000
0001
0010
0100
0010
0100
1000
0010
1000
,
0001
0010
0001
0010
0100
0010
0100
0010
0100
1000
0100
1000
0001
1000
0001
1000
,
0001
0000
0010
0000
0100
0000
1000
0000
0000
0001
0000
0000
1000
0000
0000
0010
0000
0000
1000
0000
0010
0000
0100
0000
0001
0000
0000
1000
0000
0000
0001
0000
0000
0010
0000
0000
0001
0000
0010
0000
0100
0000
1000
0000
0000
0001
0000
0000
,
0010
0000
0000
0001
0000
0000
1000
0000
0100
0000
0010
0000
0001
0000
0000
1000
0000
0000
0001
0000
0010
0000
0100
0000
1000
0000
0000
0001
0000
0000
1000
0000
0000
0010
0000
0000
1000
0000
0000
0001
0000
0000
0010
0000
0000
0100
0000
0000
,
1000
0010
1000
0001
1000
0010
1000
0001
0100
0001
0010
0100
0010
0001
0100
0010
,
0100
0001
1000
0100
1000
0100
0010
0001
1000
0010
1000
0001
1000
0010
0100
0001
,
1000
0000
0100
0000
0010
0000
0001
0000
0000
1000
0000
0000
0001
0000
0000
0100
0000
0000
0001
0000
0100
0000
0010
0000
1000
0000
0000
0001
0000
0000
1000
0000
0000
0100
0000
0000
1000
0000
0100
0000
0010
0000
0001
0000
0000
1000
0000
0000
,
0100
0000
0000
1000
0000
0000
0001
0000
0010
0000
0100
0000
1000
0000
0000
0001
0000
0000
0010
0000
0000
0001
0000
0000
1000
0000
0100
0000
0010
0000
0001
0000
0000
1000
0000
0000
0001
0000
0000
1000
0000
0000
0010
0000
0000
0100
0000
0000
,
0001
0010
0001
1000
0001
0010
0001
1000
0100
1000
0001
0100
0001
1000
0100
0010
,
0100
1000
0010
1000
0100
0010
0001
1000
0010
1000
0001
0100
0001
0010
0100
1000
,
0001
0000
0100
0000
0010
0000
1000
0000
0000
0001
0000
0000
1000
0000
0000
0100
0000
0000
1000
0000
0100
0000
0010
0000
0001
0000
0000
1000
0000
0000
0001
0000
0000
0100
0000
0000
0001
0000
0100
0000
0010
0000
1000
0000
0000
0001
0000
0000
,
0100
0000
0000
0001
0000
0000
1000
0000
0010
0000
0100
0000
0001
0000
0000
1000
0000
0000
0001
0000
0100
0000
0010
0000
1000
0000
0000
0001
0000
0000
1000
0000
0000
0100
0000
0000
1000
0000
0000
0001
0000
0000
0100
0000
0000
0010
0000
0000
,
1000
0100
1000
0001
1000
0100
1000
0001
0010
0001
0100
0010
0100
0001
0010
0100
,
0010
0001
1000
0010
1000
0010
1000
0100
1000
0100
0010
0001
0010
0001
1000
0001
,
1000
0000
0010
0000
0100
0000
0001
0000
0000
1000
0000
0000
0001
0000
0000
0010
0000
0000
0001
0000
0010
0000
0100
0000
1000
0000
0000
0001
0000
0000
1000
0000
0000
0010
0000
0000
1000
0000
0010
0000
0100
0000
0001
0000
0000
1000
0000
0000
,
0010
0000
0000
1000
0000
0000
0001
0000
0100
0000
0010
0000
1000
0000
0000
0001
0000
0000
1000
0000
0010
0000
0100
0000
0001
0000
0000
1000
0000
0000
0001
0000
0000
0010
0000
0000
0001
0000
0000
1000
0000
0000
0010
0000
0000
0100
0000
0000
,
0001
0010
0001
1000
0001
0010
0001
1000
0100
1000
0001
0100
0001
1000
0100
0010
,
0100
1000
0001
0100
0010
1000
0001
0010
0100
0010
0001
1000
0001
1000
0100
1000
,
0001
0000
0100
0000
0010
0000
1000
0000
0000
0001
0000
0000
1000
0000
0000
0100
0000
0000
1000
0000
0100
0000
0010
0000
0001
0000
0000
1000
0000
0000
0001
0000
0000
0100
0000
0000
0001
0000
0100
0000
0010
0000
1000
0000
0000
0001
0000
0000
,
0100
0000
0000
0001
0000
0000
1000
0000
0010
0000
0100
0000
0001
0000
0000
1000
0000
0000
0001
0000
0100
0000
0010
0000
1000
0000
0000
0001
0000
0000
1000
0000
0000
0100
0000
0000
1000
0000
0000
0001
0000
0000
0100
0000
0000
0010
0000
0000
,
1000
0100
1000
0001
1000
0100
1000
0001
0010
0001
0100
0010
0100
0001
0010
0100
,
0010
0001
1000
0010
1000
0010
0100
0001
1000
0100
1000
0001
1000
0100
0010
0001
,
1000
0000
0010
0000
0100
0000
0001
0000
0000
1000
0000
0000
0001
0000
0000
0010
0000
0000
0001
0000
0010
0000
0100
0000
1000
0000
0000
0001
0000
0000
1000
0000
0000
0010
0000
0000
1000
0000
0010
0000
0100
0000
0001
0000
0000
1000
0000
0000
,
0010
0000
0000
1000
0000
0000
0001
0000
0100
0000
0010
0000
1000
0000
0000
0001
0000
0000
0100
0000
0000
0001
0000
0000
1000
0000
0010
0000
0100
0000
0001
0000
0000
1000
0000
0000
0001
0000
0000
1000
0000
0000
0100
0000
0000
0010
0000
0000
,
0001
0100
0001
1000
0001
0100
0001
1000
0010
1000
0001
0010
0001
1000
0010
0100
,
0010
1000
0100
1000
0010
0100
0001
1000
0100
1000
0001
0010
0001
0100
0010
1000
,
0001
0000
0010
0000
0100
0000
1000
0000
0000
0001
0000
0000
1000
0000
0000
0010
0000
0000
1000
0000
0010
0000
0100
0000
0001
0000
0000
1000
0000
0000
0001
0000
0000
0010
0000
0000
0001
0000
0010
0000
0100
0000
1000
0000
0000
0001
0000
0000
,
0010
0000
0000
0001
0000
0000
1000
0000
0100
0000
0010
0000
0001
0000
0000
1000
0000
0000
0001
0000
0010
0000
0100
0000
1000
0000
0000
0001
0000
0000
1000
0000
0000
0010
0000
0000
1000
0000
0000
0001
0000
0000
0010
0000
0000
0100
0000
0000
,
1000
0010
1000
0001
1000
0010
1000
0001
0100
0001
0010
0100
0010
0001
0100
0010
,
0100
0001
1000
0100
1000
0100
1000
0010
1000
0010
0100
0001
0100
0001
1000
0001
,
1000
0000
0100
0000
0010
0000
0001
0000
0000
1000
0000
0000
0001
0000
0000
0100
0000
0000
0001
0000
0100
0000
0010
0000
1000
0000
0000
0001
0000
0000
1000
0000
0000
0100
0000
0000
1000
0000
0100
0000
0010
0000
0001
0000
0000
1000
0000
0000
,
0100
0000
0000
1000
0000
0000
0001
0000
0010
0000
0100
0000
1000
0000
0000
0001
0000
0000
1000
0000
0100
0000
0010
0000
0001
0000
0000
1000
0000
0000
0001
0000
0000
0100
0000
0000
0001
0000
0000
1000
0000
0000
0100
0000
0000
0010
0000
0000
,
0001
0100
0001
1000
0001
0100
0001
1000
0010
1000
0001
0010
0001
1000
0010
0100
,
0010
1000
0001
0010
0100
1000
0001
0100
0010
0100
0001
1000
0001
1000
0010
1000
,
0001
0010
0001
1000
0001
0010
0001
1000
0100
1000
0001
0100
0001
1000
0100
0010
,
0100
1000
0001
0100
0010
1000
0001
0010
0100
0010
0001
1000
0001
1000
0100
1000
,
0001
0100
0001
1000
0001
0100
0001
1000
0010
1000
0100
0010
0100
1000
0010
0100
,
0010
1000
0001
0010
0001
1000
0001
1000
0100
1000
0010
0100
0010
1000
0100
1000
,
0001
0100
0001
1000
0001
0100
0010
1000
0001
1000
0100
1000
0001
0100
0010
0100
,
0010
0100
0001
1000
0100
1000
0001
0010
0001
0010
0100
1000
0001
1000
0100
1000
,
0001
0100
0001
1000
0001
0100
0010
1000
0001
0100
0001
0010
0100
1000
0010
0100
,
0010
0100
0001
0010
0100
1000
0010
0100
0010
1000
0100
0010
0001
0100
0001
1000
,
0001
0010
0001
1000
0001
0010
0100
1000
0001
1000
0010
1000
0001
0010
0100
0010
,
0100
0010
0001
1000
0010
1000
0001
0100
0001
0100
0010
1000
0001
1000
0010
1000
,
0001
0010
0001
1000
0001
0010
0100
1000
0001
0010
0001
0100
0010
1000
0100
0010
,
0100
0010
0001
0100
0010
1000
0100
0010
0100
1000
0010
0100
0001
0010
0001
1000
,
0001
0100
0001
1000
0001
0100
0010
1000
0001
1000
0100
1000
0001
1000
0010
0100
,
0010
1000
0010
0100
0010
1000
0010
0100
0001
1000
0100
0010
0100
1000
0010
0100
,
0010
1000
0100
0010
0100
1000
0010
0100
0010
1000
0100
0010
0001
0100
0001
1000
,
0010
1000
0100
1000
0100
1000
0010
1000
0010
1000
0001
0100
0001
0100
0001
1000
,
0001
0010
0001
1000
0001
0010
0100
1000
0001
1000
0010
1000
0001
0010
0100
0010
,
0100
0010
0001
1000
0010
1000
0001
0100
0001
0100
0010
1000
0001
1000
0010
1000
,
0100
0010
0001
0010
0100
0010
0001
1000
0100
1000
0001
0100
0001
0100
0001
0010
,
0100
1000
0001
0100
0001
0100
0010
1000
0010
1000
0100
1000
0100
1000
0001
1000
,
0010
0100
0001
0100
0010
0100
0001
0100
0010
0100
0001
1000
0100
0010
0001
0010
,
0001
1000
0010
1000
0010
0100
0001
0010
0001
0010
0100
1000
0001
0010
0100
1000
,
0001
0100
0010
0100
0001
0100
0010
0100
0001
0100
0010
1000
0001
0010
0100
0000
;

//---------------dance-single - Gazebo----------------
#NOTES:
     dance-single:
     Gazebo:
     Hard:
     16:
     1.000,1.000,0.045,0.127,1.000,2145.000,11.000,31.000,7.000,0.000:
0000
0000
0000
0000
,
0000
0000
0000
0000
,
0000
0000
0000
0000
,
0000
0000
0000
0000
,
0000
0000
0000
0000
,
0000
0000
0000
0000
,
0000
0000
0000
0000
,
0000
0000
0000
0000
,
1000
0000
0010
0100
0010
0000
1000
0100
,
0010
0001
0000
0100
0000
0001
1000
0001
,
0010
0000
0100
0010
0100
0000
1000
0000
,
1000
0001
0000
0201
0000
0310
1000
0001
,
1000
0000
0100
0010
0100
0000
1000
0010
,
0100
0001
0000
0010
0000
0001
1000
0001
,
0100
0000
0010
0100
0010
0000
1000
0001
,
1000
0100
0000
0012
0000
1003
0001
0001
,
0100
0000
0010
0100
0001
1000
0001
0020
,
0000
0000
0130
0010
0000
0100
0010
0100
,
1000
0000
0001
1000
0010
1000
0000
0001
,
1000
0010
1000
0010
0100
0001
0100
0001
1000
0001
1000
0001
0010
0001
0010
0001
,
1000
0000
0100
0010
0100
0000
1000
0010
,
0100
0001
0000
0010
0000
0001
1000
0001
,
0100
0000
0010
0100
0010
0000
1000
0010
,
1000
0001
0000
0021
0000
0130
1000
0001
,
1000
0000
0010
0100
0010
0000
1000
0100
,
0010
0001
0000
0100
0000
0001
1000
0001
,
0010
0000
0100
0010
0100
0000
1000
0000
,
1000
0001
0000
0102
0000
1003
1000
0001
,
1000
0100
1000
0100
0010
0001
1000
0010
1000
0001
0100
0001
1000
0001
1000
0100
,
1000
0001
0010
0001
1000
0001
0100
0010
0100
0010
1000
0100
0010
0001
1000
0010
,
1000
0010
1000
0010
0100
0001
1000
0100
1000
0100
0010
0001
0100
0001
1000
0010
,
1000
0001
1000
0100
0010
0001
1000
0010
0100
0010
0100
0001
0010
0001
0100
0001
,
1000
0010
1000
0010
0100
0001
1000
0100
1000
0001
0010
0001
1000
0001
1000
0010
,
1000
0001
0100
0001
1000
0001
0010
0100
0010
0100
1000
0010
0100
0001
0010
0001
,
0010
0001
0010
0100
1000
0001
0100
0001
0100
0010
1000
0001
1000
0001
0010
0100
,
0010
0001
0010
0100
1000
0001
0100
0001
1000
0001
1000
0100
0010
0001
0100
0001
,
0100
0010
1000
0010
1000
0001
1000
0001
1000
0100
0010
0100
0010
0001
0100
0001
,
0100
0001
0100
0010
1000
0100
1000
0001
0010
0001
1000
0001
0100
0010
1000
0001
,
1000
0000
0100
0000
0010
0000
0001
0000
0000
1000
0000
0000
0001
0000
0000
0100
0000
0000
0001
0000
0100
0000
0010
0000
1000
0000
0000
0001
0000
0000
1000
0000
0000
0100
0000
0000
1000
0000
0100
0000
0010
0000
0001
0000
0000
1000
0000
0000
,
0100
0000
0000
1000
0000
0000
0001
0000
0010
0000
0100
0000
1000
0000
0000
0001
0000
0000
1000
0000
0100
0000
0010
0000
0001
0000
0000
1000
0000
0000
0001
0000
0000
0100
0000
0000
0001
0000
0000
1000
0000
0000
0100
0000
0000
0010
0000
0000
,
0001
0100
0001
1000
0001
0100
0001
1000
0010
1000
0100
0010
0100
1000
0010
0100
,
0010
1000
0001
0010
0001
0010
0100
1000
0001
0100
0001
1000
0001
0100
0010
1000
,
0001
0000
0010
0000
0100
0000
1000
0000
0000
0001
0000
0000
1000
0000
0000
0010
0000
0000
1000
0000
0010
0000
0100
0000
0001
0000
0000
1000
0000
0000
0001
0000
0000
0010
0000
0000
0001
0000
0010
0000
0100
0000
1000
0000
0000
0001
0000
0000
,
0010
0000
0000
0001
0000
0000
1000
0000
0100
0000
0010
0000
0001
0000
0000
1000
0000
0000
0100
0000
0000
1000
0000
0000
0001
0000
0010
0000
0100
0000
1000
0000
0000
0001
0000
0000
1000
0000
0000
0001
0000
0000
0100
0000
0000
0010
0000
0000
,
1000
0100
1000
0001
1000
0100
1000
0001
0010
0001
1000
0010
1000
0001
0010
0100
,
0010
0001
0100
0001
0010
0100
1000
0001
0100
0001
1000
0010
1000
0100
0010
0001
,
1000
0000
0010
0000
0100
0000
0001
0000
0000
1000
0000
0000
0001
0000
0000
0010
0000
0000
0001
0000
0010
0000
0100
0000
1000
0000
0000
0001
0000
0000
1000
0000
0000
0010
0000
0000
1000
0000
0010
0000
0100
0000
0001
0000
0000
1000
0000
0000
,
0010
0000
0000
1000
0000
0000
0001
0000
0100
0000
0010
0000
1000
0000
0000
0001
0000
0000
1000
0000
0010
0000
0100
0000
0001
0000
0000
1000
0000
0000
0001
0000
0000
0010
0000
0000
0001
0000
0000
1000
0000
0000
0010
0000
0000
0100
0000
0000
,
0001
0010
0001
1000
0001
0010
0001
1000
0100
1000
0010
0100
0010
1000
0100
0010
,
0100
1000
0001
0100
0001
0100
0001
0010
0001
0010
0100
1000
0100
1000
0001
1000
,
0001
0000
0100
0000
0010
0000
1000
0000
0000
0001
0000
0000
1000
0000
0000
0100
0000
0000
1000
0000
0100
0000
0010
0000
0001
0000
0000
1000
0000
0000
0001
0000
0000
0100
0000
0000
0001
0000
0100
0000
0010
0000
1000
0000
0000
0001
0000
0000
,
0100
0000
0000
0001
0000
0000
1000
0000
0010
0000
0100
0000
0001
0000
0000
1000
0000
0000
0001
0000
0100
0000
0010
0000
1000
0000
0000
0001
0000
0000
1000
0000
0000
0100
0000
0000
1000
0000
0000
0001
0000
0000
0100
0000
0000
0010
0000
0000
,
1000
0100
1000
0001
1000
0100
1000
0001
0010
0001
1000
0010
1000
0001
0010
0100
,
0010
0001
1000
0010
0100
0001
1000
0100
0010
0100
1000
0001
1000
0001
0010
0001
,
1000
0010
1000
0001
1000
0010
1000
0001
0100
0001
1000
0100
1000
0001
0100
0010
,
0100
0001
1000
0100
0010
0001
1000
0010
0100
0010
1000
0001
1000
0001
0100
0001
,
1000
0100
1000
0001
1000
0100
1000
0001
0010
0001
0100
0010
0100
0001
0010
0100
,
0010
0001
1000
0010
1000
0001
1000
0001
0100
0001
1000
0010
1000
0100
0010
0001
,
1000
0000
0010
0100
0010
0000
1000
0100
,
0010
0001
0000
0001
0000
1000
0020
0000
,
1030
0000
0100
0010
0100
0000
1000
0010
,
0010
0100
0000
0100
0000
0002
2000
0003
,
3001
0000
0010
0100
0010
0000
0001
0100
,
0010
1000
0000
1000
0000
0001
0010
0001
,
1000
0000
0010
0100
0010
0000
1000
0100
,
0100
0010
0000
0010
0000
0001
1000
0001
,
0000
0000
00M0
0000
00M0
0000
0000
M000
,
0M00
00M0
0000
000M
0000
00M0
0000
0000
,
1000
0000
0010
0100
0010
0000
1000
0001
,
1000
0100
0000
0021
0000
0130
1000
0001
,
1000
0010
0100
0001
0100
0000
0010
1000
,
0001
0010
0000
0100
0000
0010
0001
1000
,
0001
0100
0010
1000
0010
0000
1000
0001
,
1000
0100
0000
0021
0000
0031
0001
1000
,
0001
0100
0001
0100
0010
1000
0001
0010
0001
1000
0100
1000
0001
1000
0001
0100
,
0001
1000
0010
1000
0001
1000
0100
0010
0100
0010
0001
0100
0010
1000
0001
0010
,
0001
0010
0100
1000
0001
1000
0001
0100
0001
1000
0010
1000
0010
1000
0001
0010
,
0001
1000
0001
0100
0010
1000
0001
0010
0100
1000
0010
1000
0001
1000
0100
1000
,
0001
0010
0001
0010
0100
1000
0001
0100
0001
1000
0010
1000
0001
1000
0001
0010
,
0001
1000
0100
1000
0001
1000
0010
0100
0010
0100
0001
0010
0100
1000
0010
1000
,
0010
1000
0010
0100
0001
1000
0100
1000
0100
0010
0001
1000
0001
1000
0010
0100
,
0010
1000
0010
0100
0001
1000
0100
1000
0001
1000
0001
0100
0010
1000
0100
1000
,
0100
0010
0001
0010
0001
1000
0001
1000
0001
0100
0010
0100
0010
1000
0100
1000
,
0100
1000
0100
0010
0001
0100
0001
1000
0010
1000
0001
1000
0100
0010
0001
1000
,
0001
0000
0100
0000
0010
0000
1000
0000
0000
0001
0000
0000
1000
0000
0000
0100
0000
0000
1000
0000
0100
0000
0010
0000
0001
0000
0000
1000
0000
0000
0001
0000
0000
0100
0000
0000
0001
0000
0100
0000
0010
0000
1000
0000
0000
0001
0000
0000
,
0100
0000
0000
0001
0000
0000
1000
0000
0010
0000
0100
0000
0001
0000
0000
1000
0000
0000
0001
0000
0100
0000
0010
0000
1000
0000
0000
0001
0000
0000
1000
0000
0000
0100
0000
0000
1000
0000
0000
0001
0000
0000
0100
0000
0000
0010
0000
0000
,
1000
0100
1000
0001
1000
0100
1000
0001
0010
0001
0100
0010
0100
0001
0010
0100
,
0010
0001
1000
0010
1000
0010
0100
0001
1000
0100
1000
0001
1000
0100
0010
0001
,
1000
0000
0010
0000
0100
0000
0001
0000
0000
1000
0000
0000
0001
0000
0000
0010
0000
0000
0001
0000
0010
0000
0100
0000
1000
0000
0000
0001
0000
0000
1000
0000
0000
0010
0000
0000
1000
0000
0010
0000
0100
0000
0001
0000
0000
1000
0000
0000
,
0010
0000
0000
1000
0000
0000
0001
0000
0100
0000
0010
0000
1000
0000
0000
0001
0000
0000
0100
0000
0000
0001
0000
0000
1000
0000
0010
0000
0100
0000
0001
0000
0000
1000
0000
0000
0001
0000
0000
1000
0000
0000
0100
0000
0000
0010
0000
0000
,
0001
0100
0001
1000
0001
0100
0001
1000
0010
1000
0001
0010
0001
1000
0010
0100
,
0010
1000
0100
1000
0010
0100
0001
1000
0100
1000
0001
0010
0001
0100
0010
1000
,
0001
0000
0010
0000
0100
0000
1000
0000
0000
0001
0000
0000
1000
0000
0000
0010
0000
0000
1000
0000
0010
0000
0100
0000
0001
0000
0000
1000
0000
0000
0001
0000
0000
0010
0000
0000
0001
0000
0010
0000
0100
0000
1000
0000
0000
0001
0000
0000
,
0010
0000
0000
0001
0000
0000
1000
0000
0100
0000
0010
0000
0001
0000
0000
1000
0000
0000
0001
0000
0010
0000
0100
0000
1000
0000
0000
0001
0000
0000
1000
0000
0000
0010
0000
0000
1000
0000
0000
0001
0000
0000
0010
0000
0000
0100
0000
0000
,
1000
0010
1000
0001
1000
0010
1000
0001
0100
0001
0010
0100
0010
0001
0100
0010
,
0100
0001
1000
0100
1000
0100
1000
0010
1000
0010
0100
0001
0100
0001
1000
0001
,
1000
0000
0100
0000
0010
0000
0001
0000
0000
1000
0000
0000
0001
0000
0000
0100
0000
0000
0001
0000
0100
0000
0010
0000
1000
0000
0000
0001
0000
0000
1000
0000
0000
0100
0000
0000
1000
0000
0100
0000
0010
0000
0001
0000
0000
1000
0000
0000
,
0100
0000
0000
1000
0000
0000
0001
0000
0010
0000
0100
0000
1000
0000
0000
0001
0000
0000
1000
0000
0100
0000
0010
0000
0001
0000
0000
1000
0000
0000
0001
0000
0000
0100
0000
0000
0001
0000
0000
1000
0000
0000
0100
0000
0000
0010
0000
0000
,
0001
0100
0001
1000
0001
0100
0001
1000
0010
1000
0001
0010
0001
1000
0010
0100
,
0010
1000
0001
0010
0100
1000
0001
0100
0010
0100
0001
1000
0001
1000
0010
1000
,
0001
0010
0001
1000
0001
0010
0001
1000
0100
1000
0001
0100
0001
1000
0100
0010
,
0100
1000
0001
0100
0010
1000
0001
0010
0100
0010
0001
1000
0001
1000
0100
1000
,
0001
0100
0001
1000
0001
0100
0001
1000
0010
1000
0100
0010
0100
1000
0010
0100
,
0010
1000
0001
0010
0001
1000
0001
1000
0100
1000
0001
0010
0001
0100
0010
1000
,
0001
0000
1000
0001
0010
0100
0010
0002
,
0000
0000
1003
0001
0000
1000
0001
0100
,
0000
0010
0100
0010
1000
0200
0000
0320
,
0000
0030
0010
0100
1000
0001
1000
0000
,
0001
0000
1000
0001
0100
0010
0100
0002
,
0000
0000
1003
0100
0010
0000
0100
1000
,
0001
0100
0001
0100
0001
1000
0001
0010
,
0000
0010
0100
0010
0001
1000
0010
1000
,
0001
0010
0001
0010
0100
1000
0001
0100
0001
1000
0010
1000
0001
1000
0001
0010
,
0001
1000
0100
1000
0001
1000
0010
0100
0010
0100
0001
0010
0100
1000
0001
0100
,
0001
0100
0001
0100
0010
1000
0001
0010
0001
0010
0100
1000
0010
1000
0001
0100
,
0001
1000
0001
0010
0100
1000
0001
0100
0010
0100
0001
1000
0100
1000
0001
1000
,
0001
0100
0010
0100
0010
1000
0001
0010
0001
1000
0100
1000
0001
1000
0001
0100
,
0001
1000
0010
1000
0001
1000
0100
0010
0100
0010
0001
0100
0010
1000
0100
1000
,
0100
1000
0100
0010
0001
1000
0010
1000
0010
0100
0001
1000
0001
1000
0100
0010
,
0100
1000
0100
0010
0001
1000
0010
1000
0001
1000
0001
0010
0100
1000
0010
1000
,
0010
0100
0001
0100
0001
1000
0001
1000
0001
0010
0100
0010
0100
1000
0010
1000
,
0001
0010
0001
0010
0100
0010
0100
0010
0100
1000
0100
1000
0001
1000
0001
1000
,
0001
0000
0010
0000
0100
0000
1000
0000
0000
0001
0000
0000
1000
0000
0000
0010
0000
0000
1000
0000
0010
0000
0100
0000
0001
0000
0000
1000
0000
0000
0001
0000
0000
0010
0000
0000
0001
0000
0010
0000
0100
0000
1000
0000
0000
0001
0000
0000
,
0010
0000
0000
0001
0000
0000
1000
0000
0100
0000
0010
0000
0001
0000
0000
1000
0000
0000
0001
0000
0010
0000
0100
0000
1000
0000
0000
0001
0000
0000
1000
0000
0000
0010
0000
0000
1000
0000
0000
0001
0000
0000
0010
0000
0000
0100
0000
0000
,
1000
0010
1000
0001
1000
0010
1000
0001
0100
0001
0010
0100
0010
0001
0100
0010
,
0100
0001
1000
0100
1000
0100
0010
0001
1000
0010
1000
0001
1000
0010
0100
0001
,
1000
0000
0100
0000
0010
0000
0001
0000
0000
1000
0000
0000
0001
0000
0000
0100
0000
0000
0001
0000
0100
0000
0010
0000
1000
0000
0000
0001
0000
0000
1000
0000
0000
0100
0000
0000
1000
0000
0100
0000
0010
0000
0001
0000
0000
1000
0000
0000
,
0100
0000
0000
1000
0000
0000
0001
0000
0010
0000
0100
0000
1000
0000
0000
0001
0000
0000
0010
0000
0000
0001
0000
0000
1000
0000
0100
0000
0010
0000
0001
0000
0000
1000
0000
0000
0001
0000
0000
1000
0000
0000
0010
0000
0000
0100
0000
0000
,
0001
0010
0001
1000
0001
0010
0001
1000
0100
1000
0001
0100
0001
1000
0100
0010
,
0100
1000
0010
1000
0100
0010
0001
1000
0010
1000
0001
0100
0001
0010
0100
1000
,
0001
0000
0100
0000
0010
0000
1000
0000
0000
0001
0000
0000
1000
0000
0000
0100
0000
0000
1000
0000
0100
0000
0010
0000
0001
0000
0000
1000
0000
0000
0001
0000
0000
0100
0000
0000
0001
0000
0100
0000
0010
0000
1000
0000
0000
0001
0000
0000
,
0100
0000
0000
0001
0000
0000
1000
0000
0010
0000
0100
0000
0001
0000
0000
1000
0000
0000
0001
0000
0100
0000
0010
0000
1000
0000
0000
0001
0000
0000
1000
0000
0000
0100
0000
0000
1000
0000
0000
0001
0000
0000
0100
0000
0000
0010
0000
0000
,
1000
0100
1000
0001
1000
0100
1000
0001
0010
0001
0100
0010
0100
0001
0010
0100
,
0010
0001
1000
0010
1000
0010
1000
0100
1000
0100
0010
0001
0010
0001
1000
0001
,
1000
0000
0010
0000
0100
0000
0001
0000
0000
1000
0000
0000
0001
0000
0000
0010
0000
0000
0001
0000
0010
0000
0100
0000
1000
0000
0000
0001
0000
0000
1000
0000
0000
0010
0000
0000
1000
0000
0010
0000
0100
0000
0001
0000
0000
1000
0000
0000
,
0010
0000
0000
1000
0000
0000
0001
0000
0100
0000
0010
0000
1000
0000
0000
0001
0000
0000
1000
0000
0010
0000
0100
0000
0001
0000
0000
1000
0000
0000
0001
0000
0000
0010
0000
0000
0001
0000
0000
1000
0000
0000
0010
0000
0000
0100
0000
0000
,
0001
0010
0001
1000
0001
0010
0001
1000
0100
1000
0001
0100
0001
1000
0100
0010
,
0100
1000
0001
0100
0010
1000
0001
0010
0100
0010
0001
1000
0001
1000
0100
1000
,
0001
0000
0100
0000
0010
0000
1000
0000
0000
0001
0000
0000
1000
0000
0000
0100
0000
0000
1000
0000
0100
0000
0010
0000
0001
0000
0000
1000
0000
0000
0001
0000
0000
0100
0000
0000
0001
0000
0100
0000
0010
0000
1000
0000
0000
0001
0000
0000
,
0100
0000
0000
0001
0000
0000
1000
0000
0010
0000
0100
0000
0001
0000
0000
1000
0000
0000
0001
0000
0100
0000
0010
0000
1000
0000
0000
0001
0000
0000
1000
0000
0000
0100
0000
0000
1000
0000
0000
0001
0000
0000
0100
0000
0000
0010
0000
0000
,
1000
0100
1000
0001
1000
0100
1000
0001
0010
0001
0100
0010
0100
0001
0010
0100
,
0010
0001
1000
0010
1000
0010
0100
0001
1000
0100
1000
0001
1000
0100
0010
0001
,
1000
0000
0010
0000
0100
0000
0001
0000
0000
1000
0000
0000
0001
0000
0000
0010
0000
0000
0001
0000
0010
0000
0100
0000
1000
0000
0000
0001
0000
0000
1000
0000
0000
0010
0000
0000
1000
0000
0010
0000
0100
0000
0001
0000
0000
1000
0000
0000
,
0010
0000
0000
1000
0000
0000
0001
0000
0100
0000
0010
0000
1000
0000
0000
0001
0000
0000
0100
0000
0000
0001
0000
0000
1000
0000
0010
0000
0100
0000
0001
0000
0000
1000
0000
0000
0001
0000
0000
1000
0000
0000
0100
0000
0000
0010
0000
0000
,
0001
0100
0001
1000
0001
0100
0001
1000
0010
1000
0001
0010
0001
1000
0010
0100
,
0010
1000
0100
1000
0010
0100
0001
1000
0100
1000
0001
0010
0001
0100
0010
1000
,
0001
0000
0010
0000
0100
0000
1000
0000
0000
0001
0000
0000
1000
0000
0000
0010
0000
0000
1000
0000
0010
0000
0100
0000
0001
0000
0000
1000
0000
0000
0001
0000
0000
0010
0000
0000
0001
0000
0010
0000
0100
0000
1000
0000
0000
0001
0000
0000
,
0010
0000
0000
0001
0000
0000
1000
0000
0100
0000
0010
0000
0001
0000
0000
1000
0000
0000
0001
0000
0010
0000
0100
0000
1000
0000
0000
0001
0000
0000
1000
0000
0000
0010
0000
0000
1000
0000
0000
0001
0000
0000
0010
0000
0000
0100
0000
0000
,
1000
0010
1000
0001
1000
0010
1000
0001
0100
0001
0010
0100
0010
0001
0100
0010
,
0100
0001
1000
0100
1000
0100
1000
0010
1000
0010
0100
0001
0100
0001
1000
0001
,
1000
0000
0100
0000
0010
0000
0001
0000
0000
1000
0000
0000
0001
0000
0000
0100
0000
0000
0001
0000
0100
0000
0010
0000
1000
0000
0000
0001
0000
0000
1000
0000
0000
0100
0000
0000
1000
0000
0100
0000
0010
0000
0001
0000
0000
1000
0000
0000
,
0100
0000
0000
1000
0000
0000
0001
0000
0010
0000
0100
0000
1000
0000
0000
0001
0000
0000
1000
0000
0100
0000
0010
0000
0001
0000
0000
1000
0000
0000
0001
0000
0000
0100
0000
0000
0001
0000
0000
1000
0000
0000
0100
0000
0000
0010
0000
0000
,
0001
0100
0001
1000
0001
0100
0001
1000
0010
1000
0001
0010
0001
1000
0010
0100
,
0010
1000
0001
0010
0100
1000
0001
0100
0010
0100
0001
1000
0001
1000
0010
1000
,
0001
0010
0001
1000
0001
0010
0001
1000
0100
1000
0001
0100
0001
1000
0100
0010
,
0100
1000
0001
0100
0010
1000
0001
0010
0100
0010
0001
1000
0001
1000
0100
1000
,
0001
0100
0001
1000
0001
0100
0001
1000
0010
1000
0100
0010
0100
1000
0010
0100
,
0010
1000
0001
0010
0001
1000
0001
1000
0100
1000
0010
0100
0010
1000
0100
1000
,
0001
0000
1000
0001
0100
0010
0100
0002
,
0000
0000
1003
0001
0000
1000
0001
0010
,
0000
0100
0010
0100
1000
0020
0000
0230
,
0000
0300
0100
0010
1000
0001
1000
0000
,
0001
0000
1000
0001
0010
0100
0010
0002
,
0000
0000
1003
0001
1000
0001
0100
0010
,
0000
0000
0100
0010
1000
0200
0000
0320
,
0000
0030
0010
0100
1000
0001
0100
0000
,
0001
0000
1000
0001
0010
0200
2300
3020
,
0000
0000
0000
0000
0000
0000
0000
0030
0000
0000
0010
0000
0000
0000
0010
0000
,
0000
0010
0000
0010
0000
0010
0000
0100
,
0000
1010
0000
1001
0000
0011
0000
1100
,
1000
0000
0001
1000
0010
0100
0010
2000
,
0000
0000
3001
1000
0001
1000
0100
0000
,
0010
0001
0010
0001
0000
0002
0000
0203
,
0000
0320
1030
0010
1000
0010
1000
0001
,
0010
0100
0010
0100
0010
0100
1000
0020
,
0000
0230
0000
0302
0000
2003
0000
0000
,
3001
0010
0001
0010
0001
0010
0100
1001
;

//---------------dance-single - Gazebo----------------
#NOTES:
     dance-single:
     Gazebo:
     Medium:
     14:
     1.000,1.000,0.066,0.206,1.000,1727.000,16.000,50.000,7.000,0.000:
0000
0000
0000
0000
,
0000
0000
0000
0000
,
0000
0000
0000
0000
,
0000
0000
0000
0000
,
0000
0000
0000
0000
,
0000
0000
0000
0000
,
0000
0000
0000
0000
,
0000
0000
0000
0000
,
1000
0000
0010
0100
0010
0000
1000
0100
,
0010
0001
0000
0100
0000
0001
1000
0001
,
0010
0000
0100
0010
0100
0000
1000
0000
,
1000
0001
0000
0201
0000
0310
1000
0001
,
1000
0000
0100
0010
0100
0000
1000
0010
,
0100
0001
0000
0010
0000
0001
1000
0001
,
0100
0000
0010
0100
0010
0000
1000
0001
,
1000
0100
0000
0012
0000
1003
0001
0001
,
0100
0000
0010
0100
0001
1000
0001
0020
,
0000
0000
0130
0010
0000
0100
0010
0100
,
1000
0000
0001
1000
0010
1000
0000
0001
,
1000
0010
1000
0010
0100
0001
0100
0001
1000
0001
1000
0001
0010
0001
0010
0001
,
1000
0000
0100
0010
0100
0000
1000
0010
,
0100
0001
0000
0010
0000
0001
1000
0001
,
0100
0000
0010
0100
0010
0000
1000
0010
,
1000
0001
0000
0021
0000
0130
1000
0001
,
1000
0000
0010
0100
0010
0000
1000
0100
,
0010
0001
0000
0100
0000
0001
1000
0001
,
0010
0000
0100
0010
0100
0000
1000
0000
,
1000
0001
0000
0102
0000
1003
1000
0001
,
0020
0000
0130
0010
0000
0010
0000
0010
,
0000
0010
0000
0001
0000
1000
0000
2000
,
0000
0000
3010
0010
0000
0100
0020
0000
,
1030
0001
0000
0101
0000
0000
1000
0100
,
0000
0100
0000
0100
0000
0100
0000
0100
,
0000
0100
0000
1000
0000
0001
0100
0020
,
0000
0000
0130
0100
0000
0001
0000
2000
,
0000
0000
3001
1000
0000
0100
0010
0002
,
0000
1003
0000
1000
0000
0010
0000
0200
,
0000
0300
1001
1001
0000
0000
0000
0000
,
1000
0010
1000
0010
0100
0001
1000
0100
1000
0100
0010
0001
1000
0010
1000
0010
,
0100
0001
1000
0010
0100
0001
1000
0010
0100
0001
1000
0010
1000
0001
0010
0100
,
1000
0010
1000
0001
1000
0010
1000
0001
0100
0001
0010
0100
0010
0001
0100
0010
,
0100
0001
1000
0100
1000
0100
0010
0001
1000
0010
1000
0001
1000
0010
0100
0001
,
1000
0100
1000
0100
0010
0001
1000
0010
1000
0010
0100
0001
1000
0100
1000
0100
,
0010
0001
1000
0100
1000
0100
0010
0001
1000
0100
0010
0001
1000
0001
0010
0100
,
1000
0010
1000
0001
1000
0010
1000
0001
0100
0001
1000
0100
1000
0001
0100
0010
,
0100
0001
0010
0001
0100
0010
1000
0001
0010
0001
1000
0100
1000
0010
0100
0001
,
1000
0100
1000
0100
0010
0001
1000
0010
1000
0010
0100
0001
1000
0100
1000
0100
,
0010
0001
1000
0100
0010
0001
1000
0100
0010
0001
1000
0100
1000
0001
0100
0010
,
1000
0100
1000
0001
1000
0010
1000
0001
0010
0001
0100
0010
0100
0001
0010
0100
,
0010
0001
1000
0010
1000
0010
1000
0100
1000
0100
0010
0001
0010
0001
1000
0001
,
1000
0010
1000
0010
0100
0001
1000
0100
1000
0100
0010
0001
1000
0010
1000
0010
,
0100
0001
1000
0010
0100
0001
1000
0010
0100
0001
1000
0010
1000
0001
0010
0100
,
1000
0010
1000
0001
1000
0010
1000
0001
0100
0001
1000
0100
1000
0001
0100
0010
,
0100
0001
1000
0100
0010
0001
1000
0010
0100
0010
1000
0001
1000
0001
0100
0001
,
1000
0100
1000
0001
1000
0100
1000
0001
0010
0001
1000
0010
1000
0001
0010
0100
,
0010
0001
1000
0010
0100
0001
1000
0100
0010
0100
1000
0001
1000
0001
0010
0001
,
1000
0010
1000
0001
1000
0010
1000
0001
0100
0001
0010
0100
0010
0001
0100
0010
,
0100
0001
1000
0100
1000
0001
1000
0001
0010
0001
1000
0100
1000
0010
0100
0001
,
1000
0000
0010
0100
0010
0000
1000
0100
,
0010
0001
0000
0001
0000
1000
0020
0000
,
1030
0000
0100
0010
0100
0000
1000
0010
,
0010
0100
0000
0100
0000
0002
2000
0003
,
3001
0000
0010
0100
0010
0000
0001
0100
,
0010
1000
0000
1000
0000
0001
0010
0001
,
1000
0000
0010
0100
0010
0000
1000
0100
,
0100
0010
0000
0010
0000
0001
1000
0001
,
0000
0000
00M0
0000
00M0
0000
0000
M000
,
0M00
00M0
0000
000M
0000
00M0
0000
0000
,
1000
0000
0010
0100
0010
0000
1000
0001
,
1000
0100
0000
0021
0000
0130
1000
0001
,
1000
0010
0100
0001
0100
0000
0010
1000
,
0001
0010
0000
0100
0000
0010
0001
1000
,
0001
0100
0010
1000
0010
0000
1000
0001
,
1000
0100
0000
0021
0000
0031
0001
1000
,
0020
0000
0130
0010
0000
0010
0000
0010
,
0000
0010
0000
1000
0000
0001
0002
0000
,
0000
0013
0000
0010
0000
0100
0000
0020
,
0000
0000
0031
1000
0010
0100
0010
1000
,
0001
0000
0001
0001
0000
0001
0000
0001
,
0000
0001
0000
0010
0000
0100
0000
2000
,
0000
3001
0000
0001
0000
0100
0000
0002
,
0000
0000
1003
0010
0000
1000
0100
0010
,
0000
0100
0000
0100
0000
1000
0000
0020
,
0000
0030
1001
1001
0000
0000
0000
0000
,
0001
0100
0001
0100
0010
1000
0001
0010
0001
0010
0100
1000
0001
0100
0001
0100
,
0010
1000
0001
0100
0010
1000
0001
0100
0010
1000
0001
0100
0001
1000
0100
0010
,
0001
0100
0001
1000
0001
0100
0001
1000
0010
1000
0100
0010
0100
1000
0010
0100
,
0010
1000
0001
0010
0001
0010
0100
1000
0001
0100
0001
1000
0001
0100
0010
1000
,
0001
0010
0001
0010
0100
1000
0001
0100
0001
0100
0010
1000
0001
0010
0001
0010
,
0100
1000
0001
0010
0001
0010
0100
1000
0001
0010
0100
1000
0001
1000
0100
0010
,
0001
0100
0001
1000
0001
0100
0001
1000
0010
1000
0001
0010
0001
1000
0010
0100
,
0010
1000
0100
1000
0010
0100
0001
1000
0100
1000
0001
0010
0001
0100
0010
1000
,
0001
0010
0001
0010
0100
1000
0001
0100
0001
0100
0010
1000
0001
0010
0001
0010
,
0100
1000
0001
0010
0100
1000
0001
0010
0100
1000
0001
0010
0001
1000
0010
0100
,
0001
0010
0001
1000
0001
0100
0001
1000
0100
1000
0010
0100
0010
1000
0100
0010
,
0100
1000
0001
0100
0001
0100
0001
0010
0001
0010
0100
1000
0100
1000
0001
1000
,
0001
0100
0001
0100
0010
1000
0001
0010
0001
0010
0100
1000
0001
0100
0001
0100
,
0010
1000
0001
0100
0010
1000
0001
0100
0010
1000
0001
0100
0001
1000
0100
0010
,
0001
0100
0001
1000
0001
0100
0001
1000
0010
1000
0001
0010
0001
1000
0010
0100
,
0010
1000
0001
0010
0100
1000
0001
0100
0010
0100
0001
1000
0001
1000
0010
1000
,
0001
0010
0001
1000
0001
0010
0001
1000
0100
1000
0001
0100
0001
1000
0100
0010
,
0100
1000
0001
0100
0010
1000
0001
0010
0100
0010
0001
1000
0001
1000
0100
1000
,
0001
0100
0001
1000
0001
0100
0001
1000
0010
1000
0100
0010
0100
1000
0010
0100
,
0010
1000
0001
0010
0001
1000
0001
1000
0100
1000
0001
0010
0001
0100
0010
1000
,
0001
0000
1000
0001
0010
0100
0010
0002
,
0000
0000
1003
0001
0000
1000
0001
0100
,
0000
0010
0100
0010
1000
0200
0000
0320
,
0000
0030
0010
0100
1000
0001
1000
0000
,
0001
0000
1000
0001
0100
0010
0100
0002
,
0000
0000
1003
0100
0010
0000
0100
1000
,
0001
0100
0001
0100
0001
1000
0001
0010
,
0000
0010
0100
0010
0001
1000
0010
1000
,
0200
0000
0310
0100
0000
0100
0000
0100
,
0000
0100
0000
1000
0000
0001
0000
0002
,
0000
0000
0103
0100
0000
0010
0200
0000
,
0301
1000
0010
1000
0000
0000
0001
0010
,
0000
0010
0000
0010
0000
0010
0000
0010
,
0000
0010
0000
0001
0000
1000
0010
0200
,
0000
0000
0310
0010
0000
1000
0000
0002
,
0000
0000
1003
0001
0000
0010
0100
2000
,
0000
3001
0000
0001
0000
0100
0000
0010
,
1000
0010
1000
0010
0100
0010
0100
0010
0100
0001
0100
0001
1000
0001
1000
0001
,
1000
0100
1000
0100
0010
0001
1000
0010
1000
0010
0100
0001
1000
0100
1000
0100
,
0010
0001
1000
0100
0010
0001
1000
0100
0010
0001
1000
0100
1000
0001
0100
0010
,
1000
0100
1000
0001
1000
0100
1000
0001
0010
0001
0100
0010
0100
0001
0010
0100
,
0010
0001
1000
0010
1000
0010
0100
0001
1000
0100
1000
0001
1000
0100
0010
0001
,
1000
0010
1000
0010
0100
0001
1000
0100
1000
0100
0010
0001
1000
0010
1000
0010
,
0100
0001
1000
0010
1000
0010
0100
0001
1000
0010
0100
0001
1000
0001
0100
0010
,
1000
0100
1000
0001
1000
0100
1000
0001
0010
0001
1000
0010
1000
0001
0010
0100
,
0010
0001
0100
0001
0010
0100
1000
0001
0100
0001
1000
0010
1000
0100
0010
0001
,
1000
0010
1000
0010
0100
0001
1000
0100
1000
0100
0010
0001
1000
0010
1000
0010
,
0100
0001
1000
0010
0100
0001
1000
0010
0100
0001
1000
0010
1000
0001
0010
0100
,
1000
0010
1000
0001
1000
0100
1000
0001
0100
0001
0010
0100
0010
0001
0100
0010
,
0100
0001
1000
0100
1000
0100
1000
0010
1000
0010
0100
0001
0100
0001
1000
0001
,
1000
0100
1000
0100
0010
0001
1000
0010
1000
0010
0100
0001
1000
0100
1000
0100
,
0010
0001
1000
0100
0010
0001
1000
0100
0010
0001
1000
0100
1000
0001
0100
0010
,
1000
0100
1000
0001
1000
0100
1000
0001
0010
0001
1000
0010
1000
0001
0010
0100
,
0010
0001
1000
0010
0100
0001
1000
0100
0010
0100
1000
0001
1000
0001
0010
0001
,
1000
0010
1000
0010
0100
0001
1000
0100
1000
0100
0010
0001
1000
0010
1000
0010
,
0100
0001
1000
0010
0100
0001
1000
0010
0100
0001
1000
0010
1000
0001
0010
0100
,
1000
0010
1000
0001
1000
0010
1000
0001
0100
0001
0010
0100
0010
0001
0100
0010
,
0100
0001
1000
0100
1000
0100
0010
0001
1000
0010
1000
0001
1000
0010
0100
0001
,
1000
0100
1000
0100
0010
0001
1000
0010
1000
0010
0100
0001
1000
0100
1000
0100
,
0010
0001
1000
0100
1000
0100
0010
0001
1000
0100
0010
0001
1000
0001
0010
0100
,
1000
0010
1000
0001
1000
0010
1000
0001
0100
0001
1000
0100
1000
0001
0100
0010
,
0100
0001
0010
0001
0100
0010
1000
0001
0010
0001
1000
0100
1000
0010
0100
0001
,
1000
0100
1000
0100
0010
0001
1000
0010
1000
0010
0100
0001
1000
0100
1000
0100
,
0010
0001
1000
0100
0010
0001
1000
0100
0010
0001
1000
0100
1000
0001
0100
0010
,
1000
0100
1000
0001
1000
0010
1000
0001
0010
0001
0100
0010
0100
0001
0010
0100
,
0010
0001
1000
0010
1000
0010
1000
0100
1000
0100
0010
0001
0010
0001
1000
0001
,
1000
0010
1000
0010
0100
0001
1000
0100
1000
0100
0010
0001
1000
0010
1000
0010
,
0100
0001
1000
0010
0100
0001
1000
0010
0100
0001
1000
0010
1000
0001
0010
0100
,
1000
0010
1000
0001
1000
0010
1000
0001
0100
0001
1000
0100
1000
0001
0100
0010
,
0100
0001
1000
0100
0010
0001
1000
0010
0100
0010
1000
0001
1000
0001
0100
0001
,
1000
0100
1000
0001
1000
0100
1000
0001
0010
0001
1000
0010
1000
0001
0010
0100
,
0010
0001
1000
0010
0100
0001
1000
0100
0010
0100
1000
0001
1000
0001
0010
0001
,
1000
0010
1000
0001
1000
0010
1000
0001
0100
0001
0010
0100
0010
0001
0100
0010
,
0100
0001
1000
0100
1000
0001
1000
0001
0010
0001
1000
0100
1000
0010
0100
0001
,
1000
0000
0001
1000
0010
0100
0010
2000
,
0000
0000
3001
1000
0000
0001
1000
0100
,
0000
0010
0100
0010
0001
0200
0000
0320
,
0000
0030
0010
0100
0001
1000
0001
0000
,
1000
0000
0001
1000
0100
0010
0100
2000
,
0000
0000
3001
1000
0001
1000
0010
0100
,
0000
0000
0010
0100
0001
0020
0000
0230
,
0000
0300
0100
0010
0001
1000
0010
0000
,
1000
0000
0001
1000
0100
0020
0032
0203
,
0000
0000
0000
0000
0000
0000
0000
0300
0000
0000
0100
0000
0000
0000
0100
0000
,
0000
0100
0000
0100
0000
0100
0000
0010
,
0000
0101
0000
1001
0000
1100
0000
0011
,
0001
0000
1000
0001
0100
0010
0100
0002
,
0000
0000
1003
0001
1000
0001
0010
0000
,
0100
1000
0100
1000
0000
2000
0000
3020
,
0000
0230
0301
0100
0001
0100
0001
1000
,
0100
0010
0100
0010
0100
0010
0001
0200
,
0000
0320
0000
2030
0000
3002
0000
0000
,
1003
0100
1000
0100
1000
0100
0010
1001
;

//---------------dance-single - Gazebo----------------
#NOTES:
     dance-single:
     Gazebo:
     Easy:
     12:
     0.766,1.000,0.066,0.230,0.493,1232.000,16.000,56.000,7.000,0.000:

0000
0000
0000
0000
,
0000
0000
0000
0000
,
0000
0000
0000
0000
,
0000
0000
0000
0000
,
0000
0000
0000
0000
,
0000
0000
0000
0000
,
0000
0000
0000
0000
,
0000
0000
0000
0000
,
1000
0000
0010
0100
0010
0000
1000
0100
,
0010
0001
0000
0100
0000
0001
1000
0001
,
0010
0000
0100
0010
0100
0000
1000
0000
,
1000
0001
0000
0201
0000
0310
1000
0001
,
1000
0000
0100
0010
0100
0000
1000
0010
,
0100
0001
0000
0010
0000
0001
1000
0001
,
0100
0000
0010
0100
0010
0000
1000
0001
,
1000
0100
0000
0012
0000
1003
0001
0001
,
0100
0000
0010
0100
0001
1000
0001
0020
,
0000
0000
0130
0010
0000
0100
0010
0100
,
1000
0000
0001
1000
0010
1000
0000
0001
,
1000
0010
1000
0010
0100
0001
0100
0001
1000
0001
1000
0001
0010
0001
0010
0001
,
1000
0000
0100
0010
0100
0000
1000
0010
,
0100
0001
0000
0010
0000
0001
1000
0001
,
0100
0000
0010
0100
0010
0000
1000
0010
,
1000
0001
0000
0021
0000
0130
1000
0001
,
1000
0000
0010
0100
0010
0000
1000
0100
,
0010
0001
0000
0100
0000
0001
1000
0001
,
0010
0000
0100
0010
0100
0000
1000
0000
,
1000
0001
0000
0102
0000
1003
1000
0001
,
0020
0000
0130
0010
0000
0010
0000
0010
,
0000
0010
0000
0001
0000
1000
0000
2000
,
0000
0000
3010
0010
0000
0100
0020
0000
,
1030
0001
0000
0101
0000
0000
1000
0100
,
0000
0100
0000
0100
0000
0100
0000
0100
,
0000
0100
0000
1000
0000
0001
0100
0020
,
0000
0000
0130
0100
0000
0001
0000
2000
,
0000
0000
3001
1000
0000
0100
0010
0002
,
0000
1003
0000
1000
0000
0010
0000
0200
,
0000
0300
1001
1001
0000
0000
0000
0000
,
1000
0010
1000
0010
0100
0001
1000
0100
1000
0100
0010
0001
1000
0010
1000
0010
,
0100
0001
1000
0010
0100
0001
1000
0010
0100
0001
1000
0010
1000
0000
0001
0000
,
0010
0100
0010
0010
0000
0001
0000
0001
,
0000
0100
0010
0100
0010
0100
0001
0000
,
1000
0100
1000
0100
0010
0001
1000
0010
1000
0010
0100
0001
1000
0100
1000
0100
,
0010
0001
1000
0100
1000
0100
0010
0001
1000
0100
0010
0001
1000
0000
0000
0000
,
0001
0100
0001
0001
0000
1000
0000
0100
,
0000
0010
0100
0010
0100
0010
0001
0000
,
1000
0100
1000
0100
0010
0001
1000
0010
1000
0010
0100
0001
1000
0100
1000
0100
,
0010
0001
1000
0100
0010
0001
1000
0100
0010
0001
1000
0100
1000
0000
0001
0000
,
0100
0000
0100
0001
0000
0010
0000
0010
,
0000
0100
0010
0100
0010
0100
0010
0001
,
1000
0010
1000
0010
0100
0001
1000
0100
1000
0100
0010
0001
1000
0010
1000
0010
,
0100
0001
1000
0010
0100
0001
1000
0010
0100
0001
1000
0010
1000
0000
0000
0000
,
0001
0100
0001
0001
0000
1000
0000
0100
,
0000
0010
0001
0002
0000
0000
0000
0000
,
1003
0010
1000
1000
0000
0001
0000
0010
,
0000
0100
1000
2000
0000
0000
0000
3001
,
1000
0010
1000
1000
0000
0100
0000
0100
,
0000
0010
0001
1000
0100
1000
0001
0000
,
1000
0000
0010
0100
0010
0000
1000
0100
,
0010
0001
0000
0001
0000
1000
0020
0000
,
1030
0000
0100
0010
0100
0000
1000
0010
,
0010
0100
0000
0100
0000
0002
2000
0003
,
3001
0000
0010
0100
0010
0000
0001
0100
,
0010
1000
0000
1000
0000
0001
0010
0001
,
1000
0000
0010
0100
0010
0000
1000
0100
,
0100
0010
0000
0010
0000
0001
1000
0001
,
0000
0000
00M0
0000
00M0
0000
0000
M000
,
0M00
00M0
0000
000M
0000
00M0
0000
0000
,
1000
0000
0010
0100
0010
0000
1000
0001
,
1000
0100
0000
0021
0000
0130
1000
0001
,
1000
0010
0100
0001
0100
0000
0010
1000
,
0001
0010
0000
0100
0000
0010
0001
1000
,
0001
0100
0010
1000
0010
0000
1000
0001
,
1000
0100
0000
0021
0000
0031
0001
1000
,
0020
0000
0130
0010
0000
0010
0000
0010
,
0000
0010
0000
1000
0000
0001
0002
0000
,
0000
0013
0000
0010
0000
0100
0000
0020
,
0000
0000
0031
1000
0010
0100
0010
1000
,
0001
0000
0001
0001
0000
0001
0000
0001
,
0000
0001
0000
0010
0000
0100
0000
2000
,
0000
3001
0000
0001
0000
0100
0000
0002
,
0000
0000
1003
0010
0000
1000
0100
0010
,
0000
0100
0000
0100
0000
1000
0000
0020
,
0000
0030
1001
1001
0000
0000
0000
0000
,
0001
0100
0001
0100
0010
1000
0001
0010
0001
0010
0100
1000
0001
0100
0001
0100
,
0010
1000
0001
0100
0010
1000
0001
0100
0010
1000
0001
0100
0001
0000
1000
0000
,
0100
0010
0100
0100
0000
1000
0000
1000
,
0000
0010
0100
0010
0100
0010
1000
0000
,
0001
0010
0001
0010
0100
1000
0001
0100
0001
0100
0010
1000
0001
0010
0001
0010
,
0100
1000
0001
0010
0001
0010
0100
1000
0001
0010
0100
1000
0001
0000
0000
0000
,
1000
0010
1000
1000
0000
0001
0000
0010
,
0000
0100
0010
0100
0010
0100
1000
0000
,
0001
0010
0001
0010
0100
1000
0001
0100
0001
0100
0010
1000
0001
0010
0001
0010
,
0100
1000
0001
0010
0100
1000
0001
0010
0100
1000
0001
0010
0001
0000
1000
0000
,
0010
0000
0010
1000
0000
0100
0000
0100
,
0000
0010
0100
0010
0100
0010
0100
1000
,
0001
0100
0001
0100
0010
1000
0001
0010
0001
0010
0100
1000
0001
0100
0001
0100
,
0010
1000
0001
0100
0010
1000
0001
0100
0010
1000
0001
0100
0001
0000
0000
0000
,
1000
0010
1000
1000
0000
0001
0000
0010
,
0000
0100
1000
2000
0000
0000
0000
0000
,
3001
0100
0001
0001
0000
1000
0000
0100
,
0000
0010
0001
1000
0010
0100
0010
1000
,
0001
0100
0001
0001
0000
0010
0000
0010
,
0000
0100
1000
0010
0000
1000
0010
1000
,
0001
0000
1000
0001
0010
0100
0010
0002
,
0000
0000
1003
0001
0000
1000
0001
0100
,
0000
0010
0100
0010
1000
0200
0000
0320
,
0000
0030
0010
0100
1000
0001
1000
0000
,
0001
0000
1000
0001
0100
0010
0100
0002
,
0000
0000
1003
0100
0010
0000
0100
1000
,
0001
0100
0001
0100
0001
1000
0001
0010
,
0000
0010
0100
0010
0001
1000
0010
1000
,
0200
0000
0310
0100
0000
0100
0000
0100
,
0000
0100
0000
1000
0000
0001
0000
0002
,
0000
0000
0103
0100
0000
0010
0200
0000
,
0301
1000
0010
1000
0000
0000
0001
0010
,
0000
0010
0000
0010
0000
0010
0000
0010
,
0000
0010
0000
0001
0000
1000
0010
0200
,
0000
0000
0310
0010
0000
1000
0000
0002
,
0000
0000
1003
0001
0000
0010
0100
2000
,
0000
3001
0000
0001
0000
0100
0000
0010
,
1000
0010
1000
0010
0100
0010
0100
0010
0100
0001
0100
0001
1000
0001
1000
0001
,
1000
0100
1000
0100
0010
0001
1000
0010
1000
0010
0100
0001
1000
0100
1000
0100
,
0010
0001
1000
0100
0010
0001
1000
0100
0010
0001
1000
0100
1000
0000
0001
0000
,
0100
0010
0100
0100
0000
0001
0000
0001
,
0000
0010
0100
0010
0100
0010
0001
0000
,
1000
0010
1000
0010
0100
0001
1000
0100
1000
0100
0010
0001
1000
0010
1000
0010
,
0100
0001
1000
0010
1000
0010
0100
0001
1000
0010
0100
0001
1000
0000
0000
0000
,
0001
0010
0001
0001
0000
1000
0000
0010
,
0000
0100
0010
0100
0010
0100
0001
0000
,
1000
0010
1000
0010
0100
0001
1000
0100
1000
0100
0010
0001
1000
0010
1000
0010
,
0100
0001
1000
0010
0100
0001
1000
0010
0100
0001
1000
0010
1000
0000
0001
0000
,
0010
0000
0010
0001
0000
0100
0000
0100
,
0000
0010
0100
0010
0100
0010
0100
0001
,
1000
0100
1000
0100
0010
0001
1000
0010
1000
0010
0100
0001
1000
0100
1000
0100
,
0010
0001
1000
0100
0010
0001
1000
0100
0010
0001
1000
0100
1000
0000
0000
0000
,
0001
0010
0001
0001
0000
1000
0000
0010
,
0000
0100
0001
0002
0000
0000
0000
0000
,
1003
0010
1000
0010
0100
0001
1000
0100
1000
0100
0010
0001
1000
0010
1000
0010
,
0100
0001
1000
0010
0100
0001
1000
0010
0100
0001
1000
0010
1000
0000
0001
0000
,
0010
0100
0010
0010
0000
0001
0000
0001
,
0000
0100
0010
0100
0010
0100
0001
0000
,
1000
0100
1000
0100
0010
0001
1000
0010
1000
0010
0100
0001
1000
0100
1000
0100
,
0010
0001
1000
0100
1000
0100
0010
0001
1000
0100
0010
0001
1000
0000
0000
0000
,
0001
0100
0001
0001
0000
1000
0000
0100
,
0000
0010
0100
0010
0100
0010
0001
0000
,
1000
0100
1000
0100
0010
0001
1000
0010
1000
0010
0100
0001
1000
0100
1000
0100
,
0010
0001
1000
0100
0010
0001
1000
0100
0010
0001
1000
0100
1000
0000
0001
0000
,
0100
0000
0100
0001
0000
0010
0000
0010
,
0000
0100
0010
0100
0010
0100
0010
0001
,
1000
0010
1000
0010
0100
0001
1000
0100
1000
0100
0010
0001
1000
0010
1000
0010
,
0100
0001
1000
0010
0100
0001
1000
0010
0100
0001
1000
0010
1000
0000
0000
0000
,
0001
0100
0001
0001
0000
1000
0000
0100
,
0000
0010
0001
0002
0000
0000
0000
0000
,
1003
0010
1000
1000
0000
0001
0000
0010
,
0000
0100
1000
2000
0000
0000
0000
3001
,
1000
0010
1000
1000
0000
0100
0000
0100
,
0000
0010
0001
0100
0000
0001
0010
0100
,
1000
0000
0001
1000
0010
0100
0010
2000
,
0000
0000
3001
1000
0000
0001
1000
0100
,
0000
0010
0100
0010
0001
0200
0000
0320
,
0000
0030
0010
0100
0001
1000
0001
0000
,
1000
0000
0001
1000
0100
0010
0100
2000
,
0000
0000
3001
1000
0001
1000
0010
0100
,
0000
0000
0010
0100
0001
0020
0000
0230
,
0000
0300
0100
0010
0001
1000
0010
0000
,
1000
0000
0001
1000
0100
0020
0032
0203
,
0000
0000
0000
0000
0000
0000
0000
0300
0000
0000
0100
0000
0000
0000
0100
0000
,
0000
0100
0000
0100
0000
0100
0000
0010
,
0000
0101
0000
1001
0000
1100
0000
0011
,
0001
0000
1000
0001
0100
0010
0100
0002
,
0000
0000
1003
0001
1000
0001
0010
0000
,
0100
1000
0100
1000
0000
2000
0000
3020
,
0000
0230
0301
0100
0001
0100
0001
1000
,
0100
0010
0100
0010
0100
0010
0001
0200
,
0000
0320
0000
2030
0000
3002
0000
0000
,
1003
0100
1000
0100
1000
0100
0010
1001
;
