#TITLE:[1-Boss] B6;
#SUBTITLE:;
#ARTIST:Crappymeal;
#TITLETRANSLIT:;
#SUBTITLETRANSLIT:;
#ARTISTTRANSLIT:;
#CREDIT:;
#BANNER:../Beast 4 - bn.png;
#BACKGROUND:../Beast 4 - bg.png;
#LYRICSPATH:;
#CDTITLE:;
#MUSIC:B6.ogg;
#OFFSET:0.009;
#SAMPLESTART:63.058;
#SAMPLELENGTH:12.000;
#SELECTABLE:YES;
#BPMS:0.000=175.000;
#STOPS:;
#BGCHANGES:;
// cache tags:
#FIRSTBEAT:32.000;
#LASTBEAT:531.000;
#SONGFILENAME:Songs/Beast Aoreo BEAST! 4/B6 - [Aoreo]/B6.sm;
#HASMUSIC:1;
#HASBANNER:1;
#MUSICLENGTH:183.428;
// end cache tags

//---------------dance-single - J. Nero----------------
#NOTES:
     dance-single:
     J. Nero:
     Challenge:
     14:
     1.000,1.000,0.038,0.055,1.000,1734.000,7.000,10.000,3.000,0.000:
0000
0000
0000
0000
,
0000
0000
0000
0000
,
0000
0000
0000
0000
,
0000
0000
0000
0000
,
0000
0000
0000
0000
,
0000
0000
0000
0000
,
0000
0000
0000
0000
,
0000
0000
0000
0000
,
1000
0000
0100
0000
1000
0000
0001
0000
0100
0000
0001
0010
0100
1000
0001
0100
,
0001
0000
0100
0000
0010
0000
1000
0000
0001
0100
0001
1000
0100
1000
0001
0100
,
0001
0000
1000
0000
0100
0000
0010
0000
0001
0100
0001
1000
0100
1000
0001
0100
,
0001
0000
1000
0000
0010
0000
0100
0000
0001
1000
0100
1000
0001
0100
0001
1000
,
0001
0000
0100
0000
0001
0000
1000
0000
0100
1000
0001
0100
0001
1000
0100
1000
,
0001
0000
0010
0000
0100
0000
1000
0000
0001
0100
0001
1000
0100
1000
0001
0100
,
0001
0000
1000
0000
0010
0000
0100
0000
0001
1000
0001
0100
0001
1000
0100
1000
,
0001
0000
0010
0000
0100
0000
1000
0000
0001
0100
0001
1000
0001
1000
0100
1000
,
0001
0000
0000
0000
1000
0000
0000
0000
00M1
00M0
00M0
0000
1000
0000
0000
0000
,
0001
0000
0000
0000
0010
0000
0000
0000
0100
0000
0000
1000
0001
0000
0000
0000
,
1000
0001
0100
0001
1000
0100
0010
0001
1000
0010
0100
0001
0010
0100
1000
0001
,
1000
0010
0100
0001
1000
0100
1000
0001
0100
0010
0100
0001
0010
0100
1000
0010
,
1000
0001
1000
0100
1000
0001
0100
0001
1000
0001
0010
0100
1000
0001
1000
0001
,
1000
0010
0100
0001
1000
0001
0010
0100
1000
0001
0100
0001
0010
0100
1000
0001
,
1000
0100
1000
0001
0100
0001
0100
0010
1000
0010
0100
0001
1000
0001
0010
0100
,
1000
0001
0010
0001
1000
0010
0100
0001
0100
0010
1000
0010
0100
0001
1000
0100
,
1000
0001
0100
0001
1000
0100
0010
0001
1000
0100
1000
0001
1000
0010
0100
0001
,
1000
0001
0100
0001
1000
0100
1000
0001
1000
0001
0010
0100
1000
0000
0000
0000
,
0001
0100
0001
1000
0001
0010
0001
1000
0100
0010
0001
1000
0100
1000
0001
0010
,
0100
1000
0001
1000
0010
0100
0001
1000
0001
0010
0001
1000
0010
1000
0001
0010
,
0100
1000
0001
1000
0010
0100
0010
1000
0001
0010
0100
0010
0001
1000
0010
0100
,
0010
1000
0001
0010
0001
1000
0010
1000
0001
0010
0001
1000
0100
0010
0001
1000
,
0001
0100
0010
0100
0001
1000
0001
0100
0010
1000
0010
1000
0100
0010
0001
1000
,
0001
0100
0010
1000
0001
0100
0001
1000
0100
0010
0001
1000
0100
1000
0001
0010
,
0100
1000
0001
1000
0010
1000
0001
0010
0001
1000
0001
1000
0010
0100
0001
0100
,
0001
1000
1100
0100
0010
0001
1001
1000
,
0001
0010
0100
1000
0001
1000
0001
0010
0001
1000
0001
1000
0100
0010
0001
1000
,
0001
0100
0010
0100
0001
1000
0001
0100
0001
1000
0100
1000
0001
0010
0100
1000
,
0001
0100
0001
1000
0001
0100
0010
0100
0001
1000
0001
0100
0001
1000
0100
0010
,
0001
1000
0001
0100
0010
0100
0001
1000
0001
0100
0010
1000
0010
0100
0001
1000
,
0100
1000
0001
0010
0100
1000
0001
0010
0001
1000
0001
0100
0010
0100
0001
1000
,
0001
0100
0001
1000
0010
0100
0010
1000
0001
0100
0010
1000
0001
0100
0001
1000
,
0100
1000
0001
0010
0100
1000
0001
0010
0001
1000
0001
0100
0010
0100
0001
1000
,
0001
2000
0000
3000
0001
0100
0001
1000
0000
0100
1000
0000
0001
0000
0040
0030
,
0100
1000
0001
0100
0010
0100
0001
1000
0001
0100
0010
1000
0010
0100
0001
1000
,
0100
1000
0001
0010
0100
1000
0001
0010
0001
1000
0001
0100
0010
0100
0001
1000
,
0001
0100
0010
1000
0001
1000
0001
0100
0010
0100
0001
1000
0100
1000
0001
0010
,
0100
1000
0001
0010
0001
1000
0010
0100
0010
1000
0001
0100
0002
0000
0000
0000
,
1003
0100
1000
0001
0100
0010
0100
0001
1000
0100
0010
0001
1000
0001
0100
0001
,
1000
0010
0100
0010
1000
0001
0010
0100
1000
0001
0010
0001
1000
0100
0010
0001
,
1000
0001
0100
0010
1000
0010
0100
0001
1000
0001
0100
0001
1000
0100
1000
0001
,
0010
0100
1000
0001
0010
0001
1000
0001
0100
0010
1000
0001
2000
0000
0000
3000
,
0001
0100
0001
1000
0100
0010
0001
1000
0001
0100
0001
1000
0010
0100
0001
1000
,
0100
1000
0001
0010
0100
1000
0001
0100
0001
1000
0100
0010
0001
0100
0010
1000
,
0001
1000
0001
0010
0001
1000
0010
1000
0001
1000
0100
0010
0001
1000
0001
1000
,
0001
0100
0010
1000
0001
1000
0100
0010
0001
1000
0010
1000
0100
0010
0001
1000
,
0001
0010
0001
1000
0010
1000
0010
0100
0001
0100
0010
1000
0001
1000
0100
0010
,
0001
1000
0100
1000
0001
0100
0010
1000
0010
0100
0001
0100
0010
1000
0001
0010
,
0001
1000
0010
1000
0001
0010
0100
1000
0001
0010
0001
1000
0001
0100
0010
1000
,
0001
0000
0000
0100
0000
0000
0000
0000
0000
0000
0000
0000
0010
0000
0000
0000
0000
0000
0000
0000
0000
1000
0000
0000
0100
0000
0000
1000
0000
0000
0001
0000
0000
0000
0000
0000
0000
0000
0000
0000
0000
0000
1000
0000
0001
0000
1000
0000
,
0001
0100
0001
1000
0001
0010
0001
1000
0100
0010
0001
1000
0100
1000
0001
0010
,
0100
1000
0001
1000
0010
0100
0001
1000
0001
0010
0001
1000
0010
1000
0001
0010
,
0100
1000
0001
1000
0010
0100
0010
1000
0001
0010
0100
0010
0001
1000
0010
0100
,
0010
1000
0001
0010
0001
1000
0010
1000
0001
0010
0001
1000
0100
0010
0001
1000
,
0001
0100
0010
0100
0001
1000
0001
0100
0010
1000
0010
1000
0100
0010
0001
1000
,
0001
0100
0010
1000
0001
0100
0001
1000
0100
0010
0001
1000
0100
1000
0001
0010
,
0100
1000
0001
1000
0010
1000
0001
0010
0001
1000
0001
1000
0010
0100
0001
0100
,
0001
0000
0100
0000
0001
0000
0000
1000
0100
0000
1000
0000
0000
0000
0001
0000
,
1001
0000
1000
0000
0100
1000
0100
0000
1000
0000
0001
0100
0001
0000
0100
0010
,
0100
0000
0010
0000
1000
0100
1000
0000
0001
0000
1000
0000
0100
0010
0100
0000
,
1000
0000
0001
0000
0100
0010
0100
0000
0010
0000
1000
0001
1000
0000
0001
0100
,
0001
0000
0100
0000
0010
1000
0010
0000
1000
0000
0100
0000
0010
0001
1000
0000
,
0001
0000
0100
0000
0010
1000
0010
0000
0100
0000
0001
1000
0001
0000
1000
0100
,
1000
0000
0100
0000
0010
0001
0010
0000
0001
0000
0100
0000
0001
1000
0100
0000
,
2000
0000
0000
0000
,
3002
0000
0000
0000
0000
0000
0000
0003
,
1001
0000
1000
0000
0001
0000
0010
0000
0100
0000
1000
0010
0100
0001
1000
0100
,
1000
0000
0010
0000
0100
0000
0001
0000
1000
0100
1000
0001
0100
0001
1000
0100
,
1000
0000
0001
0000
0100
0000
0010
0000
1000
0100
1000
0001
0100
0001
1000
0100
,
1000
0000
0001
0000
0010
0000
0100
0000
1000
0001
0100
0001
1000
0100
1000
0001
,
1000
0000
0100
0000
1000
0000
0001
0000
0100
0001
1000
0100
1000
0001
0100
0001
,
1000
0000
0010
0000
0100
0000
0001
0000
1000
0100
1000
0001
0100
0001
1000
0100
,
1000
0000
0001
0000
0010
0000
0100
0000
1000
0001
1000
0100
1000
0001
0100
0001
,
1000
0000
0010
0000
0100
0000
0001
0000
1000
0100
1000
0001
1000
0001
0100
0001
,
1000
0001
1000
0001
,
1000
0000
0000
0000
0100
0000
0000
0000
0010
0000
0000
0001
1000
0000
0000
0000
,
0001
1000
0010
1000
0001
0010
0100
1000
0001
0100
0010
1000
0100
0010
0001
1000
,
0001
0100
0010
1000
0001
0010
0001
1000
0010
0100
0010
1000
0100
0010
0001
0100
,
0001
1000
0001
0010
0001
1000
0010
1000
0001
1000
0100
0010
0001
1000
0001
1000
,
0001
0100
0010
1000
0001
1000
0100
0010
0001
1000
0010
1000
0100
0010
0001
1000
,
0001
0010
0001
1000
0010
1000
0010
0100
0001
0100
0010
1000
0001
1000
0100
0010
,
0001
1000
0100
1000
0001
0100
0010
1000
0010
0100
0001
0100
0010
1000
0001
0010
,
0001
1000
0010
1000
0001
0010
0100
1000
0001
0010
0001
1000
0001
0100
0010
1000
,
0001
1000
0010
1000
0001
0010
0001
1000
0001
1000
0100
0010
0001
0000
0000
0000
,
1000
0010
1000
0001
1000
0100
1000
0001
0010
0100
1000
0001
0010
0001
1000
0100
,
0010
0001
1000
0001
0100
0010
1000
0001
1000
0100
1000
0001
0100
0001
1000
0100
,
0010
0001
1000
0001
0100
0010
0100
0001
1000
0100
0010
0100
1000
0001
0100
0010
,
0100
0001
1000
0100
1000
0001
0100
0001
1000
0100
1000
0001
0010
0100
1000
0001
,
1000
0010
0100
0010
1000
0001
1000
0010
0100
0001
0100
0001
0010
0100
1000
0001
,
1000
0010
0100
0001
1000
0010
1000
0001
0010
0100
1000
0001
0010
0001
1000
0100
,
0010
0001
1000
0001
0100
0001
1000
0100
1000
0001
1000
0001
0100
0010
1000
0010
,
1000
0001
0011
0010
0100
1000
1001
0001
,
1000
0100
0010
0001
1000
0001
1000
0100
1000
0001
1000
0001
0010
0100
1000
0001
,
1000
0010
0100
0010
1000
0001
1000
0010
1000
0001
0010
0001
1000
0100
0010
0001
,
1000
0010
1000
0001
1000
0010
0100
0010
1000
0001
1000
0010
1000
0001
0010
0100
,
1000
0001
1000
0010
0100
0010
1000
0001
1000
0010
0100
0001
0100
0010
1000
0001
,
0010
0001
1000
0100
0010
0001
1000
0100
1000
0001
1000
0010
0100
0010
1000
0001
,
1000
0010
1000
0001
0100
0010
0100
0001
1000
0010
0100
0001
1000
0010
1000
0001
,
0010
0001
1000
0100
0010
0001
1000
0100
1000
0001
1000
0010
0100
0010
1000
0001
,
1000
0002
0000
0003
1000
0010
1000
0001
0000
0010
0001
0000
1000
0000
0400
0300
,
0010
0001
1000
0010
0100
0010
1000
0001
1000
0010
0100
0001
0100
0010
1000
0001
,
0010
0001
1000
0100
0010
0001
1000
0100
1000
0001
1000
0010
0100
0010
1000
0001
,
1000
0010
0100
0001
1000
0001
1000
0010
0100
0010
1000
0001
0010
0001
1000
0100
,
0010
0001
1000
0100
1000
0001
0100
0010
0100
0001
1000
0010
2000
0000
0000
0000
,
3001
0010
0001
1000
0010
0100
0010
1000
0001
0010
0100
1000
0001
1000
0010
1000
,
0001
0100
0010
0100
0001
1000
0100
0010
0001
1000
0100
1000
0001
0010
0100
1000
,
0001
1000
0010
0100
0001
0100
0010
1000
0001
1000
0010
1000
0001
0010
0001
1000
,
0100
0010
0001
1000
0100
1000
0001
1000
0010
0100
0001
1000
0002
0000
0000
0003
,
1000
0010
1000
0001
0010
0100
1000
0001
1000
0010
1000
0001
0100
0010
1000
0001
,
0010
0001
1000
0100
0010
0001
1000
0010
1000
0001
0010
0100
1000
0010
0100
0001
,
1000
0001
1000
0100
1000
0001
0100
0001
1000
0001
0010
0100
1000
0001
1000
0001
,
1000
0010
0100
0001
1000
0001
0010
0100
1000
0001
0100
0001
0010
0100
1000
0001
,
1000
0100
1000
0001
0100
0001
0100
0010
1000
0010
0100
0001
1000
0001
0010
0100
,
1000
0001
0010
0001
1000
0010
0100
0001
0100
0010
1000
0010
0100
0001
1000
0100
,
1000
0001
0100
0001
1000
0100
0010
0001
1000
0100
1000
0001
1000
0010
0100
0001
,
1000
0000
0000
0100
0000
0000
0000
0000
0000
0000
0000
0000
1000
0000
0000
0000
0000
0000
0000
0000
0000
0001
0000
0000
0100
0000
0000
0001
0000
0000
1000
0000
0000
0000
0000
0000
0000
0000
0000
0000
0000
0000
0001
0000
1000
0000
0001
0000
,
1000
0010
1000
0001
1000
0100
1000
0001
0010
0100
1000
0001
0010
0001
1000
0100
,
0010
0001
1000
0001
0100
0010
1000
0001
1000
0100
1000
0001
0100
0001
1000
0100
,
0010
0001
1000
0001
0100
0010
0100
0001
1000
0100
0010
0100
1000
0001
0100
0010
,
0100
0001
1000
0100
1000
0001
0100
0001
1000
0100
1000
0001
0010
0100
1000
0001
,
1000
0010
0100
0010
1000
0001
1000
0010
0100
0001
0100
0001
0010
0100
1000
0001
,
1000
0010
0100
0001
1000
0010
1000
0001
0010
0100
1000
0001
0010
0001
1000
0100
,
0010
0001
1000
0001
0100
0001
1000
0100
1000
0001
1000
0001
0100
0010
1000
0010
,
1000
0000
0001
0000
0100
0000
0000
0001
1000
0000
0100
0000
1000
0001
0100
0000
,
0202
0000
0000
0303
;
