#TITLE:Dignity;
#SUBTITLE:Full Version;
#ARTIST:Crash;
#TITLETRANSLIT:;
#SUBTITLETRANSLIT:;
#ARTISTTRANSLIT:;
#CREDIT:;
#BANNER:Dignity-banner.png;
#BACKGROUND:Dignity-bg.png;
#LYRICSPATH:;
#CDTITLE:;
#MUSIC:dignityfull.ogg;
#OFFSET:0.789;
#SAMPLESTART:22.541;
#SAMPLELENGTH:18.000;
#SELECTABLE:YES;
#BPMS:0.000=195.000,408.000=198.000,411.000=195.000,445.000=390.000,446.000=195.000;
#STOPS:445.000=0.154
;
#BGCHANGES:-10000.000=songbackground=1.000=0=0=1,
99999=-nosongbg-=1.000=0=0=0 // don't automatically add -songbackground-
;
// cache tags:
#FIRSTBEAT:4.000;
#LASTBEAT:496.625;
#SONGFILENAME:Songs/Index Tournament 1/Dignity Full Version/dignityfull.sm;
#HASMUSIC:1;
#HASBANNER:1;
#MUSICLENGTH:155.010;
// end cache tags

//---------------dance-single - I. Pyles----------------
#NOTES:
     dance-single:
     I. Pyles:
     Challenge:
     14:
     1.000,1.000,1.000,1.000,1.000,1283.000,169.000,410.000,13.000,134.000:

0000
0000
0000
0000
,
1111
0000
0000
0000
,
1000
0000
0100
0000
0010
0000
0100
0000
1000
0001
1000
0001
0100
0010
0100
0010
,
1000
0000
0010
0000
0110
0000
1001
0000
0001
0000
0010
0100
0010
0100
1000
0000
,
0001
0100
0001
1000
0100
0010
0001
0000
2000
0000
0200
0000
3020
0000
0302
0000
,
1030
0000
0013
0100
0010
0100
0001
0000
1000
0000
1010
0000
0101
0000
1000
0000
,
0002
0003
0200
0300
0002
0003
0000
0000
2000
3000
0200
0300
2000
3000
0000
0000
0002
0003
0200
0300
0002
0003
1000
0000
0010
0000
1000
0000
0001
0000
1000
0000
,
0001
0000
1000
0000
1001
0000
1010
0000
1000
0000
0001
1000
0100
1000
0001
0000
,
0100
0010
1000
0001
0010
0100
1000
0000
0002
0000
0200
0000
0023
0000
2300
0000
,
0031
0000
3010
0100
0010
0100
1000
0000
0001
0000
0011
0000
1100
0000
0001
0000
,
2000
3000
0200
0300
2000
3000
0000
0000
0002
0003
0020
0030
0002
0003
0000
0000
2000
3000
0200
0300
2000
3000
0001
0000
0100
0000
0010
0000
1000
0000
0001
0000
,
1000
0000
0001
0000
1001
0000
0101
0000
0001
0000
1000
0100
1000
0100
0010
0000
,
0001
1000
0001
0100
0010
1000
0001
0000
0020
0000
0200
0000
2030
0000
0302
0000
,
3100
0000
0013
1000
0010
1000
0001
0000
1000
0000
1001
0000
0110
0000
1000
0000
,
0002
0003
2000
3000
0200
0300
0000
0000
2000
3000
0002
0003
0200
0300
0000
0000
0002
0003
2000
3000
0200
0300
0010
0000
0001
0000
1000
0000
0010
0000
0100
0000
,
0001
0000
0100
0000
0101
0000
1001
0000
0001
0000
1000
0001
0010
0001
1000
0000
,
0100
0010
0001
1000
0001
0010
0001
0000
2000
0000
0020
0000
3200
0000
0032
0000
,
1300
0000
0103
0010
0100
1000
0001
0000
1000
0000
1100
0000
1001
0000
1000
0000
,
0001
0100
0001
1000
0100
1000
0001
0010
0001
1000
0010
1000
0001
0100
0010
0100
,
0002
0000
1000
0003
0100
0010
0100
0000
1000
0000
0001
0000
0211
0000
0000
0300
,
2011
0000
0001
3000
0010
0100
0010
0000
0001
0000
1000
0000
2101
0000
0000
3000
,
0121
0000
0001
0030
1000
0100
1000
0000
0001
0000
0100
0000
2011
0000
0000
3000
,
0211
0000
0001
1300
0001
0010
0100
0010
0001
0010
0001
1000
0100
1000
0001
1000
,
0002
0000
2003
0000
3020
0000
0130
0001
0100
0010
1000
0001
0010
0100
1000
0001
,
2000
0000
3200
0000
0320
0000
0130
1000
0001
0100
0010
1000
0001
0100
0001
1000
,
0002
0000
2003
0000
3200
0000
0310
0001
0010
0100
1000
0001
0100
0001
1000
0010
,
2000
0000
3002
0000
0203
0000
0310
1000
0001
0010
0100
1000
0001
0010
0100
1000
,
0001
0000
1000
0000
1001
0000
0101
0000
0100
0000
0010
1000
0010
0100
0010
0000
,
1000
0001
0010
0100
0010
0001
1000
0000
0200
0000
0020
0000
0302
0000
2030
0000
,
0013
0000
3100
0001
0100
0001
1000
0000
0001
0000
1001
0000
1100
0000
1000
0000
,
0002
0003
2000
3000
0200
0300
0000
0000
0020
0030
0002
0003
2000
3000
0000
0000
0002
0003
2000
3000
0200
0300
0010
0000
0001
0000
1000
0000
0010
0000
1000
0000
,
0001
0000
1000
0000
1100
0000
1001
0000
0001
0000
0100
0001
0100
0010
0100
0000
,
0010
1000
0001
0010
0100
1000
0001
0000
0200
0000
0020
0000
2300
0000
0032
0000
,
3010
0000
0103
1000
0100
1000
0001
0000
1000
0000
0101
0000
1010
0000
0001
0000
,
2000
3000
0200
0300
0020
0030
0000
0000
0002
0003
0020
0030
0200
0300
0000
0000
2000
3000
0200
0300
0020
0030
0001
0000
1000
0000
0001
0000
0100
0000
0001
0000
,
1000
0000
0010
0000
0110
0000
0101
0000
0001
0000
1000
0100
1000
0001
1000
0000
,
0001
0100
0010
1000
0001
1000
0010
0000
2000
0000
0002
0000
3020
0000
0203
0000
,
1030
0000
0301
1000
0001
1000
0100
0000
0010
0000
1100
0000
1001
0000
1000
0000
,
0002
0003
0200
0300
0020
0030
0000
0000
2000
3000
0020
0030
0200
0300
0000
0000
0002
0003
0200
0300
0020
0030
1000
0000
0001
0000
0010
0000
0100
0000
1000
0000
,
0001
0000
0100
0000
0110
0000
1010
0000
1000
0000
0001
0010
0100
0010
0001
0000
,
1000
0100
0010
0001
1000
0001
0010
0000
0200
0000
2000
0000
0302
0000
3020
0000
,
0103
0000
1030
0001
0100
0010
1000
0000
0001
0000
0110
0000
1100
0000
0001
0000
,
1000
0100
1000
0001
0010
0001
1000
0100
1000
0001
0100
0001
1000
0001
0100
0001
,
2000
0000
0001
3000
0100
0010
1000
0000
0001
0000
1000
0000
2101
0000
0000
3000
,
0121
0000
0001
0030
1000
0010
0100
0000
0001
0000
1000
0000
2011
0000
0000
3000
,
0211
0000
0010
0300
1000
0001
0010
0000
0100
0000
0010
0000
0121
0000
0000
0030
,
2101
0000
0001
3000
1000
0001
0100
0000
0010
1000
0001
0000
0010
0100
1000
0000
,
1210
0000
1000
0300
0001
1000
0001
0000
1000
0100
1000
0000
2101
0000
0000
3000
,
0121
0000
1000
0030
0001
0100
0010
0000
0100
0000
0100
0000
0211
0000
0000
0300
,
2011
0000
0010
3000
1000
0001
0100
0000
0010
0000
1000
0000
2011
0000
0000
3000
,
0001
1000
0001
0100
0010
1000
0001
1000
0100
0010
0001
1000
0001
0010
0001
1000
,
0002
0000
2003
0000
3020
0000
0130
0001
1000
0100
1000
0001
1000
0001
0100
0010
,
2000
0000
3002
0000
0023
0000
0130
0010
0001
1000
0010
1000
0001
0100
0001
1000
,
0020
0000
2030
0000
3002
0000
0103
0010
1000
0001
0010
0100
1000
0100
1000
0001
,
0100
0020
0230
0301
1001
1001
1001
1001
,
2022
3033
0000
0000
2022
3033
0000
0000
0000
0000
0000
0000
0222
0333
0000
0000
0222
0333
0000
0000
0000
0000
0000
0000
2022
3033
0000
0000
2022
3033
0000
0000
,
0000
0000
0000
0000
,
2202
3303
0000
0000
2202
3303
0000
0000
0000
0000
0000
0000
0222
0333
0000
0000
0222
0333
0000
0000
0000
0000
0000
0000
2202
3303
0000
0000
2202
3303
0000
0000
,
1000
1000
0001
0001
0110
0110
1010
1010
,
1011
0000
1000
0000
0100
0000
0010
0000
0100
0000
1000
0100
1000
0000
0001
0000
,
2202
3303
0000
0000
2202
3303
0000
0000
0000
0000
0000
0000
0222
0333
0000
0000
0222
0333
0000
0000
0000
0000
0000
0000
2202
3303
0000
0000
2202
3303
0000
0000
,
1001
0001
0100
0100
0001
0001
0100
0100
,
0001
0000
0001
0000
0010
0000
0010
0000
0001
1000
0001
1000
0001
0000
0010
0000
,
1011
0000
1000
0000
0001
0000
0010
0100
0010
0000
0100
0000
1000
0000
0100
0000
,
2202
3303
0000
0000
2202
3303
0000
0000
0000
0000
0000
0000
0222
0333
0000
0000
0222
0333
0000
0000
0000
0000
0000
0000
2202
3303
0000
0000
2202
3303
0000
0000
,
1001
0001
1000
1000
0100
0100
1000
1000
,
0001
0000
0001
0000
0010
0000
0010
0000
0100
1000
0100
1000
0100
0000
0010
0000
,
0111
0000
0001
0000
1000
0000
0010
0100
0010
0000
0100
0000
0010
0000
1000
0000
,
2220
3330
0000
0000
2220
3330
0000
0000
0000
0000
0000
0000
2202
3303
0000
0000
2202
3303
0000
0000
0000
0000
0000
0000
2220
3330
0000
0000
2220
3330
0000
0000
,
1010
1000
0001
0001
0100
0100
0010
0010
,
1000
0000
1000
0000
0010
0000
0010
0000
1000
0001
1000
0001
1000
0000
0100
0000
,
1101
0000
1000
0000
0100
0000
0010
0001
0010
0000
0001
0000
1000
0000
0010
0000
,
2220
3330
0000
0000
2220
3330
0000
0000
0000
0000
0000
0000
2202
3303
0000
0000
2202
3303
0000
0000
0000
0000
0000
0000
2220
3330
0000
0000
2220
3330
0000
0000
,
1010
1000
0001
0001
0100
0100
0010
0010
,
0100
0000
0100
0000
0001
0000
0001
0000
1000
0100
1000
0100
1000
0000
0001
0000
,
1000
0000
0100
0000
0010
0000
0001
0000
1000
0000
0000
0000
2002
3003
0000
0000
2022
3033
0000
0000
0000
0000
0000
0000
0222
0333
0000
0000
0222
0333
0000
0000
,
0000
0000
0000
0000
2022
3033
0000
0000
2022
3033
0000
0000
1000
0000
0001
0000
0100
0000
0000
0000
0010
0000
0000
0000
1000
0000
0000
0000
0100
0000
0000
0000
,
1000
0000
0001
0000
0010
0000
0100
0000
1000
0000
0000
0000
2002
3003
0000
0000
2202
3303
0000
0000
0000
0000
0000
0000
2220
3330
0000
0000
2220
3330
0000
0000
,
0000
0000
0000
0000
2202
3303
0000
0000
2202
3303
0000
0000
0001
0000
1000
0000
0100
0000
0000
0000
0010
0000
0000
0000
0001
0000
0000
0000
0100
0000
0000
0000
,
0010
0000
1000
0000
0001
0000
0100
0000
0010
0000
0000
0000
2020
3030
0000
0000
2022
3033
0000
0000
0000
0000
0000
0000
0222
0333
0000
0000
0222
0333
0000
0000
,
0000
0000
0000
0000
2022
3033
0000
0000
2022
3033
0000
0000
1000
0000
0100
0000
0010
0000
0000
0000
0001
0000
0000
0000
0100
0000
0000
0000
0010
0000
0000
0000
,
1000
0000
0001
0000
0010
0000
0100
0000
0010
0000
0000
0000
0220
0330
0000
0000
0222
0333
0000
0000
0000
0000
0000
0000
2202
3303
0000
0000
2202
3303
0000
0000
,
0000
0000
0000
0000
0222
0333
0000
0000
0222
0333
0000
0000
0001
0000
0000
0000
1001
0000
0000
0000
1000
0000
0000
0000
1100
0000
0000
0000
0100
0000
0000
0000
,
1001
0000
0000
0000
1000
0000
0000
0000
0100
0000
0000
0000
0010
0000
0000
0001
0000
0000
1000
0000
0000
0010
0000
0000
0100
0000
0000
0000
0001
0000
0000
0000
1000
0000
0000
0000
0010
0000
0000
0000
0100
0000
0000
0000
0001
0000
0000
0000
,
1000
0000
0000
0000
0100
0000
0000
0000
0010
0000
0000
0000
0001
0000
0000
1000
0000
0000
0010
0000
0000
0100
0000
0000
0001
0000
0000
0000
0100
0000
0000
0000
0010
0000
0000
0000
1000
0000
0000
0000
0001
0000
0000
0000
0100
0000
0000
0000
,
0001
1000
0100
1000
0001
0100
0001
1000
0020
0000
1030
0100
1000
0100
1000
0100
,
0010
0000
0001
0000
0100
0000
0010
0000
1000
0000
0001
0100
0001
0000
1000
0000
,
0001
0100
0001
0100
0001
0000
1000
0000
0100
0000
0010
0000
0100
1000
0100
1000
,
0100
0000
0010
0000
0001
0000
0100
0000
0010
0000
1000
0100
1000
0100
1000
0100
,
1000
0000
0001
0000
1000
0001
1000
0001
1000
0001
1000
0000
0001
0100
0001
0100
,
0001
0100
0001
0100
0001
0100
0001
0000
1000
0000
0100
0010
0100
0000
1000
0000
,
0001
0100
0001
0100
0001
0000
1000
0000
0100
0000
0010
0000
0001
0100
0001
0100
,
0001
0000
1000
0100
1000
0100
1000
0000
0010
0000
1000
0001
1000
0001
1000
0000
,
1001
0000
0001
0000
0100
0010
1000
0000
0001
0100
0001
1000
0001
0100
0010
1000
,
0001
0100
0001
1000
0001
0100
0001
1000
0001
0100
0001
1000
0001
0100
0001
1000
,
0010
0100
0010
1000
0010
0100
0010
1000
0010
0100
0010
1000
0010
0100
0010
1000
,
0001
1000
0010
1000
0001
1000
0010
1000
0001
1000
0010
1000
0001
1000
0010
1000
,
0001
0100
0001
1000
0001
0100
0001
1000
0001
0100
0001
1000
0001
0100
0001
1000
,
0001
0100
0001
0100
0010
1000
0001
0100
0001
0100
0010
1000
0001
0100
0001
0100
,
0010
1000
0010
1000
0001
0100
0010
1000
0010
1000
0001
0100
0010
1000
0010
1000
,
0001
0010
0001
0010
0100
1000
0001
0010
0001
0010
0100
1000
0001
0010
0001
0010
,
0100
1000
0001
0010
0100
1000
0100
1000
0001
0010
0100
1000
0100
1000
0001
1000
,
0020
0000
0000
0030
,
1111
0000
0001
0000
0100
0000
0010
0000
1000
0001
1000
0001
0010
0100
0010
0100
,
1000
0000
0001
0000
1001
0000
1001
0000
1000
0000
0001
0100
0001
1000
0001
0000
,
1000
0100
1000
0001
1000
0010
1000
0000
0002
0000
0200
0000
0023
0000
2300
0000
,
0031
0000
3010
0100
1000
0001
0010
0000
0100
0000
1100
0000
1001
0000
1000
0000
,
0002
0003
0200
0300
0020
0030
0000
0000
2000
3000
0200
0300
0020
0030
0000
0000
0002
0003
0200
0300
0020
0030
1000
0000
0001
0000
1000
0000
0100
0000
0010
0000
,
0001
0000
0010
0000
0011
0000
0110
0000
0010
0000
0001
0010
0100
1000
0100
0000
,
1000
0001
0100
0010
0100
0001
1000
0000
0002
0000
0020
0000
0203
0000
2030
0000
,
0301
0000
3100
0010
1000
0001
0100
0000
0010
0000
1010
0000
1001
0000
0001
0000
,
2000
3000
0200
0300
2000
3000
0100
0000
1100
0000
0000
0000
0000
0000
0000
0000
1001
0000
0000
0000
0001
0000
0100
0000
0001
0000
0100
0000
0001
0000
0100
0000
,
0010
0000
1000
0000
1010
0000
1010
0000
1000
0000
0001
1000
0001
0100
0001
0000
,
1000
0010
0100
0010
1000
0001
0100
0000
0020
0000
2000
0000
0032
0000
3200
0000
,
0013
0000
1300
0001
1000
0100
1000
0000
0001
0000
0011
0000
0011
0000
0001
0000
,
2000
3000
0200
0300
0020
0030
0000
0000
0001
0000
0020
0030
0200
0300
0000
0000
2000
3000
0200
0300
0020
0030
0001
0000
1000
0000
0001
0000
0010
0000
0001
0000
,
1000
0000
0001
0000
0101
0000
0101
0000
0001
0000
1000
0100
0010
0100
1000
0000
,
0001
0010
0100
0010
0001
1000
0010
0000
0200
0000
0002
0000
2300
0000
0023
0000
,
3100
0000
0031
1000
0100
0010
0001
0000
1000
0000
1100
0000
1100
0000
1000
0000
,
0200
0300
2000
3000
0200
0300
0000
0000
0020
0030
0002
0003
0020
0030
0000
0000
0200
0300
2000
3000
0200
0300
0010
0000
0001
0000
1000
0000
0001
0000
1000
0000
,
1001
0000
M000
0M00
00M0
000M
M000
0M00
00M0
000M
M000
0M00
00M0
000M
M000
0000
,
2022
3033
0000
0000
2022
3033
0000
0000
0000
0000
0000
0000
0222
0333
0000
0000
0222
0333
0000
0000
0000
0000
0000
0000
2022
3033
0000
0000
2022
3033
0000
0000
,
0000
0000
0000
0000
2222
3333
0000
0000
2222
3333
0000
0000
0000
0000
0000
0000
2202
3303
0000
0000
2202
3303
0000
0000
0000
0000
0000
0000
2220
3330
0000
0000
,
2220
3330
0000
0000
0000
0000
0000
0000
2202
3303
0000
0000
2202
3303
0000
0000
0000
0000
0000
0000
2220
3330
0000
0000
2220
3330
0000
0000
0000
0000
0000
0000
,
2222
3333
0000
0000
2222
3333
0000
0000
0000
0000
0000
0000
0000
0000
0000
0000
0000
0000
0000
0000
0000
0000
0000
0000
0000
0000
0000
0000
0000
0000
0000
0000
;
