#TITLE:Destination Helios;
#SUBTITLE:;
#ARTIST:ZETA vs. Renard;
#TITLETRANSLIT:;
#SUBTITLETRANSLIT:;
#ARTISTTRANSLIT:;
#CREDIT:;
#BANNER:helios bn.png;
#BACKGROUND:helios bg.png;
#LYRICSPATH:;
#CDTITLE:mootz cdtitle 2.png;
#MUSIC:helios.ogg;
#OFFSET:0.000;
#SAMPLESTART:4.593;
#SAMPLELENGTH:12.000;
#SELECTABLE:YES;
#BPMS:0.000=209.000,12.000=418.000,16.000=209.000,144.000=104.500,167.000=209.000,298.000=104.500,318.000=52.250;
#STOPS:12.000=0.144
,13.000=0.144
,14.000=0.036
,14.250=0.036
,14.500=0.036
,14.750=0.036
,15.000=0.036
,15.250=0.036
,15.500=0.036
,15.750=0.036
,167.000=0.287
,232.000=0.861
,297.000=0.861
;
#BGCHANGES:;
// cache tags:
#FIRSTBEAT:0.000;
#LASTBEAT:319.250;
#SONGFILENAME:Songs/SSSC Pack 2/Destination Helios - [Mootz]/helios.sm;
#HASMUSIC:1;
#HASBANNER:1;
#MUSICLENGTH:112.198;
// end cache tags

//---------------dance-single - Mootz----------------
#NOTES:
     dance-single:
     Mootz:
     Challenge:
     14:
     1.000,1.000,0.588,0.285,1.000,763.000,66.000,32.000,73.000,0.000:




MMMM
0000
0000
0000
,
0000
0000
0000
0000
,
MMMM
0000
0000
0000
,
MMMM
0000
0000
0000
MMMM
0000
0000
0000
000M
M000
0M00
00M0
000M
00M0
0M00
M000
,
0001
0000
0100
0000
0010
0000
1000
0000
0001
0000
0010
0000
0100
1000
0100
1000
,
0001
0000
0100
0000
0010
0000
1000
0000
0001
0100
0001
0000
1000
0010
1000
0000
,
0001
0000
0010
0000
0100
0000
1000
0000
0001
0000
1000
0010
1000
0000
0001
0000
,
0100
0000
0010
0000
1000
0000
0001
0000
1000
0010
0100
0001
1000
0000
0001
0000
,
1001
0000
1000
0000
1001
0000
0001
0000
0010
0000
0100
0000
1000
0100
1000
0100
,
0010
0000
0000
0000
0001
0000
0000
0000
1000
0000
0000
0000
2020
0000
0000
0000
3000
0000
0000
0030
1000
0000
0000
0000
0001
0000
0000
0000
0010
0000
0000
0000
,
0022
0000
0000
0000
0000
0000
0000
0033
0012
0000
0000
0000
0013
0000
0000
0000
0100
0000
0000
0000
1000
0000
0000
0000
2020
0000
0000
0000
0000
0000
0000
3030
,
1020
0000
1030
0000
0100
0010
0001
1000
0004
0000
0103
0000
0010
0000
1000
0000
,
0001
0000
0100
0001
0100
0000
0010
0000
1000
0001
1000
0000
0100
0000
0010
0000
,
0100
0000
0000
0000
1000
0000
0000
0000
0001
0000
0000
0000
0100
0000
0000
0000
0010
0000
0000
0000
1000
0000
0000
0000
2002
0000
0000
0000
0000
0000
0000
3003
,
2001
0000
3001
0000
0010
0000
0100
1000
0100
1000
0001
1000
0001
0000
0100
0000
,
0010
1000
0010
1000
0001
0000
0010
0000
0120
0000
0130
0000
1000
0001
1000
0001
,
1000
0000
0000
0000
0010
0000
0000
0000
0001
0000
0000
0000
0010
0000
0000
0000
1000
0000
0000
0000
0100
0000
0000
0000
0040
0000
0000
0000
0000
0000
0000
0030
,
2002
0000
3003
0202
0000
0303
2001
0000
3001
0100
0001
0000
1000
0000
1000
0000
,
0001
0000
1000
0100
1000
0000
0001
0000
0100
0010
0000
0010
1000
0000
0001
0000
,
1000
0100
0010
0100
1000
0001
0400
0000
,
0301
0000
1000
0000
0100
0000
0010
0001
0000
0001
1000
0000
0040
0000
0430
0000
,
0310
0000
1000
0000
0001
0000
0010
0100
1000
0000
0001
0000
4000
0000
3001
0000
,
1000
0000
0001
0000
0100
0000
0010
1000
0000
1000
0001
0000
0010
0000
0100
0000
,
1000
0100
0010
0000
0001
0010
0100
0000
1000
0001
0100
0000
0010
1000
0001
0000
,
1000
0000
0010
0000
0100
0000
0001
0010
0000
0010
0100
0000
1000
0000
0001
0000
,
1000
0000
0010
0000
0100
0000
0001
1000
0001
1000
0001
0000
0010
0000
0001
0000
,
1000
0000
0010
0000
0100
0000
0001
1000
0000
1000
0100
0000
0010
0100
1000
0000
,
0001
0100
0010
1000
0010
0100
0001
1000
0001
0010
0100
1000
0100
0010
0001
1000
,
0001
0010
0001
0010
0100
1000
0100
1000
0001
0100
0010
1000
0010
0100
0001
1000
,
0001
0010
0100
1000
0100
0010
0001
1000
0001
0100
0010
1000
0001
1000
0010
0100
,
0001
1000
0100
0010
0001
0010
0100
1000
0001
1000
0010
0100
0001
0100
0010
1000
,
0001
0010
0001
0010
0100
0010
0100
0010
0100
1000
0100
1000
0001
1000
0001
1000
,
0001
0100
0010
1000
0001
1000
0010
0100
0001
0010
0100
1000
0001
1000
0100
0010
,
0001
1000
0001
1000
0010
0100
0010
0100
0001
1000
0010
0100
0010
0100
0001
1000
,
0001
0010
0100
1000
0001
0010
0100
1000
0001
0100
0010
1000
0001
0100
0010
0100
,
0001
1000
0001
1000
0001
0100
0001
0100
0010
0100
0010
0100
0010
1000
0010
1000
,
0002
0000
0003
0000
,
MMMM
0000
0000
0000
0000
0000
0000
0000
0000
0000
0000
0000
0000
0000
0000
0000
0000
0000
0000
0000
0000
0000
0000
0000
0000
0000
0000
0000
0000
0000
0100
0010
,
1M00
0000
0001
1000
0000
0000
1001
0000
0000
0001
0000
0010
010M
0000
0010
0100
0000
0000
0110
0000
0000
0010
0000
0001
,
01M0
0000
0001
0100
0000
0000
0101
0000
0000
0001
0000
1000
010M
0000
1000
0100
0000
0000
11M0
0000
0000
1000
0000
0000
,
0M01
0000
1000
0001
0000
0000
1001
0000
0000
1000
0000
0100
M010
0000
0100
0010
0000
0000
0110
0000
0000
0100
0000
0000
,
10M0
0000
0001
1000
0000
0000
1001
0000
0000
0001
0000
0100
M010
0000
0100
0010
0000
0000
M11M
0000
0000
0000
0000
0000
,
0010
1000
0010
0000
1000
0000
0001
0000
0010
0100
0010
0000
0001
0000
1000
0000
,
0004
0000
0000
0000
0103
0000
0010
1000
0001
0000
0010
0000
0100
0000
1000
0000
,
0001
0100
0001
0100
0010
0000
1000
0100
1000
0100
1000
0100
0010
0000
0004
0000
,
1003
0000
0010
0000
1000
0000
0010
0000
0100
0000
0001
0000
0100
0000
0001
0000
4000
0000
0000
0000
0000
0000
0000
3000
0101
0000
0000
0000
0001
0000
0000
0000
,
1000
0100
1000
0000
1001
0000
0001
0000
0100
0010
0100
0000
0001
0000
1000
0000
,
0400
0000
0000
0000
0000
0000
0000
0300
0011
0000
0000
0000
0001
0000
0000
0000
1000
0000
0010
0000
1000
0000
0000
0000
0001
0000
0100
0000
0001
0000
1000
0000
,
0010
0000
0010
0000
1000
0100
0010
0000
0001
0000
0100
0000
0001
0000
0100
0000
,
0010
0000
0000
0000
1000
0000
0000
0000
0004
0000
0000
0000
0000
0000
0000
0000
0013
0000
0000
0000
0100
0000
0000
0000
4000
0000
0000
0000
0000
0000
0000
3000
,
0101
0100
0010
1000
0004
0000
0013
0100
,
1100
0000
0000
0000
1100
0000
0000
0000
1000
0100
0010
0000
0001
1000
0010
0100
,
0004
0000
1003
0001
0010
0001
1000
0010
,
0100
0000
0000
0000
0010
0000
0000
0000
0001
0000
0000
0000
0010
0000
0000
0000
0200
0000
0000
0000
0000
0000
0000
0300
2002
0000
0000
0000
0003
0000
0000
0000
,
3001
0010
1000
0010
0001
0100
1000
0100
,
0010
0000
0010
0000
1000
0000
0001
0010
0100
1000
0001
0000
1001
0000
1000
0000
,
0010
0100
0101
0001
0010
0100
1100
1000
,
0100
0010
0001
0000
0011
0000
0010
0100
1000
0000
1001
0000
0001
0100
0010
1000
,
0002
0003
0000
0000
1000
0000
1000
0000
1001
0000
0001
0000
1000
0000
1001
0000
,
0001
0100
0010
0000
1010
0000
1000
0000
0100
0000
0110
0000
0010
0001
1000
0000
,
0010
0000
1010
0000
1000
0000
0100
0000
0010
0000
0001
0000
1001
0000
1000
0010
,
0100
0000
0001
0000
1000
0000
0000
0000
1010
0000
0000
0000
0010
0000
0000
0000
0100
0000
0000
0000
0101
0000
0000
0000
0002
0000
0000
0000
0000
0000
0000
0003
,
1010
0000
1010
1000
0100
0010
0100
1000
,
0001
1000
0001
1000
0001
0000
0100
0000
0010
0000
1010
0000
1000
0000
0001
0000
,
0010
0000
0000
0000
0010
0000
0000
0000
0110
0000
0000
0000
0100
0000
0000
0000
4000
0000
0000
0000
3001
0000
0000
0000
0000
0000
0202
0000
0000
0000
0000
0303
,
1000
0000
0000
0000
0001
0000
0100
0000
0110
0000
0010
1000
0004
0000
0000
0000
,
0013
0000
0100
0000
1000
0010
1000
0010
1000
0010
1000
0010
1000
0010
1000
0010
,
1000
0010
1000
0010
0100
0001
0100
0001
0100
0001
0100
0001
0100
0001
0100
0001
,
0100
0001
0100
0001
1000
0100
1000
0100
1000
0100
1000
0100
1000
0100
1000
0100
,
1000
0100
1000
0100
0010
0001
0010
0001
0010
0001
0010
0001
0010
0001
0010
0001
,
0010
0001
0010
0001
1000
0001
1000
0001
1000
0001
1000
0001
1000
0001
1000
0001
,
1000
0001
1000
0001
0100
0010
0100
0010
0100
0010
0100
0010
0100
0010
0100
0010
,
0100
0010
0100
0010
1000
0001
1000
0001
1000
0001
1000
0001
1000
0001
1000
0001
,
1000
0001
1000
0001
0010
0100
0010
0100
0010
0100
0010
0100
0010
0100
0010
0100
,
0010
0100
0010
0100
0020
0030
0000
0000
MMMM
0000
MMMM
0000
M000
0M00
00M0
000M
,
00M0
0000
0M00
0000
M000
0000
0M00
0000
00M0
0000
000M
0000
00M0
0000
0M00
0000
2000
3000
0000
0000
0000
0000
0000
0000
2000
0000
3000
0000
0000
0000
0000
0000
,
2000
0000
0000
0000
0000
0000
0000
0000
0000
0000
0000
0000
0000
0000
0000
0000
0000
0000
0000
0000
0000
0000
0000
0000
3000
0000
0000
0000
0000
0000
0000
0000
0000
0000
0000
0000
0000
0000
0000
0000
0000
0000
0000
0000
0000
0000
0000
0000
2000
0000
0000
0000
0000
0000
0000
0000
0000
0000
0000
0000
0000
0000
0000
0000
0000
0000
0000
0000
0000
0000
0000
0000
0000
0000
0000
0000
0000
0000
0000
0000
0000
0000
0000
0000
0000
0000
0000
0000
0000
0000
3000
0000
0000
0000
0000
0000
1M01
0000
0000
0000
0000
0000
0000
0000
0000
0000
0000
0000
0000
0000
0000
0000
0000
0000
0000
0000
0000
0000
0000
0000
0001
0000
0000
0000
0000
0000
0000
0000
0000
0000
0000
0000
0000
0000
0000
0000
0000
0000
0000
0000
0000
0000
0000
0000
0101
0000
0000
0000
0000
0000
0000
0000
0000
0000
0000
0000
0000
0000
0000
0000
0000
0000
0000
0000
0000
0000
0000
0000
0100
0000
0000
0000
0000
0000
0000
0000
0000
0000
0000
0000
0000
0000
0000
0000
0010
0000
0000
0000
0000
0000
0000
0000
,
1M00
0000
0000
0000
0010
0000
1000
0000
0000
0000
0000
0000
1010
0000
0000
0000
0000
0000
1000
0000
0000
0000
0000
0000
M100
0000
0000
0000
0010
0000
0100
0000
0000
000M
0000
0000
0110
0000
0000
0000
0000
0000
M010
0000
0000
0000
0001
0000
,
0M10
0000
0001
0010
0000
0000
M011
0000
0000
0001
0000
0000
01M0
0000
0001
0100
0000
0000
0101
0000
0000
0001
0000
1000
,
0M01
0000
0000
0000
1000
0000
0001
0000
0000
0000
0000
0000
1001
0000
0000
0000
0000
0000
0000
0000
0000
0000
0000
0000
M220
000M
M000
000M
0000
0000
0000
0000
0000
0000
0000
0000
0330
0000
0000
0M00
0000
0000
0000
0000
0000
0000
0000
0000
;
