#TITLE:You Suck;
#SUBTITLE:;
#ARTIST:Strapping Young Lad;
#TITLETRANSLIT:;
#SUBTITLETRANSLIT:;
#ARTISTTRANSLIT:;
#CREDIT:;
#BANNER:You Suck-bn.png.PNG;
#BACKGROUND:You Suck-bg.png.PNG;
#LYRICSPATH:;
#CDTITLE:ballistics.png;
#MUSIC:04 You Suck.mp3;
#OFFSET:-0.060;
#SAMPLESTART:19.397;
#SAMPLELENGTH:12.000;
#SELECTABLE:YES;
#BPMS:0.000=232.001;
#STOPS:;
#BGCHANGES:;
// cache tags:
#FIRSTBEAT:8.000;
#LASTBEAT:614.500;
#SONGFILENAME:Songs/new cc/You Suck/You Suck.sm.sm;
#HASMUSIC:1;
#HASBANNER:1;
#MUSICLENGTH:160.546;
// end cache tags

//---------------dance-single - ----------------
#NOTES:
     dance-single:
     :
     Hard:
     13:
     1.000,1.000,1.000,1.000,1.000,1705.000,664.000,172.000,0.000,11.000:

0000
0000
0000
0000
,
0000
0000
0000
0000
,
0011
0011
0011
0011
0011
0011
0011
0101
,
1100
1100
1100
1100
1100
1100
1100
0110
,
1001
1001
1001
1001
1001
1001
1001
1010
,
0101
0101
0101
0101
0101
0101
0101
1100
,
1001
1001
1001
1001
1001
1001
1001
1100
,
0110
0110
0110
0110
0110
0110
0110
0011
,
1010
1010
1010
1010
1010
1010
1010
1100
,
0011
0011
0011
0011
0011
0011
0011
0110
,
1001
1001
1001
1001
1001
1001
1001
1100
,
0110
0110
0110
0110
0110
0110
0110
1010
,
0101
0101
0101
0101
0101
0101
0101
0011
,
1100
1100
1100
1100
1100
1100
1100
1001
,
0110
0110
0110
0110
0110
0110
0110
0011
,
0101
0101
0101
0101
0101
0101
0101
0110
,
1010
1010
1010
1010
1010
1010
1010
1001
,
1100
0000
1100
0000
1100
0000
1100
0000
1000
0100
0010
0001
1000
0100
0010
0001
,
1000
0100
1000
0100
1000
0100
1000
0100
1000
0100
1000
0100
1000
0100
1000
0100
,
1000
0010
1000
0010
1000
0010
1000
0010
1000
0010
1000
0010
1000
0010
1000
0010
,
1000
0001
1000
0001
1000
0001
1000
0001
1000
0001
1000
0001
1000
0001
1000
0001
,
0010
0001
0010
0001
0010
0001
0010
0001
0010
0001
0010
0001
0010
0001
0010
0001
,
0100
0010
0100
0010
0100
0010
0100
0010
0100
0010
0100
0010
0100
0010
0100
0010
,
1000
0010
1000
0010
1000
0010
1000
0010
1000
0010
1000
0010
1000
0010
1000
0010
,
0100
0001
0100
0001
0100
0001
0100
0001
0100
0001
0100
0001
0100
0001
0100
0001
,
0100
0010
0100
0010
1001
0000
1001
0000
1001
0000
0110
0000
0011
0000
1100
0000
,
0110
0110
1000
0011
0100
1010
0001
1100
,
0011
0011
0100
1010
0001
1100
0010
0101
,
1100
1100
0010
0101
0010
1100
0001
0110
,
1001
1001
0010
1100
0010
0101
1000
0011
,
0101
0101
1000
0011
1000
0110
0001
1100
,
1010
1010
0001
1100
0010
0101
1000
0011
,
0110
0110
1000
0011
0100
1010
0001
1100
,
0011
0011
0100
1010
0001
0110
1000
0011
,
1100
1100
0010
0011
0100
1010
0001
1001
,
0110
0110
0001
1100
0010
0110
1000
1001
,
0011
0011
0100
0110
0001
1100
0010
0011
,
1100
1100
0010
0110
0001
1100
0010
0101
,
0110
0110
1000
0011
0100
1010
0001
1100
,
0101
0101
0010
1100
0010
0101
0010
1010
,
1100
0000
1100
0000
0001
0010
0100
1000
0011
0000
0011
0000
1000
0100
0010
0001
,
1000
0001
1000
0001
0100
0010
0100
0010
1000
0100
0010
0001
0100
0010
1000
0001
,
1200
0010
1000
0310
1000
0010
1000
0010
1200
0001
1000
0301
1000
0001
1000
0001
,
2100
0010
0100
3010
0100
0010
0100
0010
0102
1000
0100
1003
0100
1000
0100
1000
,
0021
0100
0001
0130
0001
0100
0001
0100
2010
0100
0010
3100
0010
0100
0010
0100
,
0021
1000
0001
1030
0001
1000
0001
1000
0102
1000
0100
1003
0100
1000
0100
1000
,
0102
0010
0100
0013
0100
0010
0100
0010
2100
0001
0100
3001
0100
0001
0100
0001
,
0210
0001
0010
0301
0010
0001
0010
0001
0210
1000
0010
1300
0010
1000
0010
1000
,
0120
0001
0100
0031
0100
0001
0100
0001
2100
0010
0100
3010
0100
0010
0100
0010
,
1200
0001
1000
0301
1010
0000
1010
0000
0101
0000
0011
0000
1100
0000
0110
0000
,
1001
0100
0010
0001
1100
0010
0100
1000
0011
0100
0010
1000
0101
0010
1000
0001
,
0110
1000
0001
0010
1100
0010
0001
0100
1010
0001
1000
0010
1100
0001
0010
0100
,
2002
3003
0000
0022
0033
0000
2200
3300
,
0202
2323
3030
0210
0300
1100
1100
1100
,
1101
0010
0100
1000
0101
0010
1000
0100
1001
0100
0010
1000
0110
0001
0010
0100
,
1001
0100
0010
0001
1100
0010
0100
1000
0011
0100
0010
1000
0101
0010
0001
0100
,
2020
3030
0000
0220
0330
0000
0022
0033
,
2020
3232
0303
0210
0300
0011
0011
0011
,
0011
0100
0010
0001
1100
0010
0100
1000
0011
0100
0010
1000
0101
0010
0100
1000
,
0011
0100
0010
0001
1100
0010
0100
0001
1010
0100
0010
1000
0101
0010
0100
1000
,
0022
0033
0000
0202
0303
0000
2200
3300
,
0220
2332
3003
1020
0030
0101
0101
0101
,
1010
0001
0100
0010
1001
0100
0010
0100
0011
0100
1000
0001
1100
0010
1000
0001
,
0110
1000
0100
0010
1001
0010
0100
0001
1100
0010
0100
0010
0101
0010
1000
0001
,
2200
3300
0000
0202
0303
0000
0022
0033
,
2002
3223
0330
2001
3000
1010
1010
1010
,
0001
0010
0100
1000
0001
0010
0100
1000
0001
0010
0100
1000
0001
0010
0100
1000
,
1000
0100
0010
0001
1000
0100
0010
0001
1000
0100
0010
0001
1000
0100
0010
0001
,
0001
0100
0010
1000
0001
0100
0010
1000
0001
0100
0010
1000
0001
0100
0010
1000
,
1000
0010
0100
0001
1000
0010
0100
0001
1000
0010
0100
0001
1000
0010
0100
0001
,
1000
0000
0000
0010
0000
0000
0100
0000
,
0002
0000
0000
0000
0000
0003
0000
0000
0010
0000
0000
0000
0001
1000
0100
0010
,
0001
0010
0100
1000
0001
0010
0100
1000
0001
0010
0100
1000
0001
0010
0001
1000
,
0100
0010
0001
0010
0100
1000
0001
0010
0100
1000
0001
0010
0001
1000
0100
0010
,
0001
0010
0100
1000
0001
0010
0100
1000
0001
0010
0100
1000
0001
0010
0001
1000
,
0100
0000
0010
0000
0001
0000
0010
0000
0100
0000
1000
0000
0001
0000
0010
0000
0100
0000
1000
0000
0002
0003
0020
0030
0002
0003
2000
3000
0200
0300
0020
0030
,
0002
0003
0020
0030
0200
0300
2000
3000
0002
0003
0020
0030
0200
0300
2000
3000
0002
0003
0020
0030
0200
0300
2000
3000
0002
0003
0020
0030
0002
0003
2000
3000
,
0200
0300
0020
0030
0002
0003
0020
0030
0200
0300
2000
3000
0002
0003
0020
0030
0200
0300
2000
3000
0002
0003
0020
0030
0002
0003
2000
3000
0200
0300
0020
0030
,
0001
1000
0100
0010
0001
1000
0100
0010
0001
1000
0100
0010
0001
1000
0100
0010
,
0001
1000
0100
0010
0001
1000
0100
0010
0001
1000
0100
0010
0001
0000
0000
0110
0000
0000
0110
0000
0000
0110
0000
0000
,
1001
0110
0011
0110
1001
1100
0110
0101
,
1001
1100
0110
1100
1001
0110
1010
0101
,
1001
0011
0110
1010
1001
0101
0011
1100
,
1001
1010
0101
0110
1001
0011
1100
0110
,
1001
1100
0011
0101
0110
1001
0101
0110
,
1010
0011
0110
1100
0011
0110
1100
0011
,
0110
1001
1001
0110
1010
1010
0101
1100
,
0011
0011
1100
1001
0110
0101
1001
1010
,
1001
0010
0100
1000
0011
0100
0010
1000
0101
0010
0100
1000
0011
0100
0010
1000
,
1001
0100
0010
0001
1100
0010
0100
0001
1010
0100
0010
0001
1100
0010
0100
0001
,
1001
0000
0010
0000
0100
0000
1000
0000
0011
0000
0100
0000
0010
0000
1000
0000
0101
0000
0010
0000
0100
0000
1000
0000
0011
0000
0100
1000
0010
0000
1000
0000
,
1001
0100
0010
0001
1100
0010
0100
0001
1010
0100
0010
0001
1100
0010
0100
0001
,
1001
0010
0100
1000
0011
0100
0010
1000
0101
0010
0100
1000
0011
0100
0010
1000
,
1001
0100
0010
0001
1100
0010
0100
0001
1010
0100
0010
0001
1100
0010
0100
0001
,
1001
0010
0100
1000
0011
0100
0010
1000
0101
0010
0100
1000
0011
0100
0010
1000
,
0210
0010
0010
0010
0010
0010
0010
0310
,
1100
0000
0021
0030
1100
0000
0001
0000
1100
0000
0021
0030
1100
0000
0001
0000
1100
0000
0021
0030
1100
0000
0001
0000
1100
0000
0021
0030
1100
0000
0001
0000
,
1100
0000
0012
0003
1100
0000
0010
0000
1100
0000
0012
0003
1100
0000
0010
0000
1100
0000
0012
0003
1100
0000
0010
0000
1100
0000
0012
0003
1100
0000
0010
0000
,
1001
0000
0120
0030
1001
0000
0100
0000
1001
0000
0120
0030
1001
0000
0100
0000
1001
0000
0120
0030
1001
0000
0100
0000
1001
0000
0120
0030
1001
0000
0100
0000
,
0011
0000
1200
0300
0011
0000
1000
0000
0011
0000
1200
0300
0011
0000
1000
0000
0011
0000
1200
0300
0011
0000
1000
0000
0011
0000
1200
0300
0011
0000
1000
0000
,
0101
0000
2010
3000
0101
0000
0010
0000
0101
0000
2010
3000
0101
0000
0010
0000
0101
0000
2010
3000
0101
0000
0010
0000
0101
0000
2010
3000
0101
0000
0010
0000
,
0101
0000
1020
0030
0101
0000
1000
0000
0101
0000
1020
0030
0101
0000
1000
0000
0101
0000
1020
0030
0101
0000
1000
0000
0101
0000
1020
0030
0101
0000
1000
0000
,
0110
0001
1000
0110
0001
1000
0001
0010
1000
0101
0010
0001
1000
0100
0010
0101
,
1000
0010
1000
0001
0010
1100
0010
0001
2000
0000
0000
0000
3200
0000
0000
0000
,
0311
0011
0011
0011
0011
0011
0011
0101
,
1100
1100
1100
1100
1100
1100
1100
0110
,
1001
1001
1001
1001
1001
1001
1001
1010
,
0101
0101
0101
0101
0101
0101
0101
1100
,
1001
1001
1001
1001
1001
1001
1001
1100
,
0110
0110
0110
0110
0110
0110
0110
0011
,
1010
1010
1010
1010
1010
1010
1010
1100
,
0011
0011
0011
0011
0011
0011
0011
0110
,
1001
1001
1001
1001
1001
1001
1001
1100
,
0110
0110
0110
0110
0110
0110
0110
1010
,
0101
0101
0101
0101
0101
0101
0101
0011
,
1100
1100
1100
1100
1100
1100
1100
1001
,
0110
0110
0110
0110
0110
0110
0110
0011
,
0101
0101
0101
0101
0101
0101
0101
0110
,
1010
1010
1010
1010
1010
1010
1010
1001
,
1100
0000
1100
0000
1100
0000
1100
0000
1000
0100
0010
0001
1000
0100
0010
0001
,
1000
0100
1000
0100
1000
0100
1000
0100
1000
0100
1000
0100
1000
0100
1000
0100
,
1000
0010
1000
0010
1000
0010
1000
0010
1000
0010
1000
0010
1000
0010
1000
0010
,
1000
0001
1000
0001
1000
0001
1000
0001
1000
0001
1000
0001
1000
0001
1000
0001
,
0010
0001
0010
0001
0010
0001
0010
0001
0010
0001
0010
0001
0010
0001
0010
0001
,
0100
0010
0100
0010
0100
0010
0100
0010
0100
0010
0100
0010
0100
0010
0100
0010
,
1000
0010
1000
0010
1000
0010
1000
0010
1000
0010
1000
0010
1000
0010
1000
0010
,
0100
0001
0100
0001
0100
0001
0100
0001
0100
0001
0100
0001
0100
0001
0100
0001
,
0100
0010
0100
0010
1001
0000
1001
0000
1001
0000
0110
0000
0011
0000
1100
0000
,
1001
0100
0010
0001
1100
0010
0100
1000
0011
0100
0010
1000
0101
0010
1000
0001
,
0110
1000
0001
0010
1100
0010
0001
0100
1010
0001
1000
0010
1100
0001
0010
0100
,
2002
3003
0000
0022
0033
0000
2200
3300
,
0202
2323
3030
0210
0300
1100
1100
1100
,
1101
0010
0100
1000
0101
0010
1000
0100
1001
0100
0010
1000
0110
0001
0010
0100
,
1001
0100
0010
0001
1100
0010
0100
1000
0011
0100
0010
1000
0101
0010
0001
0100
,
2020
3030
0000
0220
0330
0000
0022
0033
,
2020
3232
0303
0210
0300
0011
0011
0011
,
0011
0100
0010
0001
1100
0010
0100
1000
0011
0100
0010
1000
0101
0010
0100
1000
,
0011
0100
0010
0001
1100
0010
0100
0001
1010
0100
0010
1000
0101
0010
0100
1000
,
0022
0033
0000
0202
0303
0000
2200
3300
,
0220
2332
3003
1020
0030
0101
0101
0101
,
1010
0001
0100
0010
1001
0100
0010
0100
0011
0100
1000
0001
1100
0010
1000
0001
,
0110
1000
0100
0010
1001
0010
0100
0001
1100
0010
0100
0010
0101
0010
1000
0001
,
2200
3300
0000
0202
0303
0000
0022
0033
,
2002
3223
0330
2001
3000
1010
1010
1010
,
0001
0010
0100
1000
0001
0010
0100
1000
0001
0010
0100
1000
0001
0010
0100
1000
,
1000
0100
0010
0001
1000
0100
0010
0001
1000
0100
0010
0001
1000
0100
0010
0001
,
0001
0100
0010
1000
0001
0100
0010
1000
0001
0100
0010
1000
0001
0100
0010
1000
,
1000
0010
0100
0001
1000
0010
0100
0001
1000
0010
0100
0001
1000
0010
0100
0001
,
1000
0000
0000
0010
0000
0000
0100
0000
,
0001
0000
0000
0100
0000
0000
0010
0000
,
1000
0000
0000
0010
0000
0000
0100
0000
,
0001
0000
0001
0010
0100
0001
1000
0100
0010
0001
0010
0100
1000
0100
0010
0001
,
0010
0100
1000
0100
0010
0001
0010
0100
2000
0000
0000
0200
3000
0000
0320
0000
,
0000
0000
0000
0000
0000
0030
0000
0000
;
