#TITLE:MG277;
#SUBTITLE:;
#ARTIST:eicaTV vs. kanone;
#TITLETRANSLIT:;
#SUBTITLETRANSLIT:;
#ARTISTTRANSLIT:;
#CREDIT:;
#BANNER:mg277 bn.png;
#BACKGROUND:mg277 bg.png;
#LYRICSPATH:;
#CDTITLE:;
#MUSIC:MG277.ogg;
#OFFSET:-0.208;
#SAMPLESTART:77.329;
#SAMPLELENGTH:13.862;
#SELECTABLE:YES;
#BPMS:0.000=277.000;
#STOPS:;
#BGCHANGES:;
// cache tags:
#FIRSTBEAT:36.000;
#LASTBEAT:480.000;
#SONGFILENAME:Songs/Index Tournament 1/MG277/MG277.sm;
#HASMUSIC:1;
#HASBANNER:1;
#MUSICLENGTH:110.763;
// end cache tags

//---------------dance-single - CondorTalon----------------
#NOTES:
     dance-single:
     CondorTalon:
     Challenge:
     14:
     1.000,1.000,0.397,0.271,0.618,776.000,44.000,30.000,0.000,0.000:
0000
0000
0000
0000
,
0000
0000
0000
0000
,
0000
0000
0000
0000
,
0000
0000
0000
0000
,
0000
0000
0000
0000
,
0000
0000
0000
0000
,
0000
0000
0000
0000
,
0000
0000
0000
0000
,
0000
0000
0000
0000
,
1001
0000
1000
0000
0100
0010
0000
0001
,
0000
0000
0000
0000
1000
0000
0000
0000
0001
0100
0010
1000
0001
1000
0010
0100
,
0001
0000
1000
0000
0100
0010
0000
0001
,
1000
0000
0010
0000
0100
0000
0001
0000
1000
0001
0010
0001
1000
0100
0010
0001
,
1000
0000
0010
0000
0100
0001
0000
0010
,
0000
0000
0000
0000
0001
0000
0000
0000
0100
0001
1000
0010
1000
0001
0100
0010
,
1000
0000
0001
0000
0010
0100
0000
1000
,
0001
0000
0100
0000
0010
0000
1000
0000
0001
0010
0100
0010
0001
1000
0001
0010
,
0100
0000
1000
0000
0001
0010
0000
0100
,
0000
0000
0000
0000
1000
0000
0000
0000
0010
0100
0001
1000
0001
0100
0010
0100
,
0010
0000
1000
0000
0001
0010
0000
0100
,
1000
0000
0001
0000
0100
0000
0001
0000
1000
0001
1000
0100
0010
0001
1000
0100
,
0010
0000
0001
0000
1000
0001
0000
0100
,
0000
0000
0000
0000
0010
0000
0000
0000
1000
0010
0100
0001
1000
0010
0100
0001
,
0100
0000
0001
0000
0010
0100
0000
1000
,
0001
0000
0100
0000
0010
0000
1000
0000
0001
1000
0100
1000
0100
0010
0001
1000
,
0001
1001
1010
0110
,
0101
0000
0000
0000
1001
0000
0000
0000
1000
0010
0100
0001
0100
0010
0100
0001
,
1000
1100
1001
0011
,
0001
0000
0100
0000
0010
0000
0100
0000
0001
1000
0100
0010
0001
1000
0100
1000
,
0001
1001
1100
0101
,
0110
0000
0000
0000
1001
0000
0000
0000
1000
0010
1000
0001
1000
0010
0100
0001
,
1000
1100
1010
0101
,
0001
0000
0100
0000
0010
0000
1000
0000
0001
1000
0100
0010
0001
1000
0001
1000
,
0001
0000
0010
0000
0100
0000
0010
0001
1000
0000
0010
0000
1000
0000
0001
0010
,
0100
0000
1000
0000
0001
0000
0100
0000
0010
1000
0001
0010
0100
0000
0010
0000
,
0001
0000
0100
0000
0010
0000
1000
0001
0010
0000
0100
0000
0010
0000
0001
1000
,
0010
0000
0100
0000
0001
0000
1000
0100
0010
0000
0100
1000
0001
0000
0100
0000
,
0001
0000
1000
0000
0100
0000
0010
0001
1000
0000
0001
0000
0100
0000
0010
1000
,
0001
0000
0010
0000
0100
0000
1000
0000
0001
0100
0010
1000
0001
0000
0010
0000
,
0001
1000
0010
0100
0001
1000
0100
0010
,
0001
0010
0001
1000
0010
0100
0001
1000
,
0001
0010
0100
0010
0002
0000
2003
0000
,
3020
0230
0302
0203
,
0300
0000
0001
0010
0100
0010
0001
0010
,
0200
2300
3002
0203
,
0300
0000
0010
1000
0002
0000
2003
0000
,
3100
0020
0000
0032
0000
1003
0010
0100
,
0001
0020
0000
0130
1000
0001
0100
0001
,
1000
0100
0010
0001
0020
0000
0230
0000
,
1300
0002
0000
0103
0002
0000
0023
0000
,
0230
0000
2300
0000
3001
0100
0001
1000
,
0020
0230
0300
0002
,
1003
0100
0020
0000
0031
1000
0001
0100
,
0020
0000
1030
0001
0200
0000
0310
1000
,
0002
0000
0013
0100
1000
0002
0000
0103
,
0010
1000
0010
0100
0001
0010
0100
1000
,
0001
0000
0000
0100
0000
0000
0001
0000
0000
0100
0000
0000
0010
0000
0000
0000
0000
0000
1000
0000
0000
0000
0000
0000
0100
0000
0000
0000
0010
0000
0000
0000
0001
0000
0000
0000
1000
0000
0000
0000
0000
0000
0000
0000
0000
0000
0000
0000
,
0001
1000
0001
0000
1000
0100
0000
1000
,
0100
0010
0001
0000
0100
0001
0000
0100
,
0001
0010
0001
0000
0010
0100
0000
0010
,
0100
1000
0001
0000
0100
0001
0000
0100
,
0001
1000
0010
0000
0100
0001
0000
0100
,
0001
1000
0100
0000
0010
0001
0000
0010
,
0001
0010
0100
0000
1000
0010
0000
1000
,
0010
0000
0100
0000
0001
0000
1000
0000
0100
0000
0010
0000
0001
1000
0010
0100
,
0001
1000
0100
0000
0010
0001
0000
0010
,
0001
1000
0010
0000
0100
0010
0000
0100
,
0010
1000
0001
0000
0010
0100
0000
0010
,
0100
1000
0001
0000
0100
0001
0000
0100
,
0001
1000
0100
0000
1000
0010
0000
1000
,
0010
0100
0001
0000
1000
0001
0000
1000
,
0001
0010
0100
0000
0010
0001
0000
0010
,
0001
0000
1000
0000
0010
0000
0100
0000
0001
0000
0010
0000
0100
1000
0001
1000
,
0010
0000
0010
0000
0100
0001
0000
1000
,
0000
0100
0000
0100
0000
1000
0001
0100
,
0010
0000
1000
0000
0100
0000
0010
0001
,
0000
0001
0010
0100
1000
0001
0100
0010
,
1000
0000
0001
0000
0100
0010
0000
1000
,
0000
1000
0100
0000
0010
0000
0001
0000
,
1000
0000
0010
0000
0100
0001
0000
0010
,
0000
0000
0010
0000
0100
0000
1000
0000
0001
0100
0010
1000
0001
0010
0100
1000
,
0001
0000
0001
0000
1000
0010
0000
0100
,
0000
0001
0000
0001
0000
0010
0100
1000
,
0001
0000
0001
0000
0100
0010
0000
1000
,
0000
0100
0000
0100
0000
0010
0001
1000
,
0001
0000
0001
0000
0100
0010
0000
0100
,
0001
0000
0001
0000
0010
0100
0000
0010
,
0001
0000
1000
0000
0010
0000
0100
0000
0001
0000
0010
0000
0001
1000
0001
1000
,
0010
0100
0001
1000
0010
0100
0001
0100
0010
1000
0001
1000
0010
0100
0001
1000
,
0001
0000
0101
0000
0100
0010
0000
1010
,
0000
1001
0000
0011
0000
0010
0100
1000
,
0001
0000
1001
0000
0101
0000
0100
0010
,
0000
1000
0001
0010
0100
1000
0100
0010
,
0001
0000
0101
0000
0100
0010
0000
1010
,
0000
1000
0001
0000
0011
0000
1100
0000
,
1001
0000
0101
0000
0100
0010
0000
1010
,
0000
0000
1000
0000
0001
0000
0010
0000
0100
1000
0001
0100
0010
1000
0001
0010
,
0100
0000
1100
0000
1000
0001
0000
1001
,
0000
1010
0000
0101
0000
0001
0010
0100
,
1000
0000
1001
0000
0101
0000
0100
0010
,
0000
1000
0001
0010
0100
1000
0001
0100
,
0001
0000
1001
0000
1000
0010
0000
0110
,
0000
0100
0001
0000
0011
0000
0110
0000
,
1100
0000
1001
0000
0001
0100
0000
0110
,
0000
0000
0010
0000
1000
0000
0001
0000
0010
0100
1000
0001
1000
0001
0100
0010
,
1000
0000
0000
0010
0000
0000
1000
0000
0001
0000
0000
0100
0000
0000
0001
0000
,
0010
0000
0000
0100
0000
0000
0010
0000
0001
0000
0000
0010
0000
0000
0001
0000
,
1000
0000
0000
0010
0000
0000
1000
0000
0001
0000
0000
0010
0000
0000
0001
0000
,
0100
0000
0000
0010
0000
0000
0100
0000
0001
0000
0000
0010
0000
0000
0001
0000
,
1000
0000
0000
0100
0000
0000
1000
0000
0100
0000
0000
0010
0000
0000
0100
0000
,
0010
0000
0000
0001
0000
0000
0010
0000
0001
0000
0000
0100
0000
0000
0001
0000
,
1000
0000
0000
0010
0000
0000
1000
0000
0100
0000
0000
1000
0000
0000
0100
0000
,
1000
0001
0100
0010
1000
0001
1000
0010
0100
0001
0100
0010
1000
0001
0100
0001
,
1000
0000
0000
0000
0010
0000
1000
0000
0000
0000
0001
0000
0000
1000
0000
0000
,
0000
0000
0000
0000
1100
0000
0000
0000
0100
0010
0001
0010
0100
0000
0000
0000
,
1000
0000
0000
0000
0010
0000
0100
0000
0000
0000
0001
0000
0000
1000
0000
0000
,
0000
0000
0000
0000
0001
0010
0100
1000
0001
1000
0001
0100
0010
0000
0000
0000
,
1000
0000
0000
0000
0001
0000
0100
0000
0000
0000
0010
0000
0000
1000
0000
0000
,
0001
0010
0100
1000
0001
1000
0001
0010
0001
0010
0100
1000
0001
0010
0100
1000
,
0001
0100
0010
1000
0010
0100
0001
1000
0001
1000
0010
0100
0001
1000
0010
1000
,
0001
0000
0000
0000
;
