#TITLE:Ordnance Storage Mine;
#SUBTITLE:(Banjo Tooie);
#ARTIST:Rareware;
#TITLETRANSLIT:;
#SUBTITLETRANSLIT:;
#ARTISTTRANSLIT:;
#CREDIT:;
#BANNER:ordnance.png;
#BACKGROUND:ordnance-bg.png;
#LYRICSPATH:;
#CDTITLE:IS.png;
#MUSIC:048_the_ordnance_storage_mine.mp3;
#OFFSET:-0.080;
#SAMPLESTART:38.720;
#SAMPLELENGTH:12.500;
#SELECTABLE:YES;
#BPMS:0.000=124.940;
#STOPS:;
#BGCHANGES:;
// cache tags:
#FIRSTBEAT:0.000;
#LASTBEAT:148.000;
#SONGFILENAME:Songs/toune 6/Ordnance Storage Mine/ordnance.sm;
#HASMUSIC:1;
#HASBANNER:1;
#MUSICLENGTH:75.128;
// end cache tags

//---------------dance-single - ----------------
#NOTES:
     dance-single:
     :
     Beginner:
     2:
     0.160,0.148,0.067,0.000,0.000,79.000,5.000,0.000,0.000,0.000:
1000
0000
0010
0000
,
0100
0000
0001
1000
,
0100
0000
1000
0000
,
0010
0000
0100
0010
,
1000
0000
0001
0000
,
1000
0000
0001
0010
,
0001
0000
1000
0000
,
0100
0000
1000
0010
,
0100
0000
0001
0000
,
1000
0000
0001
0000
,
1000
0000
0010
0000
,
0100
0000
0001
0000
,
1000
0000
0010
0000
,
1000
0000
0100
0000
,
1000
0000
0001
0000
,
0100
0000
0010
0000
,
1000
0000
0001
0000
,
0100
0000
0010
0000
,
1000
0000
0000
0000
,
0001
0000
0100
0000
,
0010
0000
1000
0010
,
0000
0000
1000
0000
,
0001
0000
0100
0000
,
0010
1000
0000
0000
,
0001
0000
1000
0000
,
0010
0000
0100
0010
,
0000
0000
1000
0000
,
0010
0000
0100
0000
,
0001
1000
0000
0000
,
0001
0000
1000
0000
,
0010
0000
0110
0000
,
0010
0000
1000
0000
,
0001
0000
0101
0000
,
0001
0000
1000
0000
,
0100
0000
0110
0000
,
0001
0000
1000
0000
,
0010
0000
0110
1000
,
0101
0000
0000
0000
;

//---------------dance-single - ----------------
#NOTES:
     dance-single:
     :
     Easy:
     4:
     0.308,0.320,0.293,0.000,0.000,140.000,22.000,0.000,0.000,0.000:
1000
0100
1000
0010
,
0100
0001
1000
0000
0001
0000
0000
0000
,
1000
0100
1000
0000
0010
0000
0100
0000
,
0010
1000
0010
0000
0100
0000
0000
0000
,
0001
1000
0001
0000
0100
0000
0010
0000
,
1000
0010
0100
0010
,
1000
0100
1000
0001
,
0100
0001
0010
0001
,
0100
0010
1000
0010
,
0100
0001
1000
0000
,
0010
0100
0010
0000
,
1000
0100
1000
0010
,
0100
0001
1000
0010
,
0100
0001
0100
0000
0001
0000
0000
0000
,
1000
0100
1000
0000
0010
0000
0100
0000
,
0001
0100
0010
0000
1000
0000
0000
0000
,
0100
1000
0010
0000
0100
0000
0001
0000
,
1000
0100
1000
0000
0010
0000
0100
0000
,
0000
0010
0000
0010
0000
0010
0000
0000
,
0100
0001
1000
0100
,
1000
0010
0100
0110
,
0000
0000
1000
0001
,
0100
0001
1000
0100
,
1000
0110
0000
0000
,
1000
0001
0100
0001
,
0010
0001
0100
0110
,
0000
0000
1000
0100
,
1000
0001
0010
0001
,
0100
0110
0000
0000
,
1100
0010
0101
0001
,
1001
1000
1100
0000
,
0110
0010
1010
1000
,
0101
0001
1001
0000
,
1100
0010
0101
0001
,
0011
0100
0101
0000
,
1001
1000
1100
0010
,
0110
0001
1001
1100
,
1001
0000
0000
0000
;

//---------------dance-single - ----------------
#NOTES:
     dance-single:
     :
     Medium:
     7:
     0.430,0.394,0.173,0.080,0.040,207.000,13.000,6.000,0.000,0.000:
1000
0001
0100
0010
,
1000
0010
1000
0000
0010
0100
0010
0100
,
0100
0001
1000
0000
0010
1000
1010
0000
,
1000
0001
1000
0000
0001
1000
0001
1000
,
1000
0100
1000
0000
0001
0100
0110
0000
,
1000
0100
0010
0000
1000
0100
0010
0001
,
1000
0100
0010
0000
0001
1000
1001
0000
,
0010
0100
1000
0000
0010
0100
1000
0001
,
0010
0100
1000
0000
0100
0001
1001
0000
,
0100
0000
0001
0001
1000
0100
1000
0000
,
0010
0000
0100
0010
0220
0000
0000
0330
,
0001
0000
1000
0100
1000
0010
0100
0000
,
0010
1000
0010
0100
0010
1000
0010
0100
,
0001
1000
0100
0000
0010
0001
0010
0001
,
0001
1000
0100
0000
0010
0001
0011
0000
,
0100
0010
1000
0000
0010
1000
0010
1000
,
1000
0001
0100
0000
0010
0100
0110
0000
,
1000
0100
1000
0010
0100
0001
0010
0001
,
1000
0100
0000
0100
0000
0100
0000
0100
,
1000
0000
0000
0000
0010
0000
0000
0000
0100
0000
0010
0000
1000
0000
0000
0001
,
1000
0000
0100
0000
0010
0001
2000
0000
,
0000
0000
0000
0000
3000
0000
0000
0010
0100
0000
0000
0000
0010
0000
0000
0000
,
1000
0000
0100
0000
1000
0000
0000
0001
1000
0000
0000
0000
0100
0000
0000
0000
,
1000
0010
2000
0000
0000
0000
0000
0000
,
3001
0000
0000
0000
0100
0000
0000
0000
0010
0000
0100
0000
0001
0000
0000
1000
,
0001
0000
0010
0000
0100
1000
0002
0000
,
0000
0000
0000
0000
0003
0000
0000
0100
0010
0000
0000
0000
0100
0000
0000
0000
,
0001
0000
0010
0000
0001
0000
0000
1000
0001
0000
0000
0000
0010
0000
0000
0000
,
0001
0100
0002
0000
0000
0000
0000
0000
,
1003
0100
1000
0000
0010
0100
0010
0000
,
1000
0001
1000
0000
0110
0000
0000
0000
,
0001
1000
0001
0000
1000
0100
1000
0000
,
0010
0100
0010
0000
1001
0000
0000
0000
,
1000
0100
1000
0000
0010
0100
0010
0000
,
1000
0001
1000
0000
0011
0000
0000
0000
,
0100
0001
0100
0000
0001
1000
0001
0000
,
1000
0100
1000
0000
0110
0000
1001
0000
,
0110
0000
0000
0000
;

//---------------dance-single - ----------------
#NOTES:
     dance-single:
     :
     Hard:
     9:
     0.605,0.517,0.093,0.013,0.426,310.000,7.000,1.000,0.000,0.000:
1000
0010
0100
0001
1000
0100
1000
0010
,
0100
0000
0010
1000
0010
0000
0100
0000
0001
1000
0001
1000
0001
0000
0100
0000
,
0010
0000
1000
0100
1000
0000
0010
0000
0100
0010
0100
0000
0010
0000
0000
0000
,
1000
0000
0001
0100
0001
0000
1000
0000
0100
1000
0010
1000
0100
0000
0010
0000
,
0001
0000
0100
0010
0100
0000
0010
0000
1000
0100
1000
0010
1000
0000
0000
0000
,
0010
0000
1000
0000
0001
0000
0100
0000
0001
0010
0001
0010
0001
0000
0100
0000
,
0010
0000
1000
0000
0100
0000
0010
0000
0001
0100
0001
0000
1000
0000
0000
0000
,
0010
0000
0100
0000
0010
0000
0100
0000
0010
1000
0010
1000
0010
0000
0100
0000
,
0001
0000
0010
0001
0010
0000
0001
0000
0100
0010
0100
0000
0001
0000
0000
0000
,
1000
0000
0000
0000
1000
0100
1000
0000
0010
0000
0100
0000
0010
0000
0000
0000
,
0100
0000
0000
0000
0100
0001
0100
0000
0002
0000
0000
0000
0000
0000
0000
0000
,
1003
0000
0000
0000
0100
1000
0100
0000
0010
0000
0100
0000
1000
0000
0001
0100
,
0001
1000
0100
1000
0010
0100
0010
1000
,
0001
0000
1000
0100
1000
0000
0010
0000
0100
0010
1000
0010
0100
0000
0001
0000
,
1000
0000
0100
1000
0010
0000
0100
0000
0001
1000
0100
0000
0001
0000
0000
0000
,
0100
0000
1000
0010
0100
0000
0010
0000
1000
0001
0100
0001
1000
0000
0001
0000
,
0100
0000
0010
1000
0010
0000
0100
0000
0001
1000
0001
1000
0010
0000
0000
0000
,
1000
0000
0001
1000
0001
0000
0100
0000
0010
0000
1000
0000
0010
0000
0100
0000
,
0001
1000
0000
1000
0000
1000
0000
1000
,
0001
0000
1000
0000
0010
0100
0010
0100
0010
0000
1000
0000
0001
0000
0000
0100
,
0010
0000
1000
0000
0100
1000
0010
0000
0100
0000
0010
0000
1001
0000
0000
0000
,
0000
0000
0000
0000
0000
0000
0000
1000
0010
0000
0100
0000
0001
0010
0001
0010
,
0001
0000
0100
0000
0010
0000
0000
1000
0100
0000
1000
0000
0010
0100
0010
0000
,
1000
0001
1100
0000
0000
0000
0000
0000
,
1000
0000
0001
0000
0100
0010
0100
0010
0100
0000
0001
0000
1000
0000
0000
0010
,
0100
0000
0001
0000
0010
0001
0100
0000
0010
0000
0100
0000
1001
0000
0000
0000
,
0000
0000
0000
0000
0000
0000
0000
0001
0100
0000
0010
0000
1000
0100
1000
0100
,
1000
0000
0010
0000
0100
0000
0000
0001
0010
0000
0001
0000
0100
0010
0100
0000
,
0001
1000
0011
0000
0000
0000
0000
0000
,
1000
0000
0001
0000
1000
0001
1000
0000
0001
0000
1000
0000
0001
1000
0001
0000
,
1000
0000
0001
0000
1000
0001
1000
0000
0001
0000
0000
0000
0000
0000
0000
0000
,
0100
0000
0010
0000
0100
0010
0100
0000
0010
0000
0100
0000
0010
0100
0010
0000
,
0100
0000
0010
0000
0100
0010
0100
0000
0010
0000
0000
0000
0000
0000
0000
0000
,
0001
0000
1000
0000
0001
1000
0001
0000
1000
0000
0001
0000
1000
0001
1000
0000
,
0001
0000
1000
0000
0001
1000
0001
0000
1000
0000
0000
0000
0000
0000
0000
0000
,
0010
0000
0100
0000
0010
0100
0010
0000
0100
0000
0010
0000
0100
0010
0100
0000
,
0010
0000
0100
0000
0010
0100
0010
0000
0110
0000
0000
0000
1010
0000
0000
0000
,
1001
0000
0000
0000
;

//---------------dance-single - ----------------
#NOTES:
     dance-single:
     :
     Challenge:
     10:
     0.660,0.616,0.293,0.053,0.446,321.000,22.000,4.000,0.000,0.000:
1001
1000
1100
1000
1010
1000
1010
1000
,
1001
0000
1000
0100
1000
0000
0010
0000
0100
0001
1000
0001
0100
0000
0010
0000
,
1000
0000
0100
1000
0010
0000
0100
0000
0010
1000
0001
0000
1001
0000
0000
0000
,
1010
0000
0100
0001
1000
0000
0100
0000
1000
0010
0100
0001
1000
0000
0010
0000
,
0100
0000
0001
1000
0100
0000
1000
0000
0010
0100
0001
1000
0001
0000
0000
0000
,
1000
0000
0010
0000
0100
0000
0010
0000
1000
0100
1000
0010
0100
0000
0001
0000
,
1000
0000
0010
0000
0100
0000
0010
0000
1000
0100
1000
0000
0011
0000
0000
0000
,
1000
0000
0001
0000
0100
0000
0010
0000
1000
0100
1000
0010
0100
0000
0001
0000
,
1000
0000
0100
1000
0010
0000
0100
0000
0010
1000
0010
0100
0001
0000
0000
0000
,
1001
0000
0000
0000
1000
0100
0010
0000
0001
0000
1000
0000
0001
0000
0000
0000
,
1100
0000
0000
0000
0010
0100
0010
0000
1001
0000
0000
0000
0000
0000
0000
0000
,
1001
0000
0000
0000
0100
0010
1000
0000
0010
0000
0100
0000
0001
0000
1000
0100
,
1000
0010
0100
0001
1000
0001
0100
0010
,
1000
0000
0001
0100
0010
0000
1000
0000
0100
1000
0010
0100
0001
0000
1000
0000
,
0100
0000
1000
0010
0100
0000
0001
0000
0010
0001
0100
0000
1001
0000
0000
0000
,
1100
0000
0010
0001
0100
0000
0010
0000
1000
0100
1000
0010
0100
0000
0001
0000
,
1000
0000
0100
1000
0010
0000
0100
0000
0001
1000
0100
1000
0010
0000
0000
0000
,
1100
0000
1000
0010
1000
0000
0010
0000
0100
0000
0001
0000
1000
0000
0001
0000
,
1000
0010
0000
0110
0000
1001
0000
1000
,
0010
0000
1000
0000
0001
0100
0010
1000
0001
0000
0100
0000
0010
0000
0000
1000
,
0100
0000
0010
0000
0001
0100
0001
0000
1000
0000
0100
0000
2000
0000
0000
0000
,
0001
0000
0000
0000
0001
0000
3000
0001
1000
0000
0010
0000
0100
0010
1000
0001
,
0100
0000
0001
0000
1000
0000
0000
0010
0100
0000
0001
0000
1000
0100
1000
0000
,
0010
0100
0002
0000
1000
0000
1000
0000
,
0103
0000
0001
0000
1000
0010
0100
0001
1000
0000
0010
0000
0100
0000
0000
0001
,
0010
0000
0100
0000
1000
0010
1000
0000
0001
0000
0010
0000
0002
0000
0000
0000
,
1000
0000
0000
0000
1000
0000
0003
1000
0001
0000
0100
0000
0010
0100
0001
1000
,
0010
0000
1000
0000
0001
0000
0000
0100
0010
0000
1000
0000
0001
0010
0001
0000
,
0100
0010
2000
0000
0001
0000
0001
0000
,
3001
0000
0001
0000
1000
0100
1000
0000
0010
0000
0010
0000
0100
0001
0100
0000
,
0010
0000
0010
0000
1000
0100
1000
0000
0011
0000
0000
0000
0000
0000
0000
0000
,
0100
0000
0100
0000
0001
0010
0001
0000
1000
0000
1000
0000
0010
0100
0010
0000
,
0100
0000
0100
0000
0001
0010
0001
0000
1001
0000
0000
0000
0000
0000
0000
0000
,
1000
0000
1000
0000
0010
0100
0010
0000
1000
0000
1000
0000
0001
0010
0001
0000
,
1000
0000
1000
0000
0100
0010
0100
0000
0110
0000
0000
0000
0000
0000
0000
0000
,
0001
0000
0001
0000
1000
0100
1000
0000
0001
0000
0001
0000
0100
0010
0100
0000
,
0001
0000
0000
0000
0001
0000
0000
0000
1000
0000
0100
0000
1000
0000
0000
0000
0110
0000
0000
0000
0000
0000
0000
0000
1000
0001
1000
0000
0000
0000
0000
0000
,
0110
0000
0000
0000
;
