#TITLE:I Believe;
#SUBTITLE:;
#ARTIST:Celvin Rotane;
#TITLETRANSLIT:;
#SUBTITLETRANSLIT:;
#ARTISTTRANSLIT:;
#CREDIT:;
#BANNER:;
#BACKGROUND:;
#LYRICSPATH:;
#CDTITLE:;
#MUSIC:I Believe - Celvin Rotane.mp3;
#OFFSET:0.000;
#SAMPLESTART:46.295;
#SAMPLELENGTH:5.000;
#SELECTABLE:YES;
#BPMS:0.000=129.604;
#STOPS:;
#BGCHANGES:;
// cache tags:
#FIRSTBEAT:1.000;
#LASTBEAT:194.000;
#SONGFILENAME:Songs/toune 5/I Believe/I Believe.sm;
#HASMUSIC:1;
#HASBANNER:0;
#MUSICLENGTH:89.887;
// end cache tags

//---------------dance-single - ----------------
#NOTES:
     dance-single:
     :
     Easy:
     2:
     0.259,0.270,0.122,0.000,0.000,152.000,11.000,0.000,0.000,0.000:
0000
0000
1000
0001
,
1000
0000
0010
0100
,
0001
0000
0001
0100
,
1000
0000
0010
0100
,
0010
0000
0001
0100
,
0001
0000
0010
1000
,
0010
0000
0100
0001
,
0100
0000
0010
0100
,
0010
0000
0100
0010
,
0001
0000
1000
0100
,
1000
0000
0001
0100
,
0001
0000
1000
0010
,
1000
0000
0001
0100
,
0001
0000
0010
0100
,
0010
0000
0100
0001
,
0010
0000
0100
1000
,
0010
0000
0100
0001
,
0010
0000
0100
1000
,
0100
0000
0100
0010
,
0100
0000
0001
0100
,
0001
0000
0100
0010
,
1000
0000
0001
0100
,
0001
0000
0100
0010
,
0100
0000
0001
1000
,
1000
0000
1000
0001
,
0001
0000
0100
0010
,
0100
0000
0010
0100
,
0001
1000
0001
0100
,
0010
0000
0100
0001
,
1000
0010
0100
0001
,
1000
0010
0100
0001
,
0100
0000
0010
1000
,
0001
0100
0010
0100
,
0001
1000
0010
0100
,
0001
1000
1100
0000
,
0011
0000
1000
0100
,
1100
0000
0001
0010
,
0101
0000
0010
0100
,
0110
0000
1000
0001
,
0101
0000
0010
0100
,
0010
1001
0000
0001
,
0100
0010
0100
0010
,
0001
1000
0010
0100
,
0001
0000
0001
0100
,
0010
0000
0100
0010
,
0100
0000
0001
0100
,
1001
0000
0010
0100
,
0011
0000
0001
0100
,
1100
0000
1001
0000
;

//---------------dance-single - Copied from----------------
#NOTES:
     dance-single:
     Copied from:
     Beginner:
     1:
     0.156,0.135,0.011,0.000,0.000,97.000,1.000,0.000,0.000,0.000:
0000
1000
0000
0100
,
0000
0010
0000
0100
,
0000
0001
0000
0100
,
0000
0010
0000
1000
,
0000
0001
0000
0100
,
0000
0000
0010
0000
,
1000
0000
0100
0000
,
0010
0000
0100
0000
,
0001
0000
0100
0000
,
0010
0000
0100
0000
,
0010
0000
1000
0000
,
0001
0000
0100
0000
,
0010
0000
0100
0000
,
0001
0000
0100
0000
,
0010
0000
0100
0000
,
0001
1000
0000
0000
,
0000
1000
0100
0000
,
0010
0000
0100
0000
,
0001
0000
0100
0000
,
0010
0000
1000
0000
,
0001
0000
0100
0000
,
0010
0000
0100
0000
,
1000
0000
0001
0000
,
0100
0000
0010
0000
,
0100
0000
0001
0000
,
0100
0000
0010
0000
,
1000
0000
0010
0000
,
0100
0000
0001
0000
,
0100
0000
0001
0000
,
0100
0000
0010
0000
,
1000
0000
0010
0000
,
0100
0000
0001
0000
,
0100
0000
0010
0000
,
1000
0000
0010
0000
,
0100
0000
0001
0000
,
0100
0000
0010
0000
,
1000
0000
0010
0000
,
1000
0000
0010
0000
,
0100
0000
0001
0000
,
0010
0000
0100
0000
,
0010
0000
1000
0000
,
0010
0000
0100
0000
,
0001
0000
0100
0000
,
0010
0000
0100
0000
,
0001
0000
0100
0000
,
1000
0000
0010
0000
,
0100
0000
0001
0000
,
0100
0000
0010
0000
,
1000
0000
1001
0000
;

//---------------dance-single - ----------------
#NOTES:
     dance-single:
     :
     Medium:
     5:
     0.393,0.351,0.156,0.022,0.000,231.000,14.000,2.000,0.000,0.000:
0000
0000
0100
0100
,
0010
0100
0010
0000
0001
0000
0001
0000
,
0010
1000
0010
0000
0100
0000
0100
0000
,
0010
0001
0010
0000
0100
0000
0100
0000
,
0001
1000
0001
0000
0100
0000
0101
0000
,
0010
0100
0010
0000
1000
0000
1001
0000
,
0100
0010
0100
0000
0010
0000
0101
0000
,
0001
0100
1000
0000
1000
0000
0110
0000
,
0001
0100
0001
0000
1000
0000
0100
0000
,
0010
0001
0010
0000
0001
0000
0100
0000
,
0010
1000
0100
0000
0010
0000
0101
0000
,
0010
0100
0001
0000
0001
0000
1001
0000
,
1000
0001
1000
0000
0010
0000
0100
0000
,
0001
1000
0100
0000
0010
0000
0100
0000
,
0010
0001
0100
0000
0010
0000
0100
0000
,
0010
1001
0000
0100
,
0010
0000
0100
0010
0100
0000
0001
0000
,
0101
0000
0001
0100
0001
0000
0010
0000
,
1100
0000
0100
0010
0100
0000
0010
0000
,
0100
0000
0001
1000
0001
0000
0100
0010
,
0100
0010
0100
0000
1000
0000
0001
0100
,
0001
0100
0001
0000
0010
0000
1000
0100
,
1000
0100
1000
0000
0010
0000
0100
0001
,
0100
0001
0100
0000
0010
0000
1000
0010
,
0100
0001
0100
0000
0010
0000
1000
0000
,
0101
0001
1001
0100
,
0010
0001
0010
0000
0100
0000
0010
0000
,
1001
0000
0010
0100
0001
0000
0010
0100
,
0010
1000
0010
0000
0100
0000
0001
0000
,
1001
0100
0010
1000
,
1000
0010
0100
0000
0001
0000
0100
0000
,
0010
1000
0100
1000
,
0001
0200
1000
1000
,
1000
1000
0010
0010
,
0010
0001
0001
0001
,
0001
0302
1000
1000
,
1000
0100
0100
0100
,
0100
0103
0010
1000
,
0100
1000
0100
0000
0010
0000
0001
0000
,
0100
0010
1000
0100
,
1000
0100
0100
0000
0010
0000
0001
0000
,
0100
0010
1000
0001
,
0100
0100
0010
0000
1000
0000
0001
0000
,
0100
0010
0100
0001
,
0100
0010
0100
0000
0010
0000
1000
0000
,
0001
0100
0010
1000
,
0100
0010
0100
0000
0001
0000
1000
0000
,
0010
0100
0001
1000
,
0010
0100
0010
0000
1001
0000
0000
0000
;

//---------------dance-single - Heavy----------------
#NOTES:
     dance-single:
     Heavy:
     Hard:
     8:
     0.572,0.459,0.033,0.412,0.534,320.000,3.000,37.000,0.000,0.000:
0000
0000
1000
0000
0100
1000
0100
0010
,
0001
0100
0010
0000
0010
0100
0010
0000
,
0100
0000
0000
0010
0000
0200
0000
0000
0000
0000
0000
0300
0001
0000
0000
1000
0000
0200
0000
0000
0000
0000
0000
0000
,
0310
0000
0000
0001
0000
0020
0000
0000
0000
0000
0000
0000
0130
0000
0000
1000
0000
0020
0000
0000
0000
0000
0000
0000
,
0031
0000
0000
0100
0000
2000
0000
0000
0000
0000
0000
0000
3100
0000
0000
0010
0000
0200
0000
0000
0000
0000
0000
0000
,
0310
0000
0000
0001
0000
2000
0000
0000
0000
0000
0000
0000
3100
0000
0000
1000
0000
0002
0000
0000
0000
0000
0000
0000
,
0103
0000
0000
0010
0000
0200
0000
0000
0000
0000
0000
0000
1300
0000
0000
0100
0000
0002
0000
0000
0000
0000
0000
0000
,
1003
0000
0000
0100
0000
2000
0000
0000
0000
0000
0000
0000
3100
0000
0000
0001
0000
0200
0000
0000
0000
0000
0000
0300
,
0010
0000
0000
0001
0000
2000
0000
0000
0000
0000
0000
3000
0010
0000
0000
0100
0000
0002
0000
0000
0000
0000
0000
0000
,
0103
0000
0000
0001
0000
2000
0000
0000
0000
0000
0000
0000
3100
0000
0000
0010
0000
0200
0000
0000
0000
0000
0000
0000
,
0310
0000
0000
0001
0000
0200
0000
0000
0000
0000
0000
0000
1300
0000
0000
0100
0000
2000
0000
0000
0000
0000
0000
0000
,
3010
0000
0000
0100
0000
0002
0000
0000
0000
0000
0000
0000
0103
0000
0000
0010
0000
2000
0000
0000
0000
0000
0000
0000
,
3010
0000
0000
0000
0100
0000
0000
0020
0000
0000
0000
0000
0000
0000
0000
0000
0031
0000
0000
0000
0100
0000
0000
0020
0000
0000
0000
0000
0000
0000
0000
0000
,
0130
0000
0000
0000
0010
0000
0000
2000
0000
0000
0000
0000
0000
0000
0000
0000
3100
0000
0000
0000
0010
0000
0000
0002
0000
0000
0000
0000
0000
0000
0000
0000
,
0103
0000
0000
0000
0100
0000
0000
2000
0000
0000
0000
0000
0000
0000
0000
0000
3100
0000
0000
0000
0010
0000
0000
0002
0000
0000
0000
0000
0000
0000
0000
0000
,
0103
0000
0000
0000
0010
0000
0000
0200
0000
0000
0000
0000
0000
0000
0000
0000
0300
0000
0000
0000
0000
0000
0000
0000
1001
0000
0000
0000
0000
0000
0000
0000
,
0110
0000
0001
0100
0001
0000
1000
0100
,
1000
0000
0000
0000
0010
0000
0100
0000
0010
0000
0000
0000
0001
0000
0000
0001
,
0010
0000
0000
0000
0010
0000
0000
0100
1000
0000
0000
0000
0100
0000
0000
0100
,
0010
0000
0000
0000
0001
0000
0000
0010
0001
0000
0000
0000
0100
0000
0000
1000
,
0001
0000
0000
0000
0010
0000
0000
0001
1000
0000
0000
0000
0010
0000
0000
0100
,
0001
0000
0000
0000
0001
0000
0000
1000
0010
0000
0000
0000
0100
0000
0000
0010
,
0001
0000
1000
0000
0001
0000
0000
0100
1000
0000
0000
0000
0010
0000
0000
0100
,
0001
0000
0020
0000
0100
0000
0000
0000
0130
0000
0000
0000
0001
0000
0000
0010
,
0100
0000
0020
0000
0100
0000
0000
0000
0130
0000
0000
0010
0100
0000
0000
0000
,
0010
0000
0000
0001
1000
0000
0200
0000
1000
0000
0000
0000
1300
0000
0000
1000
,
0001
0000
1000
0000
0001
0000
0000
0001
0100
0000
0000
0000
0010
0000
0000
0100
,
0010
0000
0000
0000
1000
0000
0000
0001
0100
0000
0000
0000
0010
0000
0000
0100
,
0010
0000
1000
0000
0001
0000
0000
1000
0100
0000
0000
0000
1000
0000
0000
0001
,
0100
0000
0000
0010
1000
0000
0000
1000
0010
0000
0000
0100
0001
0000
0000
1000
,
0001
0000
1000
0000
0100
0000
0000
0010
1000
0000
0000
0100
1000
0000
0000
0010
,
0001
0000
0000
0100
1000
0000
0000
0100
1000
0000
0000
0010
0001
0000
0000
0100
,
0001
0000
1000
0000
0001
0000
1000
0000
0001
0000
0000
0000
0010
0000
0000
0100
,
1000
0000
0000
0001
1000
0000
0000
1000
0100
0000
0000
0100
0010
0000
0000
0010
,
0001
0000
1000
0000
0001
0000
1000
0000
0001
0000
0000
0000
0100
0000
0000
0010
,
0100
0000
0000
0100
0010
0000
0000
0001
0100
0000
0000
0010
1000
0000
0000
1000
,
0010
0000
0100
0000
0001
0000
1000
0000
0001
0000
0000
0000
0100
0000
0000
0010
,
1000
0000
0000
1000
0100
0000
0000
0010
0100
0000
0000
0001
0100
0000
0000
0010
,
0001
0000
1000
0000
0100
0000
0000
0100
0010
0000
0000
0010
0001
0000
0000
0001
,
0010
0000
0000
0100
1000
0000
0000
0010
1000
0000
0000
1000
0010
0000
0000
0100
,
0001
0000
0001
0000
0001
0000
0000
0010
0100
0000
0000
0010
0100
0000
0000
0010
,
0100
0000
0020
0000
0100
0000
0000
0000
0130
0000
0000
0001
1000
0000
0000
1000
,
0001
0000
0200
0000
0010
0000
0000
0000
0310
0000
0000
1000
0100
0000
0000
0100
,
1000
0000
0020
0000
0001
0000
0000
0000
0031
0000
0000
0001
0100
0000
0000
1000
,
0100
0000
0020
0000
1000
0000
0000
0000
1030
0000
0000
0100
0010
0000
0000
0010
,
0100
0000
0020
0000
0001
0000
0000
0000
0031
0000
0000
0010
1000
0000
0000
0010
,
1000
0000
0200
0000
0010
0000
0000
0000
0310
0000
0000
0001
0100
0000
0000
0010
,
1000
0200
0010
0000
0310
0000
0001
1000
,
0010
0100
0010
0000
1001
0000
0000
0000
;
