#TITLE:Blue Zenith;
#SUBTITLE:;
#ARTIST:Xi;
#TITLETRANSLIT:;
#SUBTITLETRANSLIT:;
#ARTISTTRANSLIT:;
#CREDIT:;
#BANNER:../banner.png;
#BACKGROUND:../bg.png;
#LYRICSPATH:;
#CDTITLE:;
#MUSIC:Blue Zenith.ogg;
#OFFSET:0.158;
#SAMPLESTART:115.040;
#SAMPLELENGTH:19.400;
#SELECTABLE:YES;
#BPMS:0.000=199.999;
#STOPS:;
#BGCHANGES:;
// cache tags:
#FIRSTBEAT:8.000;
#LASTBEAT:844.000;
#SONGFILENAME:Songs/Cirque du Lykan/Blue Zenith - [Zaia]/Blue Zenith.sm;
#HASMUSIC:1;
#HASBANNER:1;
#MUSICLENGTH:260.048;
// end cache tags

//---------------dance-single - Zaia - 17(low)----------------
#NOTES:
     dance-single:
     Zaia - 17(low):
     Challenge:
     17:
     1.000,1.000,0.015,0.162,1.000,2497.000,4.000,42.000,4.000,0.000:
0000
0000
0000
0000
,
0000
0000
0000
0000
,
1000
0001
0010
0001
,
1000
0100
1000
0010
,
0100
0001
0010
0100
,
1000
0001
0100
0010
,
1000
0001
0010
0100
1000
0001
1000
0010
0100
0001
1000
0001
0010
0001
1000
0100
,
0010
0001
1000
0001
0100
0010
0100
0001
1000
0010
0100
0001
1000
0100
1000
0001
,
1000
0010
0100
0001
,
1000
0100
0010
0100
1000
0001
1000
0010
0100
0001
1000
0001
0100
0010
1000
0001
,
1000
0100
0010
0100
1000
0001
1000
0010
1000
0001
0010
0100
1000
0001
0100
0010
,
1000
0001
0010
0100
0010
0001
1000
0001
0100
0001
1000
0100
0010
0001
1000
0010
,
0100
0001
0100
0010
1000
0001
0010
0100
1000
0001
1000
0010
0100
0010
1000
0001
,
0010
0001
1000
0100
1000
0001
0100
0010
1000
0001
1000
0100
0010
0100
1000
0001
,
0100
0010
1000
0100
0010
0001
1000
0010
0100
0001
1000
0100
0010
0001
1000
0010
,
0100
0001
0010
0001
1000
0010
0100
0010
1000
0001
0010
0100
1000
0001
0100
0010
,
1000
0100
0010
0100
1000
0001
1000
0010
0100
0001
0010
0100
1000
0001
0100
0001
,
1000
0100
1000
0010
0100
0001
0010
0001
1000
0010
0100
0001
1000
0001
1000
0100
,
1000
0001
0100
0010
1000
0001
1000
0100
1000
0001
0100
0010
1000
0001
0010
0100
,
1000
0001
0100
0010
0100
0001
1000
0001
0010
0001
1000
0010
0100
0001
1000
0100
,
0010
0100
1000
0010
0100
0001
1000
0100
0010
0001
1000
0010
0100
0001
1000
0100
,
0010
0001
0100
0001
1000
0100
0010
0100
1000
0001
0100
0010
1000
0001
0010
0100
,
1000
0010
0100
0010
1000
0001
1000
0100
0010
0001
0100
0010
1000
0001
0010
0001
,
1000
0001
0100
0010
0100
0001
1000
0001
0010
0001
1000
0010
0100
0001
1000
0100
,
0010
0100
1000
0010
0100
0001
1000
0100
0010
0001
1000
0010
0100
0001
1000
0100
,
0010
0001
1000
0010
0100
0001
0010
0001
1000
0010
0100
0001
1000
0001
1000
0100
,
0010
0001
1000
0001
0100
0001
1000
0010
1000
0001
0010
0100
1000
0001
1000
0010
,
0100
0001
1000
0001
1000
0100
0010
0100
1000
0001
1000
0010
0100
0001
1000
0001
,
0100
0010
0100
0001
1000
0100
1000
0001
1000
0010
0100
0001
1000
0001
0010
0100
,
1000
0001
0100
0010
0100
0001
1000
0001
0010
0001
1000
0100
1000
0001
1000
0010
,
0100
0001
1000
0001
0010
0100
1000
0001
1000
0010
0100
0010
1000
0001
0100
0001
,
1000
0010
0100
0001
1000
0001
0010
0100
1000
0001
1000
0010
0100
0010
1000
0001
,
0010
0001
1000
0100
0010
0001
1000
0010
0100
0001
1000
0001
0010
0001
1000
0010
,
0100
0001
1000
0100
1000
0001
0010
0001
1000
0010
0100
0001
1000
0001
0010
0100
,
1000
0001
1000
0100
1000
0001
0010
0001
1000
0010
0100
0001
1000
0001
0010
0100
,
1000
0001
1000
0001
0100
0010
0100
0001
1000
0001
0010
0100
1000
0001
1000
0100
,
0010
0100
1000
0001
0100
0001
1000
0001
0010
0100
1000
0001
1000
0010
0100
0001
,
1000
0010
0100
0010
1000
0001
1000
0100
1000
0001
0100
0001
1000
0001
0010
0100
,
1000
0001
1000
0010
0100
0001
1000
0001
0010
0100
0010
0001
1000
0100
1000
0001
,
0010
0100
1000
0001
1000
0010
0100
0001
1000
0001
0010
0100
0010
0001
1000
0010
,
1000
0001
0100
0010
1000
0001
0010
0100
1000
0001
1000
0010
1000
0001
0010
0100
,
1000
0010
0100
0001
1000
0010
1000
0001
0100
0010
1000
0100
1000
0001
0010
0100
,
1000
0001
1000
0001
0010
0001
1000
0100
1000
0001
0100
0010
1000
0001
1000
0100
,
0010
0001
1000
0001
1000
0010
0100
0010
1000
0001
1000
0010
0100
0001
1000
0001
,
0010
0100
0010
0001
1000
0010
1000
0001
1000
0100
0010
0001
1000
0001
0100
0010
,
1000
0001
0010
0100
0010
0001
1000
0001
0100
0001
1000
0010
1000
0001
1000
0100
,
0010
0001
1000
0001
0100
0010
1000
0001
1000
0100
0010
0100
1000
0001
0010
0001
,
1000
0100
0010
0001
1000
0001
0100
0010
1000
0001
1000
0100
0010
0100
1000
0001
,
0100
0001
1000
0010
0100
0001
1000
0100
0010
0001
1000
0001
0100
0001
1000
0100
,
0010
0001
1000
0010
1000
0001
0100
0001
1000
0100
0010
0001
1000
0001
0100
0010
,
1000
0001
1000
0010
1000
0001
0100
0001
1000
0100
0010
0001
1000
0001
0100
0010
,
1000
0001
1000
0001
0010
0100
0010
0001
1000
0001
0100
0010
1000
0001
1000
0010
,
0100
0010
1000
0001
0010
0001
1000
0001
0100
0010
1000
0001
1000
0100
0010
0001
,
1000
0100
0010
0100
1000
0001
1000
0010
1000
0001
0010
0001
1000
0001
0100
0010
,
1000
0001
1000
0100
0010
0001
1000
0001
0100
0010
0100
0001
1000
0010
1000
0001
,
0100
0010
1000
0001
1000
0100
0010
0001
1000
0001
0100
0010
0100
0001
1000
0100
,
1000
0001
0010
0100
1000
0001
0100
0010
1000
0001
1000
0100
1000
0001
0100
0010
,
1000
0100
0010
0001
1000
0100
1000
0001
0010
0100
1000
0010
1000
0001
0100
0010
,
2000
0000
0000
0000
,
0000
0000
0000
0000
,
0000
0000
0000
0000
,
3000
0000
0000
0000
,
1001
0000
0001
0000
,
0000
0000
0000
0000
0000
0000
0010
0000
0100
0000
1000
0000
,
0001
0000
0100
0000
,
0000
0000
0001
0000
,
1000
0000
0010
0000
,
0000
0000
0000
0000
0000
0000
1000
0000
0010
0000
0100
0000
,
0001
0000
0010
0000
,
0000
0100
1000
0010
,
1010
0000
0000
0000
,
0001
0000
0100
0000
,
0001
0000
0000
0000
,
1000
0000
0000
0100
0000
0000
0010
0000
0001
0000
1000
0000
,
0010
0000
0100
0000
,
0000
0001
1000
0010
,
1000
0000
0100
0000
,
0010
0000
0001
0000
,
0011
0000
0001
0000
,
0000
0000
0000
0000
0000
0000
0100
0000
0010
0000
1000
0000
,
0001
0000
0010
0000
,
0000
0000
0001
0000
,
1100
0000
0100
0000
,
0000
0000
0000
0000
0000
0000
1000
0000
0100
0000
0010
0000
,
0001
0000
0100
0000
,
0000
0000
0000
0000
0020
0000
0000
0000
2030
0000
0000
0000
3200
0000
0310
0001
,
2000
0000
0000
0000
,
3002
0000
0000
0000
0000
0000
0000
0000
0023
0000
0000
0000
0000
0000
0130
1000
,
0002
0000
0000
0000
0000
0000
0000
1003
,
0020
0000
0000
2030
0000
0000
3100
0000
1000
0000
0001
0000
,
0200
0000
0000
0000
0320
0000
0000
0130
,
0002
0000
0000
0000
2003
0000
0000
0000
3200
0000
0000
0000
0320
0000
0031
0100
,
0001
0000
2000
0000
0000
0000
3010
0100
0010
0000
0200
0000
0000
0000
0310
1000
,
0010
0000
2000
0000
3001
0010
0001
0010
0100
1000
0001
1000
0100
0010
0100
1000
,
0001
0000
0000
0000
,
0000
0000
0000
0000
,
0001
1000
0001
1000
0010
1000
0001
0100
0001
1000
0100
0010
0001
1000
0001
0100
,
0010
1000
0001
1000
0001
0010
0100
0010
0001
1000
0001
0100
0010
1000
0001
1000
,
0010
0100
0010
1000
0001
0010
0001
1000
0001
0100
0010
1000
0001
1000
0100
0010
,
0001
1000
0010
0100
0010
1000
0001
1000
0100
1000
0001
0010
0001
1000
0001
0100
,
0010
1000
0001
1000
0100
0010
0001
1000
0001
0100
0010
0100
0001
1000
0010
1000
,
0001
0100
0010
1000
0001
1000
0100
0010
0001
1000
0001
0100
0010
0100
0001
1000
,
0100
1000
0001
0010
0100
1000
0001
0100
0010
1000
0001
1000
0100
1000
0001
0100
,
0010
1000
0001
0010
0001
1000
0100
1000
0001
0100
0010
1000
0001
1000
0100
0010
,
0001
1000
0001
0010
0001
1000
0100
1000
0001
0100
0010
1000
0001
1000
0100
0010
,
0001
1000
0001
1000
0010
0100
0010
1000
0001
1000
0100
0010
0001
1000
0001
0010
,
0100
0010
0001
1000
0010
1000
0001
1000
0100
0010
0001
1000
0001
0100
0010
1000
,
0001
0100
0010
0100
0001
1000
0001
0010
0001
1000
0010
1000
0001
1000
0100
0010
,
0001
1000
0001
0100
0010
1000
0001
1000
0100
0010
0100
1000
0001
0010
0001
1000
,
0100
0010
0001
1000
0001
0100
0010
1000
0001
1000
0100
0010
0100
1000
0001
0100
,
0001
1000
0010
0100
0001
1000
0100
0010
0001
1000
0001
0100
0001
1000
0100
0010
,
0001
0100
0010
1000
0001
0100
0001
1000
0010
0100
0001
0010
0001
1000
0100
0010
,
0001
1000
0001
1000
0100
1000
0001
0010
0001
1000
0010
0100
0001
1000
0001
0010
,
0100
1000
0001
1000
0001
0100
0010
0100
0001
1000
0001
0100
0010
1000
0001
1000
,
0100
0010
0100
1000
0001
0100
0001
1000
0001
0010
0100
1000
0001
1000
0010
0100
,
0001
1000
0100
0010
0100
1000
0001
1000
0010
1000
0001
0100
0001
1000
0001
0010
,
0100
1000
0001
1000
0010
0100
0001
1000
0001
0010
0100
0010
0001
1000
0100
1000
,
0001
0010
0100
1000
0001
1000
0010
0100
0001
1000
0001
0010
0100
0010
0001
1000
,
0010
1000
0001
0100
0010
1000
0001
0010
0100
1000
0001
1000
0010
1000
0001
0010
,
0100
1000
0001
0100
0001
1000
0010
1000
0001
0010
0100
1000
0001
1000
0010
0100
,
0001
1000
0001
0100
0001
1000
0010
1000
0001
0010
0100
1000
0001
1000
0010
0100
,
0001
1000
0001
1000
0100
0010
0100
1000
0001
1000
0010
0100
0001
1000
0001
0100
,
0010
0100
0001
1000
0100
1000
0001
1000
0010
0100
0001
1000
0001
0010
0100
1000
,
0001
0010
0100
0010
0001
1000
0001
0100
0001
1000
0100
1000
0001
1000
0010
0100
,
0001
0010
0001
1000
0100
1000
0001
1000
0010
0100
0010
1000
0001
0100
0010
1000
,
0100
1000
0001
0100
0001
1000
0100
1000
0001
1000
0010
0100
0010
1000
0001
0010
,
0001
0100
0010
1000
0001
1000
0010
0100
0001
0010
0100
1000
0001
1000
0010
0100
,
0001
0010
0100
1000
0001
0010
0001
1000
0100
0010
0001
0100
0001
0010
0100
1000
,
0010
0100
0001
1000
0001
0100
0001
1000
0100
0010
0001
1000
0100
1000
0001
0010
,
0001
1000
0010
1000
0001
0100
0010
0100
0001
0100
0010
1000
0001
0010
0100
1000
,
0001
0100
0001
1000
0100
0010
0100
1000
0001
1000
0010
0100
0001
0100
0010
1000
,
0001
0010
0100
1000
0001
1000
0100
0010
0001
1000
0010
0100
0010
1000
0001
0010
,
0001
1000
0010
0100
0001
1000
0100
0010
0100
1000
0001
1000
0010
0100
0001
1000
,
0001
1000
0100
0010
0100
1000
0100
0010
0001
1000
0010
0100
0001
0010
0100
1000
,
0010
0100
0001
1000
0010
1000
0001
0010
0100
0010
0001
1000
0001
1000
0010
0100
,
0001
1000
0001
0010
0100
0010
0001
1000
0010
1000
0001
0000
0000
0000
1000
0010
,
0100
0010
1000
0001
1000
0100
1000
0001
0100
0010
1000
0001
0100
0001
1000
0010
,
1000
0001
0010
0001
1000
0100
0010
0100
1000
0100
0010
0001
1000
0010
0100
0001
,
1000
0100
1000
0001
0100
0010
0100
0001
1000
0001
0010
0100
1000
0100
0010
0001
,
1000
0010
0100
0001
1000
0001
0100
0010
1000
0001
0010
0100
0010
0001
1000
0010
,
1000
0001
1000
0010
0100
0001
1000
0001
0010
0100
0010
0001
1000
0100
1000
0001
,
0010
0100
1000
0001
1000
0010
0100
0001
1000
0001
0010
0100
0010
0001
1000
0010
,
1000
0001
0100
0010
1000
0001
0010
0100
1000
0001
1000
0010
1000
0001
0010
0100
,
1000
0010
0100
0001
1000
0010
1000
0001
0100
0010
1000
0100
1000
0001
0010
0100
,
2000
0000
0000
0000
,
3020
0000
0230
0000
,
0302
0000
0000
0000
,
2003
0000
0000
3200
0000
0000
0310
0000
0100
0000
1000
0000
,
0002
0000
0203
0000
,
0000
0320
2030
3002
,
0023
0000
0230
0000
,
2300
0000
3020
0000
,
1030
0000
0000
0000
,
0000
0000
0000
0000
,
1000
0001
1000
0001
0010
0001
1000
0100
1000
0001
0100
0010
1000
0001
1000
0100
,
0010
0001
1000
0001
1000
0010
0100
0010
1000
0001
1000
0100
0010
0001
1000
0001
,
0010
0100
0010
0001
1000
0010
1000
0001
1000
0100
0010
0001
1000
0001
0100
0010
,
1000
0001
0010
0100
0010
0001
1000
0001
0100
0001
1000
0010
1000
0001
1000
0100
,
0010
0001
1000
0001
0100
0010
1000
0001
1000
0100
0010
0100
1000
0001
0010
0001
,
1000
0100
0010
0001
1000
0001
0100
0010
1000
0001
1000
0100
0010
0100
1000
0001
,
0100
0001
1000
0010
0100
0001
1000
0100
0010
0001
1000
0001
0100
0001
1000
0100
,
0010
0001
1000
0010
1000
0001
0100
0001
1000
0100
0010
0001
1000
0001
0100
0010
,
1000
0001
1000
0010
1000
0001
0100
0001
1000
0100
0010
0001
1000
0001
0100
0010
,
1000
0001
1000
0001
0010
0100
0010
0001
1000
0001
0100
0010
1000
0001
1000
0010
,
0100
0010
1000
0001
0010
0001
1000
0001
0100
0010
1000
0001
1000
0100
0010
0001
,
1000
0100
0010
0100
1000
0001
1000
0010
1000
0001
0010
0001
1000
0001
0100
0010
,
1000
0001
1000
0100
0010
0001
1000
0001
0100
0010
0100
0001
1000
0010
1000
0001
,
0100
0010
1000
0001
1000
0100
0010
0001
1000
0001
0100
0010
0100
0001
1000
0100
,
1000
0001
0010
0100
1000
0001
0100
0010
1000
0001
1000
0100
1000
0001
0100
0010
,
1000
0100
0010
0001
1000
0100
1000
0001
0010
0100
1000
0010
1000
0001
0100
0010
,
1000
0001
1000
0001
0100
0001
1000
0010
1000
0001
0010
0100
1000
0001
1000
0010
,
0100
0001
1000
0001
1000
0100
0010
0100
1000
0001
1000
0100
0010
0001
1000
0001
,
0100
0010
0100
0001
1000
0100
1000
0001
1000
0010
0100
0001
1000
0001
0010
0100
,
1000
0001
0100
0010
0100
0001
1000
0001
0010
0001
1000
0100
1000
0001
1000
0010
,
0100
0001
1000
0001
0010
0100
1000
0001
1000
0010
0100
0010
1000
0001
0100
0001
,
1000
0010
0100
0001
1000
0001
0010
0100
1000
0001
1000
0010
0100
0010
1000
0001
,
0010
0001
1000
0100
0010
0001
1000
0010
0100
0001
1000
0001
0010
0001
1000
0010
,
0100
0001
1000
0100
1000
0001
0010
0001
1000
0010
0100
0001
1000
0001
0010
0100
,
1000
0001
1000
0100
1000
0001
0010
0001
1000
0010
0100
0001
1000
0001
0010
0100
,
1000
0001
1000
0001
0100
0010
0100
0001
1000
0001
0010
0100
1000
0001
1000
0100
,
0010
0100
1000
0001
0100
0001
1000
0001
0010
0100
1000
0001
1000
0010
0100
0001
,
1000
0010
0100
0010
1000
0001
1000
0100
1000
0001
0100
0001
1000
0001
0010
0100
,
1000
0010
1000
0001
0100
0001
1000
0001
0010
0100
0010
0001
1000
0100
0010
0001
,
0100
0001
1000
0100
1000
0001
0100
0001
1000
0001
0010
0100
0010
0001
1000
0010
,
1000
0100
0010
0001
1000
0001
0010
0100
1000
0010
0100
0001
1000
0001
0010
0100
,
1000
0010
0100
0001
1000
0010
1000
0001
0100
0010
1000
0100
1000
0010
0100
0001
,
0010
0100
1000
0001
1000
0100
1000
0001
0100
0010
1000
0001
0100
0001
1000
0010
,
1000
0001
0010
0001
1000
0100
0010
0100
1000
0100
0010
0001
1000
0010
0100
0001
,
1000
0100
1000
0001
0100
0010
0100
0001
1000
0001
0010
0100
1000
0100
0010
0001
,
1000
0010
0100
0001
1000
0001
0100
0010
1000
0001
0010
0100
0010
0001
1000
0010
,
1000
0001
0010
0100
1000
0001
0100
0010
0100
0001
1000
0001
0010
0100
1000
0001
,
1000
0001
0100
0010
0100
0001
0100
0010
1000
0001
0010
0100
1000
0010
0100
0001
,
0010
0100
1000
0001
0010
0001
1000
0010
0100
0010
1000
0001
1000
0001
0010
0100
,
1000
0001
1000
0010
0100
0010
1000
0001
0010
0001
1000
0000
0000
0000
0001
0010
,
0100
0010
0001
1000
0001
0100
0001
1000
0100
0010
0001
1000
0100
1000
0001
0010
,
0001
1000
0010
1000
0001
0100
0010
0100
0001
0100
0010
1000
0001
0010
0100
1000
,
0001
0100
0001
1000
0100
0010
0100
1000
0001
1000
0010
0100
0001
0100
0010
1000
,
0001
0010
0100
1000
0001
1000
0100
0010
0001
1000
0010
0100
0010
1000
0001
0010
,
0001
1000
0001
0010
0100
1000
0001
1000
0010
0100
0010
1000
0001
0100
0001
1000
,
0010
0100
0001
1000
0001
0010
0100
1000
0001
1000
0010
0100
0010
1000
0001
0010
,
0001
1000
0100
0010
0001
1000
0010
0100
0001
1000
0001
0010
0001
1000
0010
0100
,
0001
0010
0100
1000
0001
0010
0001
1000
0100
0010
0001
0100
0001
1000
0010
0100
,
0002
0000
0000
0000
,
0023
0000
0230
0000
,
2300
0000
0000
0000
,
3002
0000
0000
0203
0000
0000
0310
0000
0100
0000
0001
0000
,
2000
0000
3200
0000
,
0300
0000
0000
0000
,
0000
0000
0000
0000
,
0000
0000
0000
0000
,
0000
0000
0000
0000
,
MMMM
0000
0000
0000
;

//---------------dance-single - Zaia - 15(high)----------------
#NOTES:
     dance-single:
     Zaia - 15(high):
     Hard:
     15:
     1.000,1.000,0.169,0.162,1.000,1988.000,44.000,42.000,4.000,0.000:
0000
0000
0000
0000
,
0000
0000
0000
0000
,
1000
0001
0010
0001
,
1000
0100
1000
0010
,
0100
0001
0010
0100
,
1000
0001
0100
0010
,
1000
0001
0010
0100
1000
0001
1000
0010
0100
0001
1000
0001
0010
0001
1000
0100
,
0010
0001
1000
0001
0100
0010
0100
0001
1000
0010
0100
0001
1000
0100
1000
0001
,
1000
0010
0100
0001
,
1000
0100
0010
0100
1000
0001
1000
0010
0100
0001
1000
0001
0100
0010
1000
0001
,
1000
0000
0100
0000
0010
0000
0100
1000
0001
0000
0100
0010
1000
0010
1000
0000
,
0001
0000
0010
0000
0100
0000
0010
0001
1000
0000
0010
0100
0001
0100
0001
0000
,
1000
0000
0001
0000
0010
0000
0001
1000
0010
0000
0100
0001
0100
0001
1000
0000
,
0001
0000
1000
0000
0100
0000
0010
0100
1000
0000
0001
0010
0001
0010
0100
0000
,
1000
0100
0010
0001
1000
0010
0100
0001
1000
0100
0010
0001
1000
0010
0100
0001
,
0010
0001
1000
0010
0100
0010
1000
0001
0010
0100
1000
0001
0100
0010
1000
0100
,
0010
0001
1000
0001
1000
0010
1000
0010
,
0100
0000
0001
0100
0001
0000
1000
0100
1000
0000
0100
0000
0010
0100
0010
0100
,
1000
0000
0010
0000
0100
0000
0010
1000
0001
0000
0010
0100
1000
0100
1000
0000
,
0001
0000
0100
0000
0010
0000
0100
0001
1000
0000
0100
0010
0001
0010
0001
0000
,
1000
0000
0001
0000
0100
0000
0001
1000
0100
0000
0010
0001
0010
0001
1000
0000
,
0001
0000
1000
0000
0010
0000
0100
0010
1000
0000
0001
0100
0001
0100
0010
0000
,
1000
0100
0010
0001
1000
0001
0100
0001
,
1000
0100
1000
0010
1000
0001
0010
0001
,
0010
0100
1000
0010
0100
0001
1000
0100
0010
0001
1000
0010
0100
0001
1000
0100
,
0010
0000
0001
0010
0001
0000
1000
0010
1000
0001
1000
0000
0001
0100
0001
0100
,
0010
1000
0001
1000
0010
0100
0010
1000
0001
0100
0001
1000
0010
1000
0001
0100
,
0001
1000
0100
1000
0001
0010
0100
1000
0001
1000
0100
0010
0100
1000
0001
1000
,
0010
0100
0001
1000
0001
0100
0010
0100
0001
1000
0010
0100
0010
1000
0001
0100
,
0001
1000
0100
1000
0001
0010
0001
1000
0100
0010
0001
1000
0001
0010
0100
1000
,
0001
1000
0010
0100
0001
1000
0010
1000
0001
0100
0010
1000
0001
0100
0001
1000
,
0001
0010
0100
0010
0001
1000
0100
0010
0100
1000
0001
0010
0001
1000
0100
0010
,
0001
1000
0010
1000
0001
0100
0010
0100
0001
1000
0010
0100
0001
1000
0010
1000
,
0001
0010
0100
0010
0001
1000
0100
1000
0001
0010
0100
1000
0001
1000
0100
1000
,
0001
0100
0010
1000
0001
1000
0010
0100
,
0001
1000
0100
0010
0100
1000
0001
0010
,
0001
1000
0010
0100
0001
1000
0001
0100
,
0010
1000
0001
1000
0100
0010
0100
1000
,
0001
1000
0010
0100
0001
1000
0001
0100
,
0010
1000
0001
0010
0100
0010
0001
1000
,
0001
0100
0010
0100
0001
1000
0010
1000
,
0001
0010
0100
1000
0100
0010
0001
1000
,
0001
0100
0010
0100
0001
1000
0010
0100
0001
1000
0001
0100
0010
1000
0001
0100
,
0001
1000
0100
0010
0100
1000
0001
0010
0100
1000
0001
1000
0100
0010
0001
1000
,
0010
1000
0001
0100
0010
0100
0001
1000
0001
0100
0001
1000
0010
0100
0001
1000
,
0001
0010
0100
1000
0100
0010
0001
1000
0100
0010
0100
1000
0001
0010
0001
1000
,
0010
0100
0010
1000
0001
0100
0010
0100
0001
1000
0010
0100
0001
1000
0001
0100
,
0001
1000
0100
0010
0001
1000
0001
0010
0100
1000
0001
0010
0001
1000
0100
0010
,
0001
1000
0010
1000
0001
0100
0010
0100
0001
1000
0010
0100
0001
1000
0001
1000
,
0100
0010
0100
1000
0001
0010
0100
1000
0001
0010
0001
1000
0100
1000
0001
1000
,
0010
0100
0001
1000
0001
0100
0010
1000
,
0001
1000
0100
0010
0100
1000
0001
0010
,
0001
1000
0010
1000
0001
0100
0010
1000
,
0001
1000
0100
0010
0001
1000
0001
0010
,
0001
1000
0010
0100
0010
1000
0001
0100
,
0001
1000
0100
1000
0001
0010
0100
1000
,
0001
1000
0010
0100
0001
1000
0010
1000
,
0001
0010
0100
0010
0001
1000
0100
0010
,
0002
0000
0000
0000
,
0000
0000
0000
0000
,
0000
0000
0000
0000
,
0003
0000
0000
0000
,
1001
0000
1000
0000
,
0000
0000
0000
0000
0000
0000
0100
0000
0010
0000
0001
0000
,
1000
0000
0010
0000
,
0000
0000
1000
0000
,
0001
0000
0100
0000
,
0000
0000
0000
0000
0000
0000
0001
0000
0100
0000
0010
0000
,
1000
0000
0100
0000
,
0000
0010
0001
0100
,
0101
0000
0000
0000
,
1000
0000
0010
0000
,
1000
0000
0000
0000
,
0001
0000
0000
0010
0000
0000
0100
0000
1000
0000
0001
0000
,
0100
0000
0010
0000
,
0000
1000
0001
0100
,
0001
0000
0010
0000
,
0100
0000
1000
0000
,
1100
0000
1000
0000
,
0000
0000
0000
0000
0000
0000
0010
0000
0100
0000
0001
0000
,
1000
0000
0100
0000
,
0000
0000
1000
0000
,
0011
0000
0010
0000
,
0000
0000
0000
0000
0000
0000
0001
0000
0010
0000
0100
0000
,
1000
0000
0010
0000
,
0000
0000
0000
0000
0200
0000
0000
0000
0302
0000
0000
0000
0023
0000
0130
1000
,
0002
0000
0000
0000
,
2003
0000
0000
0000
0000
0000
0000
0000
3200
0000
0000
0000
0000
0000
0310
0001
,
2000
0000
0000
0000
0000
0000
0000
3001
,
0200
0000
0000
0302
0000
0000
0013
0000
0001
0000
1000
0000
,
0020
0000
0000
0000
0230
0000
0000
0310
,
2000
0000
0000
0000
3002
0000
0000
0000
0023
0000
0000
0000
0230
0000
1300
0010
,
1000
0000
0002
0000
0000
0000
0103
0010
0100
0000
0020
0000
0000
0000
0130
0001
,
0100
0000
0002
0000
1003
0100
1000
0100
0010
0001
1000
0001
0010
0100
0010
0001
,
1000
0000
0000
0000
,
0000
0000
0000
0000
,
1000
0001
1000
0001
0100
0001
1000
0010
1000
0001
0010
0100
1000
0001
1000
0010
,
0100
0001
1000
0001
1000
0100
0010
0100
1000
0001
1000
0010
0100
0001
1000
0001
,
0100
0010
0100
0001
1000
0100
1000
0001
1000
0010
0100
0001
1000
0001
0010
0100
,
1000
0001
0100
0010
0100
0001
1000
0001
0010
0001
1000
0100
1000
0001
1000
0010
,
0100
0001
1000
0001
0010
0100
1000
0001
1000
0010
0100
0010
1000
0001
0100
0001
,
1000
0010
0100
0001
1000
0001
0010
0100
1000
0001
1000
0010
0100
0010
1000
0001
,
0010
0001
1000
0100
0010
0001
1000
0010
0100
0001
1000
0001
0010
0001
1000
0010
,
0100
0001
1000
0100
1000
0001
0010
0001
1000
0010
0100
0001
1000
0001
0010
0100
,
1000
0001
1000
0100
1000
0001
0010
0001
1000
0010
0100
0001
1000
0001
0010
0100
,
1000
0001
1000
0001
0100
0010
0100
0001
1000
0001
0010
0100
1000
0001
1000
0100
,
0010
0100
1000
0001
0100
0001
1000
0001
0010
0100
1000
0001
1000
0010
0100
0001
,
1000
0010
0100
0010
1000
0001
1000
0100
1000
0001
0100
0001
1000
0001
0010
0100
,
1000
0001
1000
0010
0100
0001
1000
0001
0010
0100
0010
0001
1000
0100
1000
0001
,
0010
0100
1000
0001
1000
0010
0100
0001
1000
0001
0010
0100
0010
0001
1000
0010
,
1000
0001
0100
0010
1000
0001
0010
0100
1000
0001
1000
0010
1000
0001
0010
0100
,
1000
0010
0100
0001
1000
0010
1000
0001
0100
0010
1000
0100
1000
0001
0010
0100
,
1000
0001
1000
0001
0010
0001
1000
0100
1000
0001
0100
0010
1000
0001
1000
0100
,
0010
0001
1000
0001
1000
0010
0100
0010
1000
0001
1000
0010
0100
0001
1000
0001
,
0010
0100
0010
0001
1000
0010
1000
0001
1000
0100
0010
0001
1000
0001
0100
0010
,
1000
0001
0010
0100
0010
0001
1000
0001
0100
0001
1000
0010
1000
0001
1000
0100
,
0010
0001
1000
0001
0100
0010
1000
0001
1000
0100
0010
0100
1000
0001
0010
0001
,
1000
0100
0010
0001
1000
0001
0100
0010
1000
0001
1000
0100
0010
0100
1000
0001
,
0100
0001
1000
0010
0100
0001
1000
0100
0010
0001
1000
0001
0100
0001
1000
0100
,
0010
0001
1000
0010
1000
0001
0100
0001
1000
0100
0010
0001
1000
0001
0100
0010
,
1000
0001
1000
0010
1000
0001
0100
0001
1000
0100
0010
0001
1000
0001
0100
0010
,
1000
0001
1000
0001
0010
0100
0010
0001
1000
0001
0100
0010
1000
0001
1000
0010
,
0100
0010
1000
0001
0010
0001
1000
0001
0100
0010
1000
0001
1000
0100
0010
0001
,
1000
0100
0010
0100
1000
0001
1000
0010
1000
0001
0010
0001
1000
0001
0100
0010
,
1000
0100
1000
0001
0010
0001
1000
0001
0100
0010
0100
0001
1000
0010
0100
0001
,
0010
0001
1000
0010
1000
0001
0010
0001
1000
0001
0100
0010
0100
0001
1000
0100
,
1000
0010
0100
0001
1000
0001
0100
0010
1000
0100
0010
0001
1000
0001
0100
0010
,
1000
0100
0010
0001
1000
0100
1000
0001
0010
0100
1000
0010
1000
0100
0010
0001
,
0100
0101
0001
1001
,
1000
0000
0000
1100
0000
0000
0100
0000
0010
0000
0001
0000
,
1000
1010
0010
0110
,
0100
0000
0101
0000
0001
0000
1001
1000
,
0100
1100
1000
1010
,
0010
0000
0000
0110
0000
0000
0100
0000
0010
0000
1000
0000
,
0001
0011
0010
0110
,
0100
0000
0000
0000
1100
0000
0000
0000
1000
0000
0000
0000
0000
0000
0001
0100
,
0001
1001
1000
1100
,
0100
0000
0000
0110
0000
0000
0010
0000
0001
0000
1000
0000
,
0100
1100
1000
1001
,
0001
0000
0101
0000
1000
0000
1010
1000
,
0010
0000
0100
0000
0001
0000
0100
0000
0010
0000
1000
0000
0100
0000
0010
0100
,
1000
0000
0001
0000
0100
0000
0010
0000
0100
0000
0001
0000
1000
0000
0100
0010
,
0001
0000
1000
0000
0010
0000
0100
0001
1000
0000
0100
0000
0010
0000
0100
1000
,
0001
0100
0010
1000
0001
0100
0001
1000
0010
0100
0001
0010
0001
1000
0100
0010
,
0002
0000
0000
0000
,
0203
0000
0320
0000
,
2030
0000
0000
0000
,
3002
0000
0000
0023
0000
0000
0130
0000
0010
0000
0001
0000
,
2000
0000
3020
0000
,
0000
0230
0302
2003
,
3200
0000
0320
0000
,
0032
0000
0203
0000
,
0301
0000
0000
0000
,
0000
0000
0000
0000
,
0001
1000
0001
1000
0100
1000
0001
0010
0001
1000
0010
0100
0001
1000
0001
0010
,
0100
1000
0001
1000
0001
0100
0010
0100
0001
1000
0001
0010
0100
1000
0001
1000
,
0100
0010
0100
1000
0001
0100
0001
1000
0001
0010
0100
1000
0001
1000
0010
0100
,
0001
1000
0100
0010
0100
1000
0001
1000
0010
1000
0001
0100
0001
1000
0001
0010
,
0100
1000
0001
1000
0010
0100
0001
1000
0001
0010
0100
0010
0001
1000
0100
1000
,
0001
0010
0100
1000
0001
1000
0010
0100
0001
1000
0001
0010
0100
0010
0001
1000
,
0010
1000
0001
0100
0010
1000
0001
0010
0100
1000
0001
1000
0010
1000
0001
0010
,
0100
1000
0001
0100
0001
1000
0010
1000
0001
0010
0100
1000
0001
1000
0010
0100
,
0001
1000
0001
0100
0001
1000
0010
1000
0001
0010
0100
1000
0001
1000
0010
0100
,
0001
1000
0001
1000
0100
0010
0100
1000
0001
1000
0010
0100
0001
1000
0001
0100
,
0010
0100
0001
1000
0100
1000
0001
1000
0010
0100
0001
1000
0001
0010
0100
1000
,
0001
0010
0100
0010
0001
1000
0001
0100
0001
1000
0100
1000
0001
1000
0010
0100
,
0001
1000
0001
0010
0100
1000
0001
1000
0010
0100
0010
1000
0001
0100
0001
1000
,
0010
0100
0001
1000
0001
0010
0100
1000
0001
1000
0010
0100
0010
1000
0001
0010
,
0001
1000
0100
0010
0001
1000
0010
0100
0001
1000
0001
0010
0001
1000
0010
0100
,
0001
0010
0100
1000
0001
0010
0001
1000
0100
0010
0001
0100
0001
1000
0010
0100
,
0001
1000
0001
1000
0010
1000
0001
0100
0001
1000
0100
0010
0001
1000
0001
0100
,
0010
1000
0001
1000
0001
0010
0100
0010
0001
1000
0001
0010
0100
1000
0001
1000
,
0010
0100
0010
1000
0001
0010
0001
1000
0001
0100
0010
1000
0001
1000
0100
0010
,
0001
1000
0010
0100
0010
1000
0001
1000
0100
1000
0001
0010
0001
1000
0001
0100
,
0010
1000
0001
1000
0100
0010
0001
1000
0001
0100
0010
0100
0001
1000
0010
1000
,
0001
0100
0010
1000
0001
1000
0100
0010
0001
1000
0001
0100
0010
0100
0001
1000
,
0100
1000
0001
0010
0100
1000
0001
0100
0010
1000
0001
1000
0100
1000
0001
0100
,
0010
1000
0001
0010
0001
1000
0100
1000
0001
0100
0010
1000
0001
1000
0100
0010
,
0001
1000
0001
0010
0001
1000
0100
1000
0001
0100
0010
1000
0001
1000
0100
0010
,
0001
1000
0001
1000
0010
0100
0010
1000
0001
1000
0100
0010
0001
1000
0001
0010
,
0100
0010
0001
1000
0010
1000
0001
1000
0100
0010
0001
1000
0001
0100
0010
1000
,
0001
0100
0010
0100
0001
1000
0001
0010
0001
1000
0010
1000
0001
1000
0100
0010
,
0001
0100
0001
1000
0010
1000
0001
1000
0100
0010
0100
1000
0001
0010
0100
1000
,
0010
1000
0001
0010
0001
1000
0010
1000
0001
1000
0100
0010
0100
1000
0001
0100
,
0001
0010
0100
1000
0001
1000
0100
0010
0001
0100
0010
1000
0001
1000
0100
0010
,
0001
0100
0010
1000
0001
0100
0001
1000
0010
0100
0001
0010
0001
0100
0010
1000
,
0100
1100
1000
1001
,
0001
0000
0000
0101
0000
0000
0100
0000
0010
0000
1000
0000
,
0001
0011
0010
0110
,
0100
0000
1100
0000
1000
0000
1001
0001
,
0100
0101
0001
0011
,
0010
0000
0000
0110
0000
0000
0100
0000
0010
0000
0001
0000
,
1000
1010
0010
0110
,
0100
0000
0000
0000
0101
0000
0000
0000
0001
0000
0000
0000
0000
0000
1000
0100
,
1000
1001
0001
0101
,
0100
0000
0000
0110
0000
0000
0010
0000
1000
0000
0001
0000
,
0100
0101
0001
1001
,
1000
0000
1100
0000
0001
0000
0011
0001
,
0010
0000
0100
0000
1000
0000
0100
0000
0010
0000
0001
0000
0100
0000
0010
0100
,
0001
0000
1000
0000
0100
0000
0010
0000
0100
0000
1000
0000
0001
0000
0100
0010
,
1000
0000
0001
0000
0010
0000
0100
1000
0001
0000
0100
0000
0010
0000
0100
0001
,
1000
0100
0010
0001
1000
0100
1000
0001
0010
0100
1000
0010
1000
0001
0100
0010
,
2000
0000
0000
0000
,
3200
0000
0320
0000
,
0032
0000
0000
0000
,
2003
0000
0000
3020
0000
0000
0130
0000
0010
0000
1000
0000
,
0002
0000
0023
0000
,
0030
0000
0000
0000
,
0000
0000
0000
0000
,
0000
0000
0000
0000
,
0000
0000
0000
0000
,
MMMM
0000
0000
0000
;
