#TITLE:To Cure a Weakling Child;
#SUBTITLE:;
#ARTIST:Aphex Twin;
#TITLETRANSLIT:;
#SUBTITLETRANSLIT:;
#ARTISTTRANSLIT:;
#CREDIT:;
#BANNER:cure.PNG;
#BACKGROUND:cure-bg.jpg;
#LYRICSPATH:;
#CDTITLE:!phynnTitle.gif;
#MUSIC:To Cure a Weakling Child.mp3;
#OFFSET:0.000;
#SAMPLESTART:100.000;
#SAMPLELENGTH:12.000;
#SELECTABLE:YES;
#BPMS:0.000=162.870;
#STOPS:;
#BGCHANGES:;
// cache tags:
#FIRSTBEAT:1.500;
#LASTBEAT:435.750;
#SONGFILENAME:Songs/Essential Sim Collection/(Phynn) To Cure a Weakling Child/To Cure a Weakling Child.sm;
#HASMUSIC:1;
#HASBANNER:1;
#MUSICLENGTH:169.508;
// end cache tags

//---------------dance-single - ----------------
#NOTES:
     dance-single:
     :
     Challenge:
     12:
     1.000,1.000,1.000,0.643,1.000,1003.000,192.000,109.000,0.000,3.000:
0000
0000
0000
0000
0000
0000
0020
0030
0000
0000
0001
1000
0000
0000
0200
0300
,
0000
0000
0000
0000
0000
0000
2000
3000
0000
0000
0000
0000
0000
0000
0200
0300
,
0000
0000
0000
0000
0000
0000
0022
0033
0000
0000
0000
0000
0000
0000
0200
0300
,
0000
0000
0000
0020
0000
0000
0030
0000
,
0000
0000
0000
0000
0000
0000
0200
0300
0000
0000
0000
0000
0000
0000
0000
0000
,
0000
0000
0000
0000
0000
0000
0002
0003
0000
0000
0000
0000
0000
0000
1000
0000
,
0100
0010
0001
1000
0100
0010
0000
0000
,
0000
0000
0000
0000
0000
0000
0000
0002
,
0003
0000
0000
0000
0000
0000
2000
0000
0000
0000
0001
0001
3000
0000
0200
0300
,
0000
0000
0000
0000
0000
0000
0020
0030
0000
0000
0000
0000
0000
0000
1002
0000
,
0003
0000
0000
0000
0000
0000
1200
0000
0000
0300
0000
0000
0000
0000
0002
0003
,
0000
0000
0000
0200
0000
0000
0300
0000
,
0000
0000
0000
0000
0000
0000
0020
0030
0000
0000
0000
0000
0000
0000
0000
0000
,
0000
0000
0000
0000
0000
0000
0002
0003
0000
0000
0000
0000
0000
0000
1000
0000
,
0100
0010
0001
1000
0100
0010
0000
0000
,
0000
0000
0000
0000
0000
0000
0000
0000
0000
0000
0000
0000
0000
0000
1001
0010
,
0001
0000
0000
0000
0000
0000
0000
0000
0001
0000
0000
0000
1100
0000
0000
0000
0100
0000
0010
0000
0001
0010
0100
0000
1100
0000
0000
0000
0101
0000
0010
0000
,
0100
0000
0000
0000
0100
0000
0011
0000
0001
0001
0000
0000
1010
0000
0110
0000
,
0001
0000
0000
0000
0000
0000
1100
0000
0001
0001
0000
0000
0100
0000
1001
0000
,
0100
0000
0000
0000
0010
0000
0000
0000
0001
0000
0000
0000
1100
0000
0000
0000
1100
0000
0000
0000
2100
0000
3001
0000
1100
0000
0000
0000
0001
1000
0001
1000
,
0001
0000
0000
0000
0000
0000
0000
0000
0001
1000
0001
1000
0001
0000
0000
0000
0000
0000
0000
0000
0010
0000
0000
0000
0010
0000
0000
0000
1100
0000
0000
0000
,
1100
0000
0000
0000
0012
0000
0103
0000
2000
3000
0002
0000
2003
3000
0000
0000
2000
3000
0000
0000
0022
0033
0000
0000
0200
0300
0000
0000
0010
0000
0000
0000
,
0000
0000
0100
0000
0000
0000
0001
1000
0010
0000
0000
0000
0000
1100
0010
0001
,
0001
0000
0000
0000
1000
0000
0000
0000
0012
0003
0000
0000
0001
0000
0010
0000
0100
0000
1000
0000
0010
0000
0100
0000
0001
0000
0010
0000
0100
1000
0100
0000
,
0010
0000
0000
0000
2000
0100
3010
0001
0010
0100
1000
0000
1100
0000
0000
0000
0001
0000
0020
0030
0000
0000
0011
0000
1000
0000
0000
0000
0001
0000
0010
0000
,
0100
0000
0000
0000
1100
0000
0000
0000
0001
0000
0000
0000
2100
0000
3000
0000
0001
0000
0001
0000
0000
0110
0000
0000
0011
0000
0000
0000
1100
0000
0000
0000
,
0011
0000
0000
0000
0110
0000
0000
0000
0000
0000
0000
0000
0011
0000
0000
0000
0100
0000
0100
0000
0000
0000
0011
0000
0100
0000
0000
0000
2000
3000
0000
0000
,
2000
3000
0000
0000
2000
3000
0000
0000
2000
3000
0000
0000
0011
0000
0000
0000
0011
0000
0000
0000
0011
0000
0000
0000
0011
0000
0000
0000
0001
0010
0001
0010
,
0001
0000
0000
0000
0000
0000
0000
0000
0010
0001
0010
0001
0010
0000
0000
0000
0000
0000
0000
0000
0000
0000
0000
0000
0000
0000
0000
0000
0110
0000
0000
0000
,
0110
0000
0000
0000
2001
3000
0000
0000
2000
0000
3100
0000
0020
0000
0031
0000
0020
0030
0000
0000
1100
0000
0000
0000
0012
0000
0013
0000
2000
0000
0100
0000
,
3010
0001
0000
0000
0001
0000
0010
0000
2100
3010
0000
0100
0001
2010
3100
0001
,
0000
0000
1000
0000
0000
0000
0000
0000
0210
0000
0010
0300
0001
0000
0000
0000
1000
0000
0010
0000
0100
0000
0001
0000
0010
0100
1000
0010
0100
0001
0000
0010
,
0000
0000
0000
0000
2100
0000
3000
0000
0001
0000
0010
0000
0200
0300
0000
0000
0100
0000
0100
0000
0000
0000
0011
0000
0001
0000
0000
0000
1000
0000
0100
0000
,
1000
0000
0011
0100
0010
0001
0010
0100
1000
1000
0000
0011
0010
0000
0100
0000
,
2000
3000
0000
0000
0110
0000
0000
0000
0000
0000
0000
0000
0001
0000
0000
0000
0100
0000
1000
0000
0000
0000
0011
0000
0010
0000
0000
0000
0100
0000
0000
0000
,
0100
0000
0000
0000
0100
0000
0000
0000
0100
0000
0000
0000
1100
0000
0000
0000
1000
0000
0000
0000
0010
0000
0000
0000
0001
0000
0000
0000
0001
0010
0100
1000
,
0100
0000
0000
0000
0000
0000
0000
0000
0001
0010
0100
1000
0100
0000
0000
0000
0000
0000
0000
0000
1000
0000
0000
0000
1000
0000
0000
0000
0001
0000
0000
0000
,
0001
0000
1010
0000
1000
0100
0010
0001
0100
0010
1100
0000
0001
0000
1000
0000
,
1000
0000
0000
0000
1000
0000
0000
0000
2000
0000
3000
0000
0110
0000
0010
0000
1100
0000
0000
0000
1100
0000
0000
0000
0000
0000
1000
0100
0010
0000
0000
0000
,
0001
0000
0000
0000
1000
0000
0000
0000
2100
0000
3100
0000
0001
0000
0010
0000
0100
0000
1000
0000
0100
0000
0010
0000
0002
0000
0013
0000
0000
0001
0010
0100
,
1000
0000
1001
0100
0010
0000
1001
0000
1100
0010
0002
1103
0001
0000
1000
0100
,
0020
0030
0011
1000
0010
0010
1001
0000
0100
0020
0030
0011
0100
0000
1001
0000
,
0010
1000
0011
0000
1100
0000
0011
0000
1000
1000
0000
0011
0100
0000
0110
0000
,
2100
0000
3000
0000
0100
0000
0010
0000
0000
0000
0000
0000
0110
0000
0000
0000
1100
0000
0000
0000
0011
0000
0000
0000
0110
0000
0000
0000
1000
0100
0010
0001
,
0000
0010
0000
0000
0000
0000
0000
0000
0001
0010
0100
1000
0010
0000
0000
0000
0000
0000
0000
0000
0010
0000
0000
0000
0010
0000
0000
0000
1100
0000
0000
0000
,
1100
0000
0011
0000
2000
3100
1100
0000
1100
0000
0011
0000
1100
0000
1010
0100
,
0001
0000
0000
0000
0001
0000
0000
0000
0001
0000
0000
0000
1100
0000
0001
0000
1100
0000
0000
0000
1100
0000
0000
0000
0000
0000
1000
0100
0010
0000
0000
0000
,
0001
0000
0000
0000
0200
0300
0000
0000
1100
0000
0000
0000
0001
0000
0100
0000
0010
0000
1000
0000
0010
0000
0100
0000
0001
0010
0100
1000
0010
0100
0000
0000
,
0001
0000
0000
0000
1200
0300
0000
0000
1000
0000
0100
0000
0010
0000
0000
0000
0011
0000
0000
0000
0100
0000
1000
0000
0010
0000
0000
0000
0011
0000
0000
0000
,
1000
0000
1100
0000
0001
0010
0100
1000
0001
0010
0100
1000
1100
0000
0110
0000
,
0110
0000
1001
0000
0000
0000
1100
0000
0001
0001
0000
1100
0010
0000
1100
0000
,
0001
0000
0000
0000
0001
0000
0000
0000
0010
0000
0000
0000
0011
0000
0000
0000
0011
0000
0000
0000
0011
0000
0000
0000
0011
0000
0000
0000
0001
0010
0100
1000
,
0010
0100
0001
0000
0000
0000
0000
0000
0001
0010
0100
1000
0010
0100
0001
0000
0000
0000
0000
0000
1100
0000
0000
0000
1100
0000
0000
0000
0011
0000
0000
0000
,
0011
0000
0000
0000
0110
0000
0000
0000
0010
0000
0100
0000
2000
3000
0000
0000
0200
0300
0000
0000
0011
0000
0000
0000
0200
0000
0300
0000
2200
3300
0000
0000
,
0100
0000
0000
0000
0100
0000
0000
0000
0100
0000
0000
0000
1010
0000
0100
0000
1010
0000
0000
0000
1010
0000
0000
0000
0000
0000
0001
0100
0010
0000
0000
0000
,
0010
0000
0000
0000
0000
0000
0000
0000
0011
0000
0000
0000
1000
0000
0100
0000
0010
0000
0001
0000
0100
0000
0010
0000
1000
0010
0100
0001
0010
0100
1000
0000
,
0001
0000
0000
0000
0001
0000
0010
0000
0100
0000
1000
0001
0000
0000
0000
0000
1100
0000
0000
0000
0001
0000
1000
0000
0001
0000
0000
0000
0001
0000
0010
0000
,
0100
0000
1000
0100
0010
0000
1001
0000
1000
0001
0000
0100
1000
0000
0011
0000
,
0001
0000
1100
0000
0000
0000
0011
0000
1000
0100
0000
0011
0100
0000
0100
0000
,
0001
0000
0000
0000
1100
0000
0000
0000
0010
0000
0000
0000
0011
0000
0000
0000
0011
0000
0000
0000
0011
0000
0000
0000
0011
0000
0000
0000
1000
0100
0010
0001
,
0000
0010
0000
0000
0000
0000
0000
0000
0001
0010
0100
1000
0000
0100
0000
0000
0000
0000
0000
0000
1001
0000
0000
0000
1001
0000
0000
0000
0220
0330
0000
0000
,
0220
0330
0000
0000
1001
0000
0000
0000
2200
3300
0010
0000
0022
0033
0000
0000
2200
3300
0000
0000
1001
0000
0000
0000
0110
0000
0000
0000
0011
0000
0000
0000
,
0001
0000
0000
0000
0001
0000
0000
0000
0001
0000
0000
0000
0011
0000
1000
0000
0011
0000
0000
0000
0011
0000
0000
0000
0000
0000
0001
0010
0100
0000
0000
0000
,
0001
0000
0000
0000
0000
0000
0000
0000
1000
0100
1000
0100
1000
0000
0100
0000
0010
0000
0001
0000
0010
0000
0100
0000
1000
0010
0100
0001
0100
0010
1000
0000
,
0010
0110
0000
0002
0003
0000
0000
1000
,
0100
0010
0001
0200
0300
1000
0100
0010
,
0000
0000
0000
0000
0000
0000
0101
0000
1000
0100
0000
0011
1000
0000
0100
0000
,
0010
0000
0000
0000
0001
0000
0000
0000
1000
0000
0000
0000
0011
0000
0000
0000
0011
0000
0000
0000
1100
0000
0000
0000
0011
0000
0000
0000
0001
0010
0100
1000
,
0100
0000
0000
0000
0000
0000
0000
0000
1000
0010
0100
0001
0010
0000
0000
0000
0000
0000
0000
0000
1001
0000
0000
0000
1001
0000
0000
0000
0011
0000
0000
0000
,
0011
0000
1100
0000
1100
0001
1100
0000
1100
0000
0011
0000
0010
0000
1100
0000
,
0001
0000
0000
0000
0010
0000
0000
0000
0100
0000
0000
0000
2000
3000
0100
0000
0011
0000
0000
0000
0011
0000
0000
0000
0000
0000
0001
0010
0100
0000
0000
0000
,
1000
0000
0001
0000
2100
3100
0000
0000
0000
0000
0001
0000
0000
0000
0000
0000
,
0000
0000
0001
0010
0100
0000
0000
0000
0000
0000
0000
0011
0000
0000
0000
0000
,
0000
0000
0001
0000
0100
0010
0000
0000
0000
0000
0000
1100
0000
0000
0000
0000
,
0000
1000
0000
0000
0000
0000
0000
0000
,
0000
0000
0000
0000
0100
0000
0000
0000
0000
0000
0000
0000
0001
0000
0000
0000
0001
0000
0000
0000
0011
0000
0000
0000
0011
0000
0000
0000
0001
0010
0100
1000
,
0100
0000
0000
0000
0000
0000
0000
0000
1000
0010
0100
0001
0010
0000
0000
0000
0000
0000
0000
0000
0010
0000
0000
0000
0010
0000
0000
0000
0000
0000
0000
0000
,
0000
1100
0000
0000
0000
1100
0000
0010
,
0010
0000
0000
0000
0010
0000
0000
0000
0010
0000
0000
0000
0011
0000
0000
0000
0011
0000
0000
0000
0011
0000
0000
0000
0000
0000
0001
0010
0100
1000
0000
0000
,
0000
0000
0000
0000
0000
0000
0000
0000
2020
3030
0000
0000
0000
0000
0000
0000
0000
0000
0000
0000
0001
0000
0000
0000
0000
0000
0000
0000
0000
0000
0000
0000
,
0000
0000
0000
0000
0011
0000
0000
0000
0010
0000
0100
0000
2000
3000
0000
0000
0200
0300
0000
0000
0020
0030
0000
0000
0000
0000
0000
0000
0000
0000
0000
0000
,
0001
0000
0000
0000
0020
0030
0000
0000
0200
0300
0000
0000
2000
3000
0000
0000
0000
0000
0000
0000
0000
0000
0000
0000
0000
0000
0000
0000
0001
0000
0000
0000
,
0010
0000
0000
1000
0100
0010
0001
0000
,
0000
0000
1000
0000
0000
0000
0000
0000
0000
0000
0000
1000
0000
0000
0011
0000
,
0000
0000
0000
0110
0000
0000
0000
1000
,
0010
0001
0000
0100
0000
0000
0000
1000
,
0100
0010
0001
0010
0100
1000
0000
0000
,
0000
0000
0000
0000
0000
0000
0000
0000
0000
0000
2000
0000
3000
0000
0011
1000
,
0011
1000
0011
1000
0011
1000
0011
1000
0011
1000
0011
1000
0011
1000
0100
0010
,
0001
0000
0000
0010
0000
0000
0100
0000
1000
0000
0100
0000
0010
0000
0001
0000
0100
0000
0010
0000
1000
0000
0100
0000
0010
0000
0000
0001
0000
0000
0010
0000
0000
1000
0000
0000
0100
0000
0000
0001
0000
0000
0010
0000
0000
0000
0000
0000
,
1000
0000
0001
0000
0100
0000
0001
0000
0000
0010
0000
0000
0100
0000
0000
1000
0000
0000
0001
0000
0000
0010
0000
0000
0010
0000
0000
0100
0000
0000
1000
0000
0001
0000
0010
0000
0100
0000
0000
1000
0000
0000
0001
0000
0000
0000
0000
0000
,
1000
0000
0000
0100
0000
0000
0001
0000
0000
0010
0000
0000
0100
0000
0000
1000
0100
0000
0010
0000
0001
0000
1000
0000
0100
0000
0010
0000
0001
0000
0100
0000
0010
0000
1000
0000
0100
0000
0000
0010
0000
0000
0001
0000
0000
0100
0000
0000
,
0010
2000
3010
0100
0001
0010
0100
2000
3020
0230
0312
0003
1000
0000
0110
0001
,
0010
0000
0100
0000
1000
0000
0100
0000
0010
0000
0100
0000
1000
0000
0100
0010
0001
0010
0100
1000
0000
0100
0010
0000
0001
0000
0010
0000
0100
0000
2000
0000
,
3100
0010
0001
0000
1000
0001
0000
1000
0010
0000
0100
1000
0001
0010
0100
1000
,
0100
0000
0000
0100
0000
0000
0010
0000
0000
0001
0000
0000
1000
0000
0000
0100
0000
0000
0010
0000
0000
0001
0000
0000
0001
0000
0000
0001
0000
0000
0001
0000
0000
1000
0000
0000
0100
0000
0010
0000
0001
0000
0010
0000
0000
0100
0000
0000
,
1000
0000
0000
0000
0000
0000
0000
0000
0100
0000
0000
0000
0000
0000
0000
0000
0010
0000
0000
0000
0000
0000
0000
0000
0001
0000
0000
0000
0000
0000
0000
0000
0000
0000
0000
0000
0100
0000
0000
0000
0000
0000
0000
0000
0000
0000
0000
0000
0010
0000
0000
0000
0000
0000
0000
0000
0000
0000
0000
0000
1000
0000
0000
0000
0000
0000
0000
0000
0000
0000
0000
0000
0001
0000
0000
0000
0000
0000
0000
0000
0000
0000
0000
0000
1000
0000
0000
0000
0000
0000
0000
0000
0000
0000
0000
0000
0022
0000
0000
0000
0000
0000
0033
0000
0000
0000
0000
0000
1000
0000
0000
0000
0000
0000
0000
0000
0000
0000
0000
0000
0010
0000
0000
0000
0000
0000
0000
0000
0000
0000
0000
0000
0100
0000
0000
0000
0000
0000
0000
0000
0000
0000
0000
0000
1000
0000
0000
0000
0000
0000
0000
0000
0000
0000
0000
0000
0001
0000
0000
0000
0000
0000
0000
0000
0000
0000
0000
0000
0010
0000
0000
0000
0000
0000
0000
0000
0000
0000
0000
0000
0100
0000
0000
0000
0000
0000
0000
0000
0000
0000
0000
0000
,
1000
0000
0000
0010
0000
0000
1000
0000
0000
0100
0000
0000
0010
0000
0000
0001
0000
0000
0100
0000
0000
0010
0000
0000
1000
0000
0100
0000
0010
0000
0001
0000
0100
0000
0010
0000
1000
0000
0000
0100
0000
0000
0010
0000
0000
0001
0000
0000
,
0001
0000
0000
0010
0000
0000
0100
0000
0000
1000
0000
0000
0010
0000
0000
0100
0000
0000
0001
0000
0010
0000
0100
0000
1000
0000
0000
0010
0000
0000
0100
0000
0001
0000
0010
0000
0100
0000
1000
0000
0010
0000
0100
0000
0001
0000
0000
0000
,
1000
0000
0000
0000
0000
0000
0000
0000
0000
0000
0000
0000
0001
0000
0000
0000
0010
0000
0000
0000
0000
0000
0000
0000
0100
0000
0000
0000
0000
0000
0000
0000
0000
0000
0000
0000
1000
0000
0000
0000
0000
0000
0000
0000
0000
0000
0000
0000
0010
0000
0000
0000
0000
0000
0000
0000
0000
0000
0000
0000
0100
0000
0000
0000
0000
0000
0000
0000
0000
0000
0000
0000
0001
0000
0000
0000
0000
0000
0000
0000
0000
0000
0000
0000
0001
0000
0000
0000
0000
0000
0000
0000
0000
0000
0000
0000
0001
0000
0000
0000
0000
0000
0000
0000
0000
0000
0000
0000
0001
0000
0000
0000
0000
0000
0000
0000
0000
0000
0000
0000
0010
0000
0000
0000
0000
0000
0000
0000
0000
0000
0000
0000
1000
0000
0000
0000
0000
0000
0000
0000
0000
0000
0000
0000
0100
0000
0000
0000
0000
0000
1000
0000
0000
0000
0000
0000
0100
0000
0000
0000
0000
0000
1000
0000
0000
0000
0000
0000
0100
0000
0000
0000
0000
0000
0000
0000
0000
0000
0000
0000
0010
0000
0000
0000
0000
0000
0000
0000
0000
0000
0000
0000
,
0001
0000
0000
0100
0000
0000
0010
0000
0000
0000
0001
0000
0010
0000
0100
0000
1000
0000
0010
0000
0100
0000
0001
0000
0100
0000
0010
0000
1000
0000
0100
0000
0000
0000
0001
0000
0000
0000
0100
0000
1000
0000
0100
0000
0010
0000
0000
0000
,
0001
0000
0000
0000
0000
0000
0000
0000
0010
0000
0000
0000
0000
0000
0000
0000
0100
0000
0000
0000
0000
0000
0000
0000
1000
0000
0000
0000
0000
0000
0000
0000
0000
0000
0000
0000
0100
0000
0000
0000
0010
0000
0000
0000
0000
0000
0000
0000
0001
0000
0000
0000
0000
0000
0000
0000
1000
0000
0000
0000
0100
0000
0000
0000
0000
0000
0000
0000
0000
0000
0000
0000
0010
0000
0000
0000
0000
0000
0000
0000
0000
0000
0000
0000
0001
0000
0000
0000
0000
0000
0000
0000
0000
0000
0000
0000
0010
0000
0000
0000
0000
0000
0000
0000
0000
0000
0000
0000
0001
0000
0000
0000
0000
0000
0010
0000
0000
0000
0000
0000
0100
0000
0000
0000
0000
0000
1000
0000
0000
0000
0000
0000
0001
0000
0000
0000
0000
0000
0010
0000
0000
0000
0000
0000
0100
0000
0000
0000
0000
0000
1000
0000
0000
0000
0000
0000
0001
0000
0000
0000
0000
0000
0010
0000
0000
0000
0000
0000
0100
0000
0000
0000
0000
0000
1000
0000
0000
0000
0000
0000
0001
0000
0000
0000
0000
0000
0010
0000
0000
0000
0000
0000
,
0100
0000
0000
0000
0000
0000
1000
0000
0000
0000
0000
0000
0100
0000
0000
0000
0000
0000
1000
0000
0000
0000
0000
0000
0100
0000
0000
0000
0000
0000
1000
0000
0000
0000
0000
0000
0100
0000
0000
0000
0000
0000
0010
0000
0000
0000
0000
0000
0001
0000
0000
0000
0000
0000
0000
0000
0000
0000
0000
0000
0010
0000
0000
0000
0000
0000
0000
0000
0000
0000
0000
0000
0100
0000
0000
0000
0000
0000
0000
0000
0000
0000
0000
0000
1000
0000
0000
0000
0000
0000
0000
0000
0000
0000
0000
0000
0010
0000
0000
0000
0000
0000
0000
0000
0000
0000
0000
0000
0100
0000
0000
0000
0000
0000
0000
0000
0000
0000
0000
0000
0001
0000
0000
0000
0000
0000
0000
0000
0000
0000
0000
0000
0100
0000
0000
0000
0000
0000
0000
0000
0000
0000
0000
0000
0010
0000
0000
0000
0000
0000
0000
0000
0001
0000
0000
0000
0000
0000
0000
0000
1000
0000
0000
0000
0000
0000
0000
0000
0100
0000
0000
0000
0000
0000
0000
0000
0010
0000
0000
0000
0000
0000
0000
0000
0001
0000
0000
0000
0000
0000
0000
0000
,
0100
0000
0010
0000
1000
0000
0100
0000
0010
0000
0001
0000
0100
0000
0000
0010
0000
0000
1000
0000
0000
0100
0000
0000
0022
0000
0000
0000
0000
0000
0000
0000
0000
0000
0000
0000
0000
0000
0000
0000
0000
0000
0000
0000
0000
0000
0000
0000
,
2233
0000
0000
0000
0000
0000
3300
0000
1100
0000
0000
0011
0000
0000
0000
0220
,
0000
0000
0000
0000
0000
0330
0000
2002
0000
0000
0000
3003
0000
0000
0000
1000
,
0100
0000
0000
0010
0000
0000
0001
0000
0000
0100
0000
0000
0010
0000
1000
0000
0100
0000
0010
0000
0001
0000
0100
0000
0010
0000
1000
0100
0000
0000
0010
0000
0000
0001
0000
0000
0100
0000
0000
0010
0000
0000
1001
0000
0000
0000
0000
0000
,
0000
1001
0000
2020
0000
0000
0000
0000
,
3030
0000
0000
0000
0000
0000
0000
0000
0000
0000
0000
0000
0000
0000
0000
0000
0000
0002
0003
0000
0000
0002
0003
0000
0000
0002
0003
0000
0000
0002
0003
0000
;
