#TITLE:I May Be Dreaming;
#SUBTITLE:;
#ARTIST:Arkitech & double Decker;
#TITLETRANSLIT:;
#SUBTITLETRANSLIT:;
#ARTISTTRANSLIT:;
#CREDIT:;
#BANNER:city-skies copiaAAA.jpg;
#BACKGROUND:city-skiesSSD.jpg;
#LYRICSPATH:;
#CDTITLE:CDTITLE.jpg;
#MUSIC:I May Be Dreaming-Arkitech & Double Decker.mp3;
#OFFSET:-0.020;
#SAMPLESTART:100.000;
#SAMPLELENGTH:12.000;
#SELECTABLE:YES;
#BPMS:0.000=180.120,96.500=90.060,160.500=180.120;
#STOPS:;
#BGCHANGES:;
// cache tags:
#FIRSTBEAT:16.500;
#LASTBEAT:359.500;
#SONGFILENAME:Songs/Definitive Keyboard Megapack/I May Be Dreaming - Arkitech & Double Decker(leone510)/I May Be Dreaming-Arkitech & Double Decka.sm;
#HASMUSIC:1;
#HASBANNER:1;
#MUSICLENGTH:149.289;
// end cache tags

//---------------dance-single - ----------------
#NOTES:
     dance-single:
     :
     Medium:
     8:
     0.421,0.472,0.060,0.000,0.007,431.000,9.000,0.000,0.000,0.000:
0000
0000
0000
0000
,
0000
0000
0000
0000
,
0000
0000
0000
0000
,
0000
0000
0000
0000
,
0000
0000
1000
0001
0000
0000
0001
1000
,
0000
0000
1000
0001
0000
0000
0001
1000
,
0000
0000
1000
0010
0000
0000
0010
0100
,
0000
0000
0100
0000
0000
0001
0000
0000
1000
0000
0010
0000
0000
1000
0000
0000
,
0001
1000
0001
1000
0010
0000
0001
1000
,
0010
0100
0010
0000
0001
1000
0000
0010
,
1000
0000
0010
1000
0001
0000
0010
1000
,
0010
0001
1000
0000
0100
0001
0000
1000
,
0100
0000
0001
1000
0010
0000
0001
1000
,
0010
0100
0001
0000
0001
1000
0000
0010
,
0100
0000
0010
1000
0001
0000
0010
1000
,
0010
0001
0100
0000
0100
0001
0000
1000
,
0001
0000
0001
1000
0010
0000
0001
1000
,
0010
0100
0001
0000
0100
1000
0000
0010
,
0001
0000
0010
1000
0001
0000
0010
1000
,
0010
0001
0100
0000
0100
0001
0000
1000
,
0100
0000
0010
1000
0001
0000
0100
1000
,
0010
0001
0100
0000
0001
0010
0000
0100
,
1000
0000
0010
1000
0001
0000
0010
1000
,
0010
0001
0000
0100
0000
0001
0000
1000
,
0000
1000
0000
0000
0000
0000
0000
0000
,
0000
0010
0000
0000
0000
0000
0000
0000
,
0000
1000
0000
0000
0000
0000
0000
0000
,
0000
0001
0000
0000
0000
0100
0000
0000
,
0000
0100
0000
0000
0000
0000
0000
0000
,
0000
1000
0000
0000
0000
0000
0000
0000
,
0000
0001
0000
0000
0000
0000
0000
0000
,
0000
0010
0000
0000
0000
0000
0000
0100
,
0000
1000
0000
0010
0000
0001
0000
0100
,
0000
1000
0000
0001
0000
1000
0000
0010
,
0000
0100
0000
1000
0000
0001
0000
0010
,
0000
0001
0000
0100
0000
1000
0000
0010
,
0000
0100
0010
1000
0001
0010
1000
0001
,
0100
1000
0001
0100
0001
0010
1000
0001
,
0010
0100
0000
0000
0000
0000
0000
0000
,
0000
0010
0000
0000
0000
1010
0000
0000
,
0000
0001
0000
1000
0000
0010
0000
0100
,
0000
1000
0000
0001
0000
1000
0000
0010
,
0000
0100
0000
0001
0000
1000
0000
0010
,
0000
0100
0000
0001
0000
1000
0000
0010
,
0000
0100
1000
0100
1000
0100
1000
0010
,
0000
0010
0001
0010
0001
0100
0001
1000
,
0000
0001
1000
0001
0100
0001
1000
0001
,
0000
0100
0010
0100
0010
0100
0010
0100
,
0000
0001
0000
1000
0000
0010
0000
0100
,
0000
1000
0000
0001
0000
1000
0000
0010
,
0000
0100
0000
0001
0000
1000
0000
0010
,
0000
0100
0000
0001
0000
1000
0000
0010
,
0000
0100
1000
0100
1000
0100
1000
0010
,
0000
0010
0001
0010
0001
0100
0001
1000
,
0000
0001
1000
0001
0100
0001
1000
0001
,
0000
0100
0010
0100
0010
0100
0010
0100
,
0000
1100
0001
1000
0000
0001
0000
1000
,
0000
0011
1000
0001
0000
1000
0000
0001
,
0000
0110
0100
0010
0000
0100
0000
0010
,
0000
1001
0010
0100
0000
0001
0000
1000
,
0000
1000
0001
1000
0010
1000
0001
1000
,
0000
0001
0010
1000
0010
0001
0010
1000
,
0000
0100
0010
0001
0010
0100
1000
0001
,
0000
0010
1000
0010
0001
0010
1000
0010
,
0000
1100
0001
1000
0000
0001
0000
1000
,
0000
0011
1000
0001
0000
1000
0000
0001
,
0000
0110
0100
0010
0000
0100
0000
0010
,
0000
1001
0010
0100
0000
0001
0000
1000
,
0000
1000
0001
1000
0010
1000
0001
1000
,
0000
0001
0010
1000
0010
0001
0010
1000
,
0000
0100
0010
0001
0010
0100
1000
0001
,
0000
0010
1000
0010
0001
0010
1000
0010
,
0000
0100
0000
1000
0000
0100
0000
0010
,
0000
0001
0000
0010
0000
1000
0000
0001
,
0000
1000
0000
0010
0000
0100
0000
0010
,
0000
0001
0000
0010
0000
0001
0000
1000
,
0000
1000
0010
1000
0100
1000
0010
1000
,
0000
0010
0001
0010
1000
0010
0001
0010
,
0000
0100
0001
0010
1000
0100
0001
0010
,
0000
0010
1000
0001
1000
0010
1000
0001
,
0000
1000
0000
0010
0000
0001
0000
0100
,
0000
0001
0000
1000
0000
0010
0000
0100
,
0000
0100
0000
1000
0000
0001
0000
0010
,
0000
0001
0000
0100
0000
0010
0000
1000
,
0000
1000
0100
1000
0100
1000
0100
1000
,
0000
0010
0001
0100
1000
0100
1000
0001
,
0000
0001
0100
0001
0100
0001
0100
0010
,
0000
0010
1000
0001
0100
1000
0100
1000
,
0000
0010
0000
0000
0000
0000
0000
0000
;

//---------------dance-single - ----------------
#NOTES:
     dance-single:
     :
     Easy:
     6:
     0.304,0.354,0.000,0.000,0.000,318.000,0.000,0.000,0.000,0.000:
0000
0000
0000
0000
,
0000
0000
0000
0000
,
0000
0000
0000
0000
,
0000
0000
0000
0000
,
0000
1000
0000
0000
0000
0001
0000
0000
,
0000
1000
0000
0000
0000
0001
0000
0000
,
0000
0100
0000
0000
0000
0001
0000
0000
,
0000
0010
0000
0000
0000
1000
0000
0000
,
0000
0100
0000
0100
0000
0001
0000
0010
,
0000
0010
0000
1000
0000
0001
1000
0100
,
0000
0100
0000
0100
0000
0001
0000
0010
,
0000
0010
0000
1000
0000
0001
1000
0100
,
0000
0010
0000
0010
0000
1000
0000
0010
,
0000
0100
0000
0001
0000
1000
0001
0010
,
0000
1000
0000
1000
0000
0010
0000
0001
,
0000
0100
0000
1000
0000
0010
0001
0010
,
0000
0100
0000
0100
0000
0001
0000
0010
,
0000
0010
0000
1000
0000
0001
1000
0100
,
0000
0010
0000
0001
0000
0010
0000
0100
,
0000
0010
0000
0010
0000
1000
0010
1000
,
0000
0100
0000
0100
0000
0001
0000
0010
,
0000
0010
0000
1000
0000
0001
1000
0100
,
0000
0010
0001
0010
0000
1000
0001
1000
,
0000
0010
0000
1000
0000
0010
0000
0001
,
0000
1000
0000
0000
0000
0000
0000
0000
,
0000
0010
0000
0000
0000
0000
0000
0000
,
0000
0100
0000
0000
0000
0000
0000
0000
,
0000
0001
0000
0000
0000
1000
0000
0000
,
0000
0010
0000
0000
0000
0000
0000
0000
,
0000
0100
0000
0000
0000
0000
0000
0000
,
0000
0001
0000
0000
0000
0000
0000
0000
,
0000
1000
0000
0000
0000
0001
0000
0000
,
0000
0010
0000
0000
0000
0100
0000
0000
,
0000
1000
0000
0000
0000
0001
0000
0000
,
0000
0010
0000
0000
0000
0100
0000
0000
,
0000
1000
0000
0000
0000
0001
0000
0000
,
0000
0010
0000
0000
0000
0100
0000
0000
,
0000
0001
0000
0000
0000
0010
0000
0000
,
0000
1000
0000
0000
0000
0000
0000
0000
,
0000
0010
0000
0000
0000
0100
0000
0000
,
0000
0001
0000
0001
0000
1000
0000
0010
,
0000
0100
0000
1000
0000
0010
0000
0100
,
0010
0001
0000
1000
0000
0010
0000
0100
,
0000
1000
0000
0010
0000
0100
0000
0001
,
1000
0100
0000
0001
0000
0100
0000
0001
,
0000
0010
0000
0010
0000
1000
0000
0001
,
1000
0100
0000
0010
0000
0001
0000
0100
,
0000
1000
0000
0010
0000
0100
0000
0100
,
0001
0100
0000
1000
0000
0100
0000
0001
,
0000
0010
0000
0010
0000
1000
0000
0001
,
1000
0100
0000
0001
0000
1000
0000
0001
,
0000
0010
0000
0100
0000
0010
0000
0001
,
1000
0001
0000
0010
0000
0100
0000
0010
,
0000
1000
0000
0010
0000
0001
0000
0100
,
0010
1000
0000
0100
0000
0100
0000
0001
,
1000
0010
0001
0010
0100
1000
0000
0001
,
0000
0100
0000
1000
0000
0001
0000
0010
,
0000
0010
0000
1000
0000
0001
0000
0100
,
0001
0010
0000
1000
0000
0001
0000
0100
,
0000
1000
0000
0010
0000
0001
0000
0100
,
0001
1000
0000
0010
0000
0001
0000
0100
,
0000
1000
0000
0010
0000
0100
0000
0010
,
0001
1000
0000
0100
0000
1000
0000
0010
,
0000
0001
0000
0100
0000
1000
0000
0010
,
0100
0001
0000
0100
0000
0001
0000
0010
,
0000
0010
0000
1000
0000
0001
0000
0100
,
1000
0001
0000
0100
0000
0100
0000
0001
,
0000
0010
0000
0010
0000
1000
0000
0001
,
1000
0100
0000
1000
0000
0001
0000
1000
,
0000
0010
0000
0100
0000
0010
0000
0001
,
0010
0001
0000
0100
0000
1000
0000
1000
,
0000
0001
0000
1000
0000
0010
0000
0010
,
0100
0010
0000
1000
0000
0000
0000
0001
,
0000
0000
0000
0010
0000
0000
0000
0100
,
0000
0000
0000
1000
0000
0000
0000
0001
,
0000
0000
0000
1000
0000
0000
0000
0010
,
0000
0100
0001
0100
0000
1000
0000
0010
,
0000
0001
1000
0001
0000
0100
0000
0001
,
0000
0010
0100
0010
0000
1000
0000
0001
,
0000
1000
0010
0001
0000
0100
0000
0001
,
0000
0100
0000
0100
0000
0001
0000
0010
,
0000
0010
0000
1000
0000
0001
0000
0100
,
1000
0010
0000
0001
0000
0010
0000
0100
,
0000
1000
0000
0010
0000
0001
0000
0100
,
1000
0001
0000
0100
0000
0001
0000
0010
,
0000
0010
0000
1000
0000
0001
0000
0010
,
1000
0001
0000
0100
0000
0001
0000
1000
,
0000
0010
0000
0100
0000
0010
0000
1000
,
0010
0100
0000
0000
0000
0000
0000
0000
;

//---------------dance-single - ----------------
#NOTES:
     dance-single:
     :
     Hard:
     11:
     0.988,0.963,1.000,0.221,0.894,794.000,206.000,33.000,0.000,1.000:
0000
0000
0000
0000
,
0000
0000
0000
0000
,
0000
0000
0000
0000
,
0000
0000
0000
0000
,
0000
0000
0000
0000
1010
0000
0010
0001
0010
0000
0100
0000
1010
0000
0100
0001
,
0100
0000
0010
0000
0101
0000
0010
0001
0010
0000
1000
0000
1100
0000
0100
0001
,
0100
0000
0010
0000
0101
0000
0100
1000
0010
0000
0001
0000
0011
0000
0010
0001
,
0010
0000
1010
0000
0000
0101
0000
0000
0110
0000
1010
0000
0000
0101
0000
0000
,
1001
0001
1100
0001
1010
0000
0110
0100
,
0101
1001
0011
0110
1010
1001
0101
1001
,
1100
0000
1010
0001
0011
0000
0101
0001
,
0110
0101
1001
1010
0101
0110
1100
0101
,
0110
0000
1100
0001
1010
0000
0110
0100
,
0101
1001
0011
0110
1010
1001
0101
1001
,
1100
0000
1010
0001
0011
0000
0101
0001
,
0110
0101
1001
1010
0101
0110
1100
0101
,
0110
0000
0011
0100
1010
0000
0101
0010
,
1100
0101
1010
1100
0110
0101
1001
0110
,
1001
0000
0101
0010
0110
0000
0110
0100
,
1100
0100
0101
0001
1001
1000
1010
0010
,
0011
0000
0011
0100
1010
0000
0101
0010
,
1100
0101
1010
1100
0110
0101
1001
0110
,
1001
0000
0001
0100
1000
0000
0010
0100
,
1000
0000
0010
0001
0010
1000
0100
0010
1000
0100
0001
0010
1000
0001
0010
0100
,
0001
1100
0000
0000
0000
0010
0000
0000
,
0000
0100
0000
0000
0000
0001
0000
0000
,
0000
1000
0000
0000
0000
0010
0000
0000
,
0000
0001
0000
0000
0000
0100
0000
0000
,
0000
1000
0000
0000
0000
0010
0000
0000
,
0000
0001
0000
0000
0000
0100
0000
0000
,
0000
1000
0000
0000
0000
0010
0000
0000
,
0000
0001
0000
0000
0000
1000
0000
0000
,
0000
0000
0010
0100
1000
0010
0100
0010
0001
0010
0100
0001
0010
1000
0010
0100
,
1000
0000
0010
0100
1000
0010
0100
0010
0001
0010
0100
0001
0010
1000
0010
0100
,
1000
0000
1000
0001
1000
0001
0100
0010
0001
0100
0010
0001
0100
0010
0100
0001
,
0010
0000
0100
1000
0100
0010
0100
1000
0100
0010
0100
1000
0100
0010
0100
1000
,
0100
0000
0010
0100
1000
0010
0100
0010
0001
0010
0100
0001
0010
1000
0010
0100
,
1000
0000
0010
0100
1000
0010
0100
0010
0001
0010
0100
0001
0010
1000
0010
0100
,
1000
0000
1100
0000
0001
0000
0000
1000
0000
0000
0010
0000
0000
0100
0000
0001
,
0000
0000
0010
0000
0000
0000
0100
0000
1000
0000
0100
0000
0010
0000
0100
0000
0001
0000
0010
0000
1000
0010
0001
0100
0010
0001
0010
0100
0010
1000
0100
0010
,
0001
0010
0100
0010
1000
0000
0010
0000
0000
0000
0010
0000
1000
0000
0000
0000
0001
0000
0100
0000
0000
0000
0100
0000
0001
0000
0000
0000
0001
0000
1100
0000
,
0000
0000
0001
1000
0000
0100
0010
0000
0001
0100
0000
1000
0100
0000
0100
1001
,
0000
0000
0001
0100
0000
0010
0100
0000
0001
1000
0000
0100
0001
0000
0010
0101
,
0000
0000
0010
0100
0000
1000
0010
0000
1000
0001
0000
0010
0100
0000
0010
1100
,
0000
0000
0100
0010
0000
0010
1000
0000
0001
0010
0000
0010
0001
0000
0001
1010
,
0000
0000
0001
0010
0000
0010
0001
0000
1000
0100
0000
0100
0001
0000
0010
0101
,
0000
0000
0001
1000
0000
1000
0001
0000
0010
0100
0000
0100
0010
0000
0010
1100
,
0000
0000
0010
0100
0000
0010
0001
0000
1000
0100
0000
0100
1000
0000
1000
0011
,
0000
0000
0001
1100
0000
1000
0011
0000
0001
0110
0000
0010
1001
0000
1000
0101
,
0000
0000
0001
1100
0000
0100
0011
0000
1000
0011
0000
0100
1010
0000
0100
0011
,
0000
0000
0010
1001
0000
1000
0011
0000
0001
1100
0000
1000
0011
0000
0100
0011
,
0000
0000
0001
1100
0000
1000
0011
0000
0001
0110
0000
0100
1010
0000
0001
1010
,
0000
0000
0010
0101
0000
0010
0101
0000
0010
1100
0000
0100
1001
0000
0001
1100
,
0000
0000
0010
0101
0000
0010
1100
0000
0100
0011
0000
0010
1100
0000
1000
0101
,
0000
0000
0001
1100
0000
1000
0101
0000
0010
1100
0000
0100
0011
0000
0010
0101
,
0000
0000
0010
1100
0000
0010
0101
0000
0100
0001
0010
1000
0100
0010
0001
0100
,
1000
0100
0011
0000
0100
0000
1100
0000
0100
0000
0101
0000
0010
0000
0110
0000
,
0100
0101
0001
0011
0010
0101
0100
0110
,
1000
1001
1000
1100
0100
0110
0010
0011
,
0010
1010
1000
0101
0100
0110
0010
0110
,
0101
0000
0010
0100
1000
0100
0010
1000
0010
1000
0010
0001
0100
0010
0001
1100
,
0000
0000
0010
0001
0010
0100
0010
0100
0010
0001
0010
1000
0100
0010
0001
1100
,
0000
0000
0010
0100
1000
0100
1000
0010
1000
0010
1000
0100
0001
0010
0100
0011
,
0000
0000
0010
0100
0010
0001
0010
1000
0100
0001
0100
1000
0100
0010
1000
0101
,
0000
0011
0100
1100
0100
0101
0010
0110
,
0100
0101
0001
0011
0010
0101
0100
0110
,
1000
1001
1000
1100
0100
0110
0010
0011
,
0010
1010
1000
0101
0100
0110
0010
0110
,
0101
0000
0010
0100
1000
0100
0010
1000
0010
1000
0010
0001
0100
0010
0001
1100
,
0000
0000
0010
0001
0010
0100
0010
0100
0010
0001
0010
1000
0100
0010
0001
1100
,
0000
0000
0010
0100
1000
0100
1000
0010
1000
0010
1000
0100
0001
0010
0100
0011
,
0000
0000
0010
0100
0010
0001
0010
1000
0100
0001
0100
1000
0100
0010
1000
0101
,
0000
0002
2003
3020
2030
3020
0230
0302
,
2003
3020
0230
0302
2003
3020
0230
2320
,
3030
0200
0320
0032
0203
0320
0032
2003
,
3020
2030
3020
0230
0302
0023
0030
0220
,
0330
0000
0010
0100
1000
0100
0010
1000
0010
1000
0010
0001
0100
0010
0001
1100
,
0000
0000
0010
0001
0010
0100
0010
0100
0010
0001
0010
1000
0100
0010
0001
1100
,
0000
0000
0010
0100
1000
0100
1000
0010
1000
0010
1000
0100
0001
0010
0100
0011
,
0000
0000
0010
0100
0010
0001
0010
1000
0100
0001
0100
1000
0100
0010
1000
0101
,
0000
1001
0001
0101
0100
0110
0010
1010
,
1000
1001
0010
0110
0100
1100
0100
0101
,
0001
0011
1010
0000
1010
0000
0110
0000
,
0101
0000
0000
0000
1001
0000
0000
0000
0110
0000
0010
0100
1000
0010
0100
0001
,
0100
0000
0010
0100
0000
1000
0010
0000
0001
0100
0000
0100
0010
0000
0010
1100
,
0000
0000
1000
0001
0000
0001
0100
0000
0100
0010
0000
0001
0010
0000
0010
0101
,
0000
0000
0100
1000
0000
1000
0001
0000
0001
1000
0000
0100
0001
0000
0001
1100
,
0000
0000
1000
0001
0000
0001
0100
0000
0100
1000
0000
1000
0100
0000
0100
0001
,
0100
0010
2002
0000
3003
0000
0010
0000
0000
0000
0000
0000
0100
0000
0000
0000
,
0000
1000
0000
0000
0001
0000
0000
1000
;
