#TITLE:WUKI WUKI;
#SUBTITLE:(Speedo Mix);
#ARTIST:JENNY ROM;
#TITLETRANSLIT:;
#SUBTITLETRANSLIT:;
#ARTISTTRANSLIT:;
#CREDIT:;
#BANNER:WUKI WUKI (Speedo Mix) BN.png;
#BACKGROUND:WUKI WUKI (Speedo Mix) BG.png;
#LYRICSPATH:WUKI WUKI (Speedo Mix).lrc;
#CDTITLE:Dancemania Speed G4.png;
#MUSIC:WUKI WUKI (Speedo Mix).mp3;
#OFFSET:-5.400;
#SAMPLESTART:41.400;
#SAMPLELENGTH:10.520;
#SELECTABLE:YES;
#BPMS:0.000=183.540;
#STOPS:;
#BGCHANGES:;
// cache tags:
#FIRSTBEAT:0.000;
#LASTBEAT:212.000;
#SONGFILENAME:Songs/NC.DX Originals/WUKI WUKI (Speedo Mix)/WUKI WUKI (Speedo Mix).sm;
#HASMUSIC:1;
#HASBANNER:1;
#MUSICLENGTH:77.353;
// end cache tags

//---------------dance-single - maniac----------------
#NOTES:
     dance-single:
     maniac:
     Hard:
     8:
     0.652,0.582,0.427,0.246,0.000,301.000,33.000,19.000,0.000,0.000:
1000
0000
0001
0100
0001
1000
0010
1000
,
0001
1000
0100
0010
0000
0001
0010
0100
,
0000
1000
0001
0100
0000
0001
1000
0010
,
1000
0001
0100
0001
0010
0001
1000
0000
,
0001
1000
0010
1100
,
0001
1000
0010
0101
,
1000
0001
1000
0001
0100
0001
0100
0001
,
2000
3100
0002
0103
,
1000
0010
0100
1001
,
0010
0001
0100
1001
,
1000
0100
1000
0100
0010
0001
0010
0001
,
2000
0100
3100
0000
0002
0100
0103
0000
,
1000
0010
1000
0001
1000
0000
1100
0000
,
0001
0100
0001
1000
0001
0000
0101
0000
,
1000
0100
0001
0100
1000
0010
0001
0010
,
1000
0001
1000
0001
0100
0000
1001
0000
,
1000
0001
1000
0001
0100
0000
1010
0000
,
0001
0010
0100
1000
0100
0010
0001
0000
,
1000
0001
1000
0001
0100
0001
0100
0000
,
1100
0101
1100
0020
,
0100
0100
0100
0130
,
1000
0100
1000
0001
0100
0001
0100
0000
,
0002
0100
1000
0013
,
1000
0100
1100
0000
0001
0100
0101
0000
,
1000
0010
1100
0010
,
1000
0101
0010
1000
,
0220
0330
2002
3003
,
0220
0000
0330
0000
0000
1000
0001
0100
,
0010
0000
1000
0001
0100
0000
1001
0000
,
0101
0000
1000
0001
0010
0000
1001
0000
,
1100
0000
0010
0001
1000
0000
0001
2000
,
0010
0000
0010
0000
3010
0100
0001
0100
,
0001
0000
1000
0100
0010
0000
1100
0000
,
1001
0000
0001
0010
0100
1000
0100
1000
,
0100
0010
0001
0010
0001
0000
1010
0000
,
1100
0000
1001
0000
0010
1000
0001
1000
,
0001
0000
0100
0001
0100
0000
2001
0000
,
3100
0000
0010
0001
0010
0000
1002
0000
,
0103
0000
0001
0010
0001
0000
1000
0002
,
0100
0000
0100
0000
0103
0010
1000
0010
,
1000
0000
0001
1000
0001
0000
0210
0000
,
0301
0000
1000
0010
1000
0001
0100
0001
,
1000
0100
0010
0001
0010
0100
1000
0001
,
0100
1001
0010
1001
,
0100
0000
0001
0100
1000
0100
0001
0100
,
1000
0010
0001
0010
0000
1000
0001
0010
,
0000
0001
1000
0010
0000
1000
0001
0100
,
0000
0001
1000
0100
0000
1000
0001
0100
,
0001
0000
1000
0100
0001
0100
1000
0010
,
0001
0010
1000
0001
0000
1000
0010
0100
,
0000
0001
0100
0010
0000
1000
0010
0100
,
0001
0001
1000
1000
0010
0100
0010
0100
,
2002
0000
0000
0000
,
3003
0000
0000
0000
;

//---------------dance-single - ----------------
#NOTES:
     dance-single:
     :
     Medium:
     6:
     0.508,0.514,0.284,0.271,0.000,232.000,22.000,21.000,0.000,0.000:
1000
0100
1000
0100
,
1000
0001
1000
0001
,
0100
0010
0100
0010
,
1000
1000
0001
0001
,
0100
0001
1000
0101
,
1000
0001
0010
1100
,
0010
0001
1000
0010
,
2000
0001
0001
3001
,
0100
0010
1000
1000
,
0001
1000
0001
0001
,
0100
0001
0010
0100
,
2001
3100
1002
0103
,
1000
0001
0001
1010
,
0001
1000
1000
0011
,
2000
3001
0002
1003
,
0100
1001
0010
1001
,
0010
1000
0001
0100
,
0001
1000
0001
0100
0001
0000
0010
0000
,
0001
1000
0010
0000
0100
0001
1000
0000
,
0100
1000
0100
1000
,
0020
0100
0100
0130
,
1000
0001
1000
0000
0001
1000
0001
0000
,
1000
0001
0010
0001
,
1000
1100
0001
0101
,
1000
0010
1000
0000
0001
0100
0001
0000
,
1000
0100
0001
0100
,
2002
3003
0220
0330
,
2002
3003
0000
0100
,
0010
0000
1000
0001
0010
0000
0100
0000
,
1000
0000
0001
1000
0010
0000
0100
0000
,
0001
0000
1000
0010
0100
0000
0010
0000
,
2000
3100
0002
0103
,
1000
0000
0001
0100
0010
0000
1000
0000
,
0001
0000
1000
0010
0100
0000
0001
0000
,
1100
0010
0101
1000
,
1010
1001
1100
0010
,
1002
0100
1003
0010
,
2001
0100
3001
0100
,
0012
1000
0013
1000
,
0100
0001
0100
1000
,
0001
0000
0100
0001
0100
0000
0001
0000
,
1000
0000
0100
1000
0100
0000
1000
0000
,
0010
0010
1000
0001
,
0100
0100
0001
1000
,
0002
0100
0010
1003
,
0010
1000
0010
1000
0000
0001
0100
0001
,
0000
1000
0100
1000
0000
0001
0010
0001
,
0000
1000
0010
1000
0000
0001
1000
0001
,
2000
0010
0100
3001
,
0100
0001
0100
0001
0000
1000
0010
1000
,
0000
0001
0010
0001
0000
1000
0100
1000
,
0001
1000
0010
0100
,
2002
0000
0000
0000
,
3003
0000
0000
0000
;

//---------------dance-single - ----------------
#NOTES:
     dance-single:
     :
     Easy:
     4:
     0.318,0.480,0.220,0.207,0.000,139.000,17.000,16.000,0.000,0.000:
1000
0000
0001
0000
,
0100
0000
0010
0000
,
0100
0000
0100
0000
,
1001
0000
1001
0000
,
0100
0000
0001
0000
,
1000
1000
1000
0000
,
0001
0000
1000
0000
,
0010
0000
1001
0000
,
0100
0001
0100
0000
,
0001
1000
0001
0000
,
1000
0100
1000
0000
,
0020
0000
0130
0000
,
1000
0001
0100
0000
,
0001
1000
0010
0000
,
1000
0000
0001
0000
,
1000
1000
0001
0001
,
1000
0100
1100
0000
,
0001
0100
0101
0000
,
1000
0000
0001
0000
,
0220
0000
0000
0330
,
1000
1000
1000
0000
,
0001
0000
0001
0000
,
1000
0010
0100
0000
,
0001
0100
0010
0000
,
1000
0000
0001
0000
,
1001
0000
1001
0000
,
0220
0330
2002
3003
,
0220
0330
0000
1000
,
1000
0000
0100
0001
,
0001
0000
0010
0100
,
0100
0000
0001
0100
,
2002
0000
3003
0010
,
0100
0000
0001
1000
,
0010
0000
1000
0001
,
0100
0000
0001
1000
,
0010
0000
0010
0000
,
1000
0100
0001
0000
,
0010
1000
0100
0000
,
0001
0010
1000
0100
,
0001
0001
1000
1000
,
0010
0100
1001
0000
,
0100
0010
1001
0000
,
1000
1000
0001
0001
,
0200
0000
0020
0330
,
1000
0001
0100
0000
,
0001
1000
0010
0000
,
1000
0000
0001
0000
,
1001
0000
1001
0000
,
0200
0000
0310
0000
,
0001
0100
0001
0000
,
1000
0010
1000
0000
,
0001
0010
0100
1000
,
2002
0000
0000
0000
,
3003
0000
0000
0000
;

//---------------dance-single - ----------------
#NOTES:
     dance-single:
     :
     Beginner:
     2:
     0.153,0.240,0.090,0.116,0.000,67.000,7.000,9.000,0.000,0.000:
1000
0000
0000
0000
,
0001
0000
0000
0000
,
0100
0000
0000
0000
,
0010
0000
1001
0000
,
1001
0000
0000
0000
,
0100
0000
0000
0000
,
0010
0000
0000
0000
,
0200
0000
0000
0300
,
0001
0000
0000
0000
,
1000
0000
0000
0000
,
0001
0000
1000
0000
,
0002
0000
0000
0003
,
1000
0000
0100
0000
,
0001
0000
0010
0000
,
1000
0000
0100
0000
,
0001
0000
1000
0000
,
0001
0000
0100
0000
,
1000
0000
0010
0000
,
0001
0000
0100
0000
,
2002
0000
0000
3003
,
0010
0000
0000
0000
,
0010
0000
0000
0000
,
0100
0000
0000
0000
,
0100
0000
0000
0000
,
0001
0000
0000
0000
,
0001
0000
0000
0000
,
2000
0000
3002
0000
,
2000
0000
3003
0000
,
0001
0000
0000
0000
,
0100
0000
0000
0000
,
1000
0000
0000
0000
,
0010
0000
0000
0000
,
0001
0000
0000
0000
,
1000
0000
0000
0000
,
0010
0000
0000
0000
,
1001
0000
0000
0000
,
1000
0000
0000
0000
,
0100
0000
0000
0000
,
0001
0000
0000
0000
,
0010
0000
0000
0000
,
1001
0000
0000
0100
,
0010
0000
0000
1000
,
0001
0000
0000
0100
,
0010
0000
0000
0000
,
1000
0000
0000
0000
,
0001
0000
0000
0000
,
0100
0000
0000
0000
,
0010
0000
0000
0000
,
1001
0000
0000
0000
,
0100
0000
0000
0000
,
0010
0000
0000
0000
,
1000
0000
0001
0000
,
2002
0000
0000
0000
,
3003
0000
0000
0000
;

//---------------dance-solo - basic----------------
#NOTES:
     dance-solo:
     basic:
     Easy:
     4:
     0.318,0.480,0.220,0.207,0.000,139.000,17.000,16.000,0.000,0.000:
100000
000000
000100
000000
,
010000
000000
001000
000000
,
000010
000000
010000
000000
,
100001
000000
100001
000000
,
010000
000000
000100
000000
,
010000
000010
010000
000000
,
000100
000000
100000
000000
,
001000
000000
100001
000000
,
010000
000100
010000
000000
,
000010
100000
000010
000000
,
100000
010000
100000
000000
,
002000
000000
003100
000000
,
100000
000001
001000
000000
,
000001
100000
001000
000000
,
100000
000000
000100
000000
,
100000
100000
000001
000001
,
100000
010000
110000
000000
,
000001
000010
000011
000000
,
100000
000000
000001
000000
,
002200
000000
000000
003300
,
100000
100000
100000
000000
,
000100
000000
000100
000000
,
100000
001000
010000
000000
,
000001
010000
001000
000000
,
100000
000000
000100
000000
,
100100
000000
100100
000000
,
200002
300003
002200
003300
,
200002
300003
000000
100000
,
100000
000000
010000
000100
,
000100
000000
001000
000010
,
000010
000000
010000
000010
,
200002
000000
300003
001000
,
000010
000000
000100
100000
,
001000
000000
000100
000001
,
001000
000000
000100
100000
,
001000
000000
000100
000000
,
100000
010000
000100
000000
,
000001
000010
001000
000000
,
000001
100000
000001
100000
,
000001
000001
100000
100000
,
010000
000100
010100
000000
,
000010
000100
000110
000000
,
100000
100000
000001
000001
,
020000
000000
000020
030030
,
100000
000100
010000
000000
,
000100
100000
001000
000000
,
100000
000000
000100
000000
,
100100
000000
100100
000000
,
020000
000000
031000
000000
,
000100
010000
000100
000000
,
100000
001000
100000
000000
,
000001
100000
000010
010000
,
020020
000000
000000
000000
,
030030
000000
000000
000000
;

//---------------dance-solo - medium----------------
#NOTES:
     dance-solo:
     medium:
     Medium:
     6:
     0.510,0.514,0.284,0.284,0.000,232.000,22.000,22.000,0.000,1.000:
000010
010000
000010
010000
,
000010
100000
000010
100000
,
000001
010000
000001
010000
,
000001
000001
100000
100000
,
010000
000010
000100
010010
,
100000
000001
000100
100001
,
001000
000100
100000
001000
,
200000
000100
000100
300100
,
010000
001000
100000
100000
,
000100
100000
000100
000100
,
010000
000100
001000
010000
,
200002
310003
100002
000013
,
100000
000001
000001
101000
,
100000
000001
000001
100100
,
000020
010030
020000
030010
,
001000
100001
000100
100001
,
001000
100000
000100
010000
,
000100
100000
000100
010000
000100
000000
001000
000000
,
000100
100000
001000
000000
010000
000100
100000
000000
,
000010
100000
000010
100000
,
002000
000100
000100
003100
,
100000
000001
100000
000000
000010
010000
000010
000000
,
100000
000001
001000
000100
,
100000
110000
000001
000011
,
100000
001000
100000
000000
000001
001000
000001
000000
,
010000
000010
001000
000100
,
020020
030030
002200
003300
,
020020
030030
000000
010000
,
000001
000000
100000
000100
001000
000000
000010
000000
,
100000
000000
000001
001000
000100
000000
010000
000000
,
000010
000000
100000
000001
100000
000000
000001
000000
,
200000
310000
000002
000013
,
100000
000000
000100
010000
001000
000000
100000
000000
,
000001
000000
001000
000010
000100
000000
001000
000000
,
010010
001000
010010
000100
,
100001
010010
100001
001000
,
100002
010000
100003
001000
,
200001
000010
300001
100000
,
001200
100000
001300
100000
,
000010
010000
000010
100000
,
000100
000000
010000
000100
010000
000000
000100
000000
,
100000
000000
010000
100000
010000
000000
100000
000000
,
001000
001000
100000
000100
,
010000
010000
000100
100000
,
000002
010000
001000
100003
,
001000
100000
001000
100000
000000
000100
010000
000100
,
000000
100000
010000
100000
000000
000100
001000
000100
,
000000
100000
001000
100000
000000
000100
100000
000100
,
200000
000010
001000
300001
,
010000
000100
010000
000100
000000
100000
001000
100000
,
000000
000100
001000
000100
000000
100000
010000
100000
,
000010
010000
000010
010000
,
020020
000000
000000
000000
,
030030
000000
000000
000000
;

//---------------dance-solo - hard----------------
#NOTES:
     dance-solo:
     hard:
     Hard:
     8:
     0.589,0.582,0.284,0.155,0.000,285.000,22.000,12.000,0.000,0.000:
010000
000000
000010
000000
010000
000010
010000
000010
,
000100
000010
000100
000010
000000
100000
000100
100000
,
000000
000001
001000
000001
000000
010000
000001
010000
,
000010
100000
000010
000100
000001
010000
000010
100000
,
000001
100000
000100
101000
,
000001
100000
000100
001001
,
010000
000010
010000
000000
000001
001000
000001
000000
,
100000
000100
100000
000000
000001
001000
000001
000000
,
010000
000010
010000
000010
010000
000000
000100
000000
,
002000
000100
000100
003100
,
100000
001000
100000
000000
000001
001000
000001
000000
,
010000
000010
010000
000010
001000
000010
001000
000010
,
100000
000001
100000
101000
,
000001
100000
000100
001001
,
010000
000010
010000
000000
000010
001000
000010
000000
,
100000
000100
100000
000000
000001
001000
000001
000000
,
010000
000010
010000
010010
,
010000
100000
010000
110000
,
000001
000010
000001
000010
,
200002
000000
000000
300003
,
010000
000010
010000
000010
010000
001000
010000
001000
,
010000
000001
010000
000001
001000
000001
001000
000001
,
100000
000001
100000
000001
001000
000010
001000
000010
,
100000
000100
100000
000000
000001
001000
000001
000000
,
100000
101000
000001
001001
,
010000
010010
000010
010010
,
200002
300003
002200
003300
,
020020
000000
030030
000000
000000
100000
000001
001000
,
000001
000000
100000
000100
100000
000000
001001
000000
,
101000
000000
000100
000001
100000
000000
100100
000000
,
000101
000000
100000
000001
001000
000000
000001
100000
,
000100
000100
000100
000100
,
100000
000001
001000
000001
001000
000000
000001
000000
,
100000
000000
000001
100000
001000
000000
100000
000000
,
000001
001000
000001
000000
100000
001000
100000
000000
,
000001
100000
000001
100000
,
000010
000000
010000
000010
010000
000000
000001
000000
,
010010
000000
100000
000001
100000
000000
001000
000000
,
010010
000000
100000
000001
001000
000000
000010
000000
,
010000
000010
010000
000000
000010
100000
000010
000000
,
010000
000001
010000
000001
010000
000000
000001
000000
,
100000
000010
100000
000010
100000
000000
000010
000000
,
010000
000010
010000
000010
001000
000010
001000
000010
,
010000
000010
010000
000010
010000
001000
010000
001000
,
100000
000000
000001
000000
100000
000100
100000
000001
,
001000
000001
001000
000001
000000
100000
001000
100000
,
000000
000001
000100
000001
000000
100000
000100
100000
,
000000
000001
001000
000001
000000
100000
000001
100000
,
000020
010000
010000
010030
,
100000
000010
100000
000010
000000
010000
000001
010000
,
000000
000010
010000
000010
000000
001000
000010
100000
,
000001
010000
000001
001100
,
020020
000000
000000
000000
,
030030
000000
000000
000000
;
