#TITLE:Funk Soul Brother;
#SUBTITLE:;
#ARTIST:Fat Boy Slim;
#TITLETRANSLIT:;
#SUBTITLETRANSLIT:;
#ARTISTTRANSLIT:;
#CREDIT:;
#BANNER:Funk Soul Brother-BN.png;
#BACKGROUND:Funk Soul Brother-BG.png;
#LYRICSPATH:;
#CDTITLE:SCK Title.png;
#MUSIC:Fat Boy Slim - Funk Soul Brother Remix.mp3;
#OFFSET:-0.033;
#SAMPLESTART:39.298;
#SAMPLELENGTH:12.000;
#SELECTABLE:YES;
#BPMS:0.000=152.600,289.500=146.000,290.500=136.000,291.500=126.000,292.500=116.000,296.500=106.000,297.500=96.000,298.500=86.000,299.500=76.000,308.500=57.000,310.500=38.000,312.333=40.500;
#STOPS:;
#BGCHANGES:;
// cache tags:
#FIRSTBEAT:0.000;
#LASTBEAT:312.750;
#SONGFILENAME:Songs/IzzySM Keyboard Mega Pack/Funk/Funk Soul Brother.sm;
#HASMUSIC:1;
#HASBANNER:1;
#MUSICLENGTH:138.240;
// end cache tags

//---------------dance-single - MANIAC----------------
#NOTES:
     dance-single:
     MANIAC:
     Hard:
     8:
     0.698,0.735,0.890,0.253,0.090,517.000,123.000,35.000,0.000,0.000:
0001
1000
0001
1000
0001
1000
0001
1000
0001
1000
0001
1000
0001
0000
1000
0000
,
0010
0000
0220
0000
0000
0000
0330
0001
,
1000
0000
0010
0000
0100
0001
1000
0100
,
1000
0000
2200
0000
3300
0000
0000
1000
,
0001
0000
0100
0000
1000
0010
0100
0001
,
1000
1001
1000
1100
,
0100
0000
1000
0000
0001
0010
0100
0001
,
0100
0000
0202
0000
0303
0000
0000
0100
,
0010
0000
0001
0000
0100
1000
0001
0010
,
0100
0000
0110
0000
0100
0000
0101
0001
,
1000
0000
0100
0000
1000
0010
0100
0100
,
0010
0100
0001
1000
0100
0010
0100
1000
,
0001
0000
0100
0000
0010
1000
0100
1000
,
0100
0001
0010
1000
0010
0001
0010
1000
,
0001
0000
0100
0000
0010
1000
0100
0000
,
1000
0100
0010
0100
1000
0010
0100
0010
,
1000
0001
0100
0010
0100
0001
0010
0100
,
0010
0001
1000
0100
0010
0100
1000
0001
,
1001
0000
1000
0100
0010
0001
0100
0010
,
0110
0000
0100
0001
1000
0001
0100
0010
,
0110
0000
0100
0001
1000
0010
0001
1000
,
1001
0011
1100
0011
1100
0011
1100
0011
,
0101
1010
0101
1010
0101
1010
0101
0110
,
1000
0010
0100
0010
1000
0010
0100
0010
,
1000
1010
0100
0011
1000
0110
0010
1001
,
0010
0000
1000
0000
0010
0001
1000
1000
,
0001
1000
0100
0010
1000
0001
1000
0010
,
0100
0000
1000
0000
0001
0010
1000
0010
,
1000
0000
0100
0000
0010
0001
1000
0010
,
0100
0000
1001
0000
0100
1000
0001
0100
,
1000
0001
0010
0100
0001
1000
0001
0100
,
0010
0000
0101
0000
1000
0100
0001
0010
,
0001
0000
0000
0000
0011
0000
0000
0000
0100
0000
0001
0000
0220
0000
0000
0330
,
1001
1001
1001
1001
1001
1001
0100
0010
,
0100
1000
0100
0010
0100
0001
0100
0010
,
0110
0110
0110
0110
0110
0110
1000
0001
,
1000
0010
1000
0001
1000
0100
1000
0001
,
0101
0101
0101
0101
0101
0101
0001
0100
,
0010
1000
0100
0010
0001
0100
0010
1000
,
1010
1010
1010
1010
1010
1010
1000
0010
,
0100
0001
1000
0100
0010
0001
0010
1000
,
0002
0000
1003
0000
0001
0010
1000
1000
,
0010
1000
0100
0001
1000
0010
0100
0001
,
1000
0000
0200
0000
0310
0001
1000
0001
,
2000
0000
3100
0000
0001
0010
1000
0001
,
0200
0000
0310
0000
0100
0001
0010
0010
,
0001
0010
1000
0100
0010
0001
1000
0100
,
0010
0000
2000
0000
3001
0100
0010
0100
,
0020
0000
1030
0000
0100
0001
0010
0100
,
1100
0011
1100
0011
1100
0011
1100
0011
,
1000
0010
0100
0001
1000
0010
0100
0001
,
0101
1010
0101
1010
0101
1010
0101
1010
,
0101
1000
0100
0001
0100
1000
0100
0010
,
1010
0011
1010
0011
1010
0011
1010
0011
,
0100
1000
0010
0100
0001
0010
0100
1000
,
1100
0101
1100
0101
1100
0101
1100
0101
,
1100
0010
0001
0100
0010
1000
0100
0010
,
0110
1001
0110
1001
0110
1001
0110
1001
,
0001
0100
0010
1000
0001
0100
0010
1000
,
1001
1100
1001
0011
1001
0101
1001
1010
,
1001
0001
0010
1000
0010
0001
0010
0100
,
0002
0000
0010
0000
1000
0000
0100
0003
,
0200
0000
0001
0000
0010
0010
0000
0301
,
0010
0000
1100
0000
0001
0100
1000
0001
,
0010
1000
0100
0001
0100
1000
0010
0001
,
0010
0000
1010
0000
0001
1000
0001
0100
,
1000
0000
0101
0000
1000
0010
0010
1000
,
0001
1000
0010
0100
0010
1000
0100
0010
,
0100
0000
2000
0000
0001
3010
0001
1000
,
1100
0000
0202
0000
0000
0303
0000
1000
,
0010
0100
0010
1000
0100
0010
0100
1000
,
1001
0000
0002
0000
0000
0000
0000
0003
,
0100
0000
2000
0000
0000
0000
3001
0000
0000
0000
0000
0100
0000
0010
0000
1000
,
0000
0100
0000
1001
0000
0000
0000
0011
0000
0000
0000
0002
0000
0000
0000
0203
,
0000
0000
0000
0300
1000
0000
0000
0000
0000
0000
0101
0000
0000
0000
0000
0000
0000
0000
0000
0000
0000
0000
1010
0000
0000
0000
0000
0000
0000
0000
0000
0000
0000
0000
0001
0000
0000
0000
0000
0000
2000
0000
0000
0000
0000
0000
3100
0000
,
0000
0000
0000
0000
0000
0000
0000
1000
0000
0000
0000
0000
0000
0000
0000
0000
2002
0000
0000
0000
0000
0000
3003
0000
0000
0100
0000
0000
0000
0000
0000
0000
,
0000
0000
0000
0000
0202
0000
0000
0000
0303
0000
0000
2000
0000
0000
0000
0000
3000
0000
0220
0000
0000
0000
0000
0000
0000
0000
0000
0000
0000
0000
0000
0330
,
0000
0000
0000
0000
0002
0000
0000
0000
0000
0000
0000
0000
0000
0000
0000
0000
0000
0000
0003
0000
2000
0000
0000
0000
0000
0000
0000
0000
3000
0000
0000
0220
,
0000
0000
0000
0330
0000
0000
0000
0000
0000
0000
0000
0000
0000
0000
0000
0000
;

//---------------dance-single - Medium----------------
#NOTES:
     dance-single:
     Medium:
     Medium:
     6:
     0.578,0.622,0.318,0.253,0.069,480.000,44.000,35.000,0.000,0.000:
1000
0110
0110
0110
0110
0110
0110
0001
,
0001
0000
2002
0000
0000
0000
3003
0010
,
0010
0000
0001
0000
1000
0000
0010
1000
,
0010
0000
2020
0000
3030
0000
0000
0100
,
0100
0000
1000
0000
0010
0000
1000
0001
,
0010
0110
0010
1010
,
1000
0000
0010
0000
0100
0000
1000
0100
,
1000
0000
2200
0000
3300
0000
0000
1000
,
0001
0000
0100
0000
1000
0000
0100
0001
,
1000
0000
1001
0000
1000
0000
1000
0100
,
0010
0000
1000
0000
0010
0000
1000
1000
,
0001
0000
0100
0010
1000
0000
1000
0010
,
0100
0000
1000
0000
0001
0000
1000
0010
,
1000
0000
0001
0010
0001
0000
0001
0010
,
0100
1000
0001
1000
,
0010
1000
0001
1000
0010
0000
1000
0001
,
0010
0000
1000
0001
1000
0000
0001
1000
,
0001
0000
0010
1000
0001
0000
0010
0100
,
0110
0000
0010
1000
0001
0000
1000
0001
,
1001
0000
1000
0100
0010
0000
1000
0001
,
1001
0000
1000
0100
0010
0000
0100
0010
,
0110
0001
1000
0001
1000
0001
1000
0001
,
0100
0010
0100
0010
0100
0010
0100
1000
,
0010
0001
1000
0001
0010
0001
1000
0001
,
0010
0001
1000
0100
0010
1000
0001
0110
,
0001
0000
0010
0000
0001
0100
0010
0010
,
0100
0000
1000
0001
0010
0100
0010
0001
,
1000
0000
0010
0000
0100
0001
0010
0001
,
0010
0000
1000
0000
0001
0100
0010
0001
,
1000
0000
0110
0000
1000
0010
0100
1000
,
0001
0000
0001
1000
0100
0010
0100
1000
,
0001
0000
1100
0000
0010
1000
0100
0001
,
0100
0000
0000
0000
0101
0000
0000
0000
1000
0000
0100
0000
2002
0000
0000
3003
,
0110
0010
0100
0010
0100
0010
1000
0001
,
1000
0010
1000
0001
1000
0100
1000
0001
,
1001
1000
0001
1000
0001
1000
0010
0100
,
0010
0001
0010
0100
0010
1000
0010
0100
,
1100
1000
0100
1000
0100
1000
0100
1000
,
0001
0010
1000
0001
0100
1000
0001
0010
,
0011
0001
0010
0001
0010
0001
0010
0001
,
1000
0100
0010
1000
0001
0000
0001
0010
,
0200
0000
0310
0000
0100
0000
0010
0010
,
0001
0010
1000
0100
0010
0001
1000
0100
,
0010
0000
2000
0000
3001
0100
0010
0100
,
0020
0000
1030
0000
0100
0001
0010
0100
,
2000
0000
3001
0000
1000
0100
0001
0001
,
0100
0000
0010
1000
0001
0100
0010
1000
,
0001
0000
0020
0000
0130
1000
0001
1000
,
0002
0000
0013
0000
1000
0100
0010
0001
,
1000
0100
1000
0100
1000
0100
1000
0100
,
0010
0001
1000
0100
0010
0001
1000
0100
,
1000
0010
1000
0010
1000
0010
1000
0010
,
1000
0001
1000
0100
1000
0010
1000
0001
,
0010
0001
0100
0001
0010
0001
0100
0001
,
1000
0010
0001
1000
0100
0001
1000
0001
,
0010
1000
0100
1000
0010
1000
0100
1000
,
0010
0001
0100
1000
0001
0010
1000
0001
,
1000
0010
1000
0001
1000
0100
1000
0010
,
0100
1000
0001
0010
0100
1000
0001
0010
,
0110
0010
0110
0100
0110
0100
0110
0010
,
0110
0100
0001
0010
0001
0100
0001
1000
,
0200
0000
0001
0000
0010
0000
1000
0300
,
2000
0000
0100
0000
0001
0000
0100
3100
,
0001
0000
1010
0000
0100
1000
0010
0000
,
0001
0010
1000
0100
1000
0010
0001
0000
,
0001
0000
0011
0000
0100
0010
0100
0000
,
0010
0000
1100
0000
0010
0001
0001
0000
,
0100
0010
0001
1000
0001
0010
1000
0000
,
1000
0000
0020
0000
0100
0031
0100
0000
,
1010
0000
2200
0000
0000
3300
0000
0010
,
0001
1000
0001
0010
1000
0001
1000
0000
,
0110
0000
0200
0000
0000
0000
0000
0300
,
1000
0000
0020
0000
0000
0000
0130
0000
0000
0000
0000
1000
0000
0001
0000
0010
,
0000
1000
0000
0110
0000
0000
0000
0101
0000
0000
0000
0200
0000
0000
0000
2300
,
0000
0000
0000
3000
0010
0000
0000
0000
0000
0000
1100
0000
0000
0000
0000
0000
0000
0000
0000
0000
0000
0000
0011
0000
0000
0000
0000
0000
0000
0000
0000
0000
0000
0000
0100
0000
0000
0000
0000
0000
0020
0000
0000
0000
0000
0000
1030
0000
,
0000
0000
0000
0000
0000
0000
0000
0010
0000
0000
0000
0000
0000
0000
0000
0000
0220
0000
0000
0000
0000
0000
0330
0000
0000
1000
0000
0000
0000
0000
0000
0000
,
0000
0000
0000
0000
2200
0000
0000
0000
3300
0000
0000
0020
0000
0000
0000
0000
0030
0000
2002
0000
0000
0000
0000
0000
0000
0000
0000
0000
0000
0000
0000
3003
,
0000
0000
0000
0000
0200
0000
0000
0000
0000
0000
0000
0000
0000
0000
0000
0000
0000
0000
0300
0000
0020
0000
0000
0000
0000
0000
0000
0000
0030
0000
0000
2002
,
0000
0000
0000
3003
0000
0000
0000
0000
0000
0000
0000
0000
0000
0000
0000
0000
;

//---------------dance-single - Challenge----------------
#NOTES:
     dance-single:
     Challenge:
     Challenge:
     9:
     0.825,0.962,0.948,0.694,0.257,571.000,131.000,96.000,0.000,42.000:
1010
0001
1010
0001
1010
0001
1010
0001
1010
0001
1010
0001
1010
0000
0100
0010
,
0100
0000
0000
0000
2002
0000
0000
0000
0000
0000
0000
0000
3003
0000
0100
1000
,
0100
0000
0000
0000
1000
0000
0000
0000
0001
0000
0010
0000
0100
0000
0001
1000
,
0100
0000
0000
0000
0202
0000
0000
0000
0303
0000
0000
0000
0000
0000
0010
0001
,
0010
0000
0000
0000
0001
0000
0000
0000
0100
0000
1000
0000
0001
0000
1000
0001
,
1000
0000
0100
0000
0110
0000
0000
0010
0100
0000
0001
0000
0101
0000
0000
0100
,
0001
0000
0100
0000
0010
1000
0001
0010
,
0001
0010
0001
0000
0022
0000
0000
0000
0033
0000
0000
0000
0000
0000
0001
0010
,
1000
0000
0000
0000
0010
0000
0000
0000
0001
0000
0100
0000
0010
0000
1000
0100
,
0001
0000
0000
0000
1001
0000
0000
1000
0001
0000
0010
0000
0011
0000
0001
1000
,
0100
0000
0000
0100
0001
0000
0000
0001
0100
0000
1000
0000
0001
0010
0001
0000
,
1000
0001
0010
0100
0001
1010
0001
0100
,
0010
0000
0000
0010
0001
0000
0000
0001
1000
0000
0100
0000
0001
0000
0100
0000
,
0001
0000
0010
0000
1000
0000
0100
0000
1000
0000
0010
0000
1000
0000
0100
0001
,
0010
0000
0000
0010
0001
0000
0000
0001
1000
0000
0100
1000
0001
0000
0000
0000
,
0100
0001
1000
0001
0100
1000
0001
1000
,
0100
0010
0001
1000
0001
0010
1000
0001
,
1000
0000
0010
0000
0100
0000
0001
0000
1000
0000
0001
0000
0100
0000
0010
0001
,
0110
0000
0000
0000
0100
0000
0001
0000
1000
0000
0010
0000
0001
0000
1000
0100
,
1001
0000
0000
0000
0001
0000
0010
0000
0100
0000
0010
0000
0001
0000
1000
0010
,
1001
0000
0000
0000
0001
0000
0010
0000
0100
0000
1000
0000
0010
0000
0100
0001
,
0110
2020
3131
2020
3131
2020
3131
1010
,
0022
1133
0022
1133
0022
1133
0011
1001
,
0100
1000
0001
1000
0100
1000
0001
1000
,
0100
1100
0001
1010
0100
1001
1000
0110
,
1000
0001
1000
0000
0100
0001
0100
0000
1000
0001
0010
0000
0100
1000
0100
0000
,
0010
0100
0001
1000
0100
0010
0100
1000
,
0001
0000
0000
0001
0100
0000
0000
0100
0010
0000
1000
0000
0100
0000
1000
0000
,
0100
0000
0000
0100
0001
0000
0000
0001
1000
0000
0010
0000
0100
0000
1000
0000
,
0001
0000
0000
0000
0110
0000
0000
0010
0001
0000
0100
0000
0010
0000
0001
0000
,
0100
0010
1000
0001
0010
0100
0010
0001
,
1000
0000
0000
0000
0011
0000
0000
0010
0100
0000
0001
0000
0010
0000
1000
0000
,
0010
0000
0000
0000
1010
0000
0000
0000
0001
0000
0010
0000
2002
0000
0000
3003
,
0220
1331
0021
1031
2100
3110
0001
1000
,
0001
0100
0001
1000
0001
0010
0001
1000
,
2001
3101
1002
1023
1031
0110
0100
0010
,
0100
1000
0100
0010
0100
0001
0100
0010
,
0021
0131
1002
1013
0120
1130
0010
0001
,
1000
0100
0001
1000
0010
0001
1000
0100
,
1200
1301
0120
0131
2010
3110
0100
1000
,
0001
0010
0100
0001
1000
0010
1000
0100
,
0020
0000
0000
0000
0130
0000
0000
0100
0010
0000
1000
0000
0100
0010
0100
0000
,
1000
0100
0001
0010
0100
1000
0001
0010
,
0100
0000
0002
0000
1003
0010
0100
0010
,
0200
0000
0301
0000
0010
1000
0100
0010
,
0002
0000
0000
0000
1003
0000
0000
0000
0001
0000
0010
0000
1000
0001
1000
0000
,
0010
1000
0100
0001
1000
0010
0100
0001
,
1000
0000
0200
0000
0310
0001
1000
0001
,
2000
0000
3100
0000
0001
0010
1000
0001
,
0202
1313
0202
1313
0202
1313
0202
1313
,
0100
1000
0001
0010
0100
1000
0001
0010
,
0022
1133
0022
1133
0022
1133
0022
1133
,
0011
0100
0001
0010
0001
0100
0001
1000
,
1200
1310
1200
1310
1200
1310
1200
1310
,
0001
0100
1000
0001
0010
1000
0001
0100
,
0201
0311
0201
0311
0201
0311
0201
0311
,
0101
1000
0010
0001
1000
0100
0001
1000
,
2002
3113
2002
3113
2002
3113
2002
3113
,
0010
0001
1000
0100
0010
0001
1000
0100
,
0120
0131
0210
1310
0120
1130
0210
0311
,
0110
0010
1000
0100
1000
0010
1000
0001
,
0020
0000
1000
0000
0100
0000
0001
0030
,
0002
0000
0010
0000
1000
0000
1000
0013
,
1000
0000
0101
0000
0010
0001
0100
0010
,
1000
0000
0100
0000
0001
0000
0010
0000
0001
0000
0100
0000
1000
0000
0010
0100
,
1000
0100
0010
0000
1100
0000
0000
0000
0010
0000
0100
0000
0010
0000
0001
0000
,
0100
0000
1000
0000
0011
0000
0000
0000
0100
0000
1000
0001
1000
0000
0100
0000
,
0010
0001
0100
0001
1000
0000
0001
0000
1000
0000
0100
0000
0001
0000
1000
0000
,
0001
0000
0000
0000
0200
0000
0000
0000
0010
0000
1300
0000
0010
0100
0010
0000
,
0101
0000
0022
0000
0000
0033
0000
0100
,
1000
0010
0001
0010
1000
0000
0100
0000
0001
0000
1000
0000
0001
0000
0100
0000
,
0110
0000
0020
0000
0000
0000
0000
0030
,
0001
0000
0200
0000
0000
0000
0310
0000
0000
0000
0000
0001
0000
1000
0000
0100
,
0000
0001
0000
0110
0000
0000
0000
1010
0000
0000
0000
0020
0000
0000
0000
0032
,
0000
0000
0000
0003
0100
0000
0000
0000
0000
0000
0011
0000
0000
0000
0000
0000
0000
0000
0000
0000
0000
0000
1100
0000
0000
0000
0000
0000
0000
0000
0000
0000
0000
0000
0010
0000
0000
0000
0000
0000
0200
0000
0000
0000
0000
0000
0301
0000
,
0000
0000
0000
0000
0000
0000
0000
0100
0000
0000
0000
0000
0000
0000
0000
0000
0220
0000
0000
0000
0000
0000
0330
0000
0000
0001
0000
0000
0000
0000
0000
0000
,
0000
0000
0000
0000
0022
0000
0000
0000
0033
0000
0000
0200
0000
0000
0000
0000
0300
0000
2002
0000
0000
0000
0000
0000
0000
0000
0000
0000
0000
0000
0000
3003
,
0000
0000
0000
0000
0020
0000
0000
0000
0000
0000
0000
0000
0000
0000
0000
0000
0000
0000
0030
0000
0200
0000
0000
0000
0000
0000
0000
0000
0300
0000
0000
2002
,
0000
0000
0000
3003
0000
0000
0000
0000
0000
0000
0000
0000
0000
0000
0000
0000
;

//---------------dance-single - Easy----------------
#NOTES:
     dance-single:
     Easy:
     Easy:
     4:
     0.477,0.509,0.181,0.253,0.069,402.000,25.000,35.000,0.000,0.000:
2000
0100
0000
0100
0000
0100
0000
3100
,
0100
0000
2002
0000
0000
0000
3003
0010
,
0010
0001
1000
0010
,
0010
0000
2020
0000
3030
0000
0000
0100
,
0100
1000
0010
1000
,
0010
0110
0010
1010
,
1000
0010
0100
1000
,
1000
0000
2200
0000
3300
0000
0000
1000
,
0001
0100
1000
0100
,
1000
1001
1000
1000
,
0010
0000
1000
0000
0010
0000
1000
1000
,
0001
0100
1000
1000
,
0100
1000
0001
1000
,
1000
0000
0001
0000
0001
0000
0001
0010
,
0100
1000
0001
1000
,
0010
0000
0001
1000
0010
0000
1000
0000
,
0010
0000
1000
0001
1000
0000
0001
1000
,
0001
0010
0001
0010
,
0010
0000
0010
0000
0001
0000
0001
1000
,
0001
0000
1000
0100
0010
0000
1000
0001
,
1000
1000
0010
0101
,
0100
0001
0001
0001
0001
0001
0001
0001
,
0100
0100
0100
0100
0100
0100
0100
1000
,
0010
0000
1000
0000
0010
0000
1000
0001
,
0010
0001
1000
0000
0010
1000
0100
0010
,
0001
0000
0010
0000
0001
0100
0010
0000
,
0100
0000
1000
0000
0010
0100
0010
0000
,
1000
0000
0010
0000
0100
0000
0010
0001
,
0010
0000
1000
0000
0001
0000
0010
0001
,
1000
0000
0110
0000
1000
0000
0100
1000
,
0001
0000
0001
0000
0100
0010
0100
0000
,
0101
0000
1100
0000
0010
0000
0100
0001
,
0100
0000
0000
0000
0101
0000
0000
0000
1010
0000
0000
0000
2002
0000
0000
3003
,
0010
0010
0010
0010
0010
0010
0010
0010
,
0001
0000
0100
0000
0010
0000
1000
0001
,
1000
1000
1000
1000
1000
1000
1000
0000
,
0010
0001
0100
0010
,
1000
1000
1000
1000
1000
1000
1000
1000
,
0001
1000
0100
0001
,
0010
0010
0010
0010
0010
0010
0010
0000
,
1000
0000
0010
0000
0001
0000
0001
0010
,
0200
0000
0310
0000
0100
0000
0010
0010
,
0001
0000
1000
0100
0010
0001
1000
0000
,
0010
0000
2000
0000
3001
0000
0010
0100
,
0020
0000
1030
0000
0100
0000
0010
0100
,
2000
0000
3001
0000
1000
0000
0001
0001
,
0100
0000
0010
0000
0001
0100
0001
0000
,
0001
0000
0020
0000
0130
0000
0001
1000
,
0002
0000
0013
0000
1000
0100
0010
0001
,
0100
0100
0100
0100
0100
0100
0100
0100
,
0010
0000
1000
0000
0010
0000
1000
0100
,
1000
0001
0001
0001
0001
0001
0001
0001
,
1000
0000
0100
0000
0010
0000
0001
0100
,
0001
0100
0100
0100
0100
0100
0100
0100
,
1000
0000
0001
0000
0100
0000
1000
0001
,
0010
0100
0100
0100
0100
0100
0100
0100
,
0010
0000
0100
0000
0001
0000
1000
0001
,
1000
0010
0010
0010
0010
0010
0010
0010
,
0100
0000
0001
0000
0100
0000
0001
0010
,
0100
0210
0010
0010
0010
0010
0010
0310
,
0110
0100
0001
0010
0001
0100
0001
1000
,
0200
0000
0001
0000
0010
0000
1000
0300
,
2000
0000
0100
0000
0001
0000
0100
3100
,
0001
1010
0100
0010
,
0001
0000
1000
0100
1000
0000
0001
0000
,
0001
0000
0011
0000
0100
0010
0100
0000
,
0010
0000
1100
0000
0010
0001
0001
0000
,
0100
0000
0001
1000
0001
0000
1000
0000
,
1000
0000
0020
0000
0130
0001
0100
0000
,
1010
0000
2200
0000
0000
3300
0000
0010
,
0001
0000
0001
0010
1000
0000
1000
0000
,
0110
0000
0200
0000
0000
0000
0000
0300
,
1000
0000
0020
0000
0000
0000
0130
0000
0000
0000
0000
1000
0000
0001
0000
0010
,
0000
1000
0000
0100
0000
0000
0000
0001
0000
0000
0000
0200
0000
0000
0000
2300
,
0000
0000
0000
3000
0010
0000
0000
0000
0000
0000
1100
0000
0000
0000
0000
0000
0000
0000
0000
0000
0000
0000
0011
0000
0000
0000
0000
0000
0000
0000
0000
0000
0000
0000
0100
0000
0000
0000
0000
0000
0020
0000
0000
0000
0000
0000
1030
0000
,
0000
0000
0000
0000
0000
0000
0000
0010
0000
0000
0000
0000
0000
0000
0000
0000
0200
0000
0000
0000
0000
0000
0300
0000
0000
1000
0000
0000
0000
0000
0000
0000
,
0000
0000
0000
0000
0200
0000
0000
0000
0300
0000
0000
0020
0000
0000
0000
0000
0030
0000
2002
0000
0000
0000
0000
0000
0000
0000
0000
0000
0000
0000
0000
3003
,
0000
0000
0000
0000
0200
0000
0000
0000
0000
0000
0000
0000
0000
0000
0000
0000
0000
0000
0300
0000
0020
0000
0000
0000
0000
0000
0000
0000
0030
0000
0000
2002
,
0000
0000
0000
3003
0000
0000
0000
0000
0000
0000
0000
0000
0000
0000
0000
0000
;
