#TITLE:Shit Pallete 2.0;
#SUBTITLE:EXoduz Violation II;
#ARTIST:GoreShit;
#TITLETRANSLIT:;
#SUBTITLETRANSLIT:;
#ARTISTTRANSLIT:;
#CREDIT:;
#BANNER:../Banner.png;
#BACKGROUND:../Background.png;
#LYRICSPATH:;
#CDTITLE:;
#MUSIC:Shit Pallete 2.0.ogg;
#OFFSET:0.951;
#SAMPLESTART:96.471;
#SAMPLELENGTH:12.000;
#SELECTABLE:YES;
#DISPLAYBPM:249.000;
#BPMS:0.000=249.000;
#STOPS:;
#BGCHANGES:;
// cache tags:
#FIRSTBEAT:4.000;
#LASTBEAT:1268.000;
#SONGFILENAME:Songs/EXoduz Violation II/Shit Pallete 2.0 - [Ov3rHell3XoduZ]/sm.sm;
#HASMUSIC:1;
#HASBANNER:1;
#MUSICLENGTH:308.458;
// end cache tags

//---------------dance-single - ----------------
#NOTES:
     dance-single:
     :
     Beginner:
     19:
     1.000,1.000,0.016,0.665,1.000,2092.000,5.000,205.000,0.000,1.000:

0000
0000
0000
0000
,
2000
0000
0000
0000
,
3200
0000
0320
0000
,
0032
0000
0000
0000
,
2003
0000
0000
0000
,
3020
0000
0000
0000
,
0230
0000
0302
0000
,
0023
0000
0000
0000
,
0230
0000
0000
0000
,
2300
0000
0000
0000
,
3002
0000
0203
0000
,
0302
0000
0000
0000
,
2003
0000
0000
0000
,
3200
0000
0000
0000
,
0320
0000
0032
0000
,
2003
0000
0000
0000
,
3020
0000
0000
0000
,
0230
0000
0000
0000
,
0302
0000
2003
0000
,
3002
0000
0000
0000
,
0023
0000
0000
0000
,
0230
0000
0000
0000
,
2300
0000
3020
0000
,
0230
0000
0000
0000
,
0302
0000
0000
0000
,
0023
0000
0000
0000
,
0230
0000
2300
0000
,
3020
0000
0000
0000
,
0230
0000
0000
0000
,
0302
0000
0000
0000
,
0023
0000
0230
0000
,
2300
0000
0000
0000
,
3020
0000
0000
0000
0000
0000
0000
0030
,
0110
0000
0001
1000
0000
0100
0000
0020
,
0000
0000
0000
0000
0000
0000
0000
0000
0000
0000
0000
0000
0031
1000
0001
0100
,
0001
1000
0010
0100
0001
0010
0100
1000
,
0001
0100
0001
1000
0010
1000
0001
1000
,
0100
0010
0001
0100
0001
1000
0001
1000
,
0010
1000
0001
1000
0100
0010
0001
0100
,
0001
1000
0010
0100
0001
0010
0100
1000
,
0001
1000
0100
1000
0001
0010
0001
1000
,
0010
1000
0100
0010
0001
0100
0001
1000
,
0010
0100
0001
0100
0001
1000
0100
0010
,
0001
1000
0100
1000
0001
0100
0001
0010
,
0100
1000
0010
0100
0001
1000
0001
1000
,
0010
0100
0001
0010
0100
1000
0001
0100
,
0001
1000
0010
1000
0001
1000
0100
0010
,
0001
1000
0001
0100
0001
0010
0100
1000
,
0001
0000
1000
0000
0010
0000
0100
0000
0001
0010
0100
0000
1000
0000
0010
0100
,
0001
1000
0010
0100
0001
0010
0001
0010
0100
1000
0001
1000
0001
0100
0001
1000
,
0010
1000
0001
1000
0001
1000
0100
0010
0001
1000
0001
0100
0001
0100
0010
0100
,
0010
1000
0100
0010
0001
1000
0001
1000
0100
0010
0001
0100
0001
0100
0010
1000
,
0010
1000
0100
1000
0001
0100
0001
1000
0001
0100
0001
1000
0010
1000
0010
1000
,
0100
0010
0001
0010
0001
1000
0001
0100
0001
1000
0100
0010
0001
1000
0010
1000
,
0001
1000
0001
1000
0100
0010
0001
1000
0001
0100
0001
1000
0001
1000
0010
1000
,
0001
1000
0100
1000
0100
0010
0001
0010
0001
1000
0100
1000
0010
0100
0010
0100
,
0001
0010
0001
0010
0100
1000
0001
0100
0001
1000
0001
1000
0010
1000
0001
1000
,
0100
1000
0100
0010
0001
0010
0001
1000
0001
0100
0001
0010
0100
1000
0010
0100
,
0010
1000
0100
0010
0001
0010
0001
1000
0001
0100
0001
1000
0010
1000
0001
1000
,
0100
0010
0001
1000
0001
0100
0001
0010
0100
1000
0001
1000
0010
1000
0001
1000
,
0100
0010
0001
1000
0001
0100
0001
0100
0010
1000
0100
0010
0001
0010
0001
1000
,
0010
1000
0100
0010
0001
1000
0001
0100
0001
0010
0001
0010
0100
1000
0001
0100
,
0001
1000
0100
1000
0100
1000
0010
0100
0001
1000
0100
0010
0001
1000
0010
1000
,
0001
1000
0001
1000
0001
0100
0001
0010
0100
1000
0001
0100
0001
1000
0010
1000
,
0010
0100
0001
0100
0001
0010
0100
1000
0001
1000
0010
1000
0002
0203
0302
0203
,
0302
1003
0010
0100
0001
0100
0001
0010
,
0100
1000
0100
0010
0001
1000
0001
0100
,
0001
0010
0100
1000
0001
1000
0010
1000
,
0001
1000
0010
1000
0001
1000
0100
0010
,
0001
1000
0010
1000
0001
1000
0100
0010
,
0001
0100
0001
1000
0001
0100
0001
0100
,
0010
1000
0010
1000
0100
1000
0100
0010
,
0001
0010
0001
1000
0001
1000
0010
1000
,
0001
1000
0001
0100
0001
1000
0010
0100
,
0001
0010
0100
1000
0100
0010
0001
1000
,
0001
0100
0001
1000
0010
1000
0001
0100
,
0010
1000
0100
0010
0001
0010
0001
1000
,
0010
1000
0001
0100
0001
1000
0001
1000
,
0100
0010
0001
1000
0010
1000
0010
0100
,
0001
0100
0001
1000
0100
0010
0001
1000
,
0010
0000
1000
0000
0001
0000
0100
0000
0001
0000
0010
0000
0100
1000
0010
0100
,
0001
1000
0100
1000
0001
0100
0010
1000
0100
0010
0001
1000
0010
1000
0001
0010
,
0001
1000
0100
0010
0001
1000
0001
0100
0010
1000
0100
1000
0010
0100
0001
0010
,
0100
0010
0001
1000
0100
1000
0001
0100
0001
1000
0010
0100
0001
0010
0100
1000
,
0001
1000
0010
1000
0001
1000
0100
0010
0001
1000
0010
0100
0001
0010
0100
1000
,
0002
0000
0000
0000
0000
0000
0000
0000
0000
0000
0000
0000
1003
0100
1000
0010
,
0100
0100
0001
0010
0100
1000
0001
1000
,
0001
0100
0010
1000
0100
0010
0001
0100
,
0001
1000
0010
1000
0001
0100
0001
0010
,
0100
1000
0010
0100
0001
1000
0100
1000
0001
0100
0010
1000
0100
0010
0001
1000
,
0010
1000
0001
0010
0001
1000
0100
0010
0001
1000
0010
0100
0001
0010
0001
1000
,
0100
0010
0001
1000
0010
0100
0010
1000
0100
0010
0001
1000
0001
0100
0001
0010
,
0100
1000
0010
0100
0001
1000
0100
1000
0010
0100
0010
1000
0100
0010
0001
1000
,
0200
0000
0000
0000
0000
0000
0310
0001
,
1000
0010
0100
0001
0010
0100
1000
0001
,
1000
0001
0100
0010
1000
0100
0010
0001
,
1000
0000
0010
0000
1000
0000
0001
0000
1000
0000
0001
1000
0010
1000
0010
0000
,
0100
0001
0010
0100
1000
0100
0010
0001
,
1000
0010
1000
0001
0100
0001
1000
0010
,
0200
0000
0000
0000
0000
0000
0000
0300
,
0202
0000
0000
0000
0000
0000
0000
0303
,
1000
0010
0100
0001
1000
0100
1000
0010
0100
0001
0010
0100
1000
0001
0100
0001
,
1000
0100
0010
0100
1000
0010
0100
0001
0010
0001
1000
0010
0100
0001
1000
0100
,
1000
0001
0100
0001
0010
0100
0010
0001
1000
0010
0100
0010
1000
0100
1000
0001
,
0100
0010
1000
0100
0010
0001
1000
0010
1000
0001
1000
0100
0010
0001
1000
0001
,
0100
0001
0010
0100
0010
0001
1000
0010
0100
0010
1000
0001
0100
0001
1000
0100
,
1000
0010
0100
0001
0010
0100
0010
0001
1000
0001
0100
0010
1000
0001
0100
0010
,
1000
0100
1000
0001
0100
0001
0010
0100
1000
0010
0100
0010
1000
0100
0010
0001
,
1000
0001
0100
0001
0010
0001
1000
0100
0010
0100
1000
0010
0100
0001
1000
0100
,
1000
0010
0100
0001
0010
0001
1000
0100
0010
0001
1000
0010
1000
0100
0010
0001
,
1000
0010
0100
0001
0010
0001
1000
0100
0010
0001
1000
0010
1000
0100
0010
0001
,
1000
0010
0100
0001
0010
0001
1000
0100
0010
0001
1000
0010
0100
0001
0010
0001
,
1000
0100
0010
0100
1000
0010
0100
0001
1000
0100
1000
0010
0100
0001
0010
0001
,
1000
0100
0010
0001
1000
0010
0100
0001
1000
0100
1000
0010
0100
0001
0010
0001
,
1000
0100
0010
0001
1000
0010
0100
0001
1000
0100
1000
0010
0100
0001
0010
0100
,
0010
0001
1000
0100
1000
0001
0100
0001
1000
0010
0100
0001
0010
0001
1000
0100
,
0010
0001
1000
0010
0100
0001
1000
0100
1000
0010
0100
0010
1000
0100
0010
0001
,
1000
0001
0100
0001
0010
0100
0010
0001
1000
0010
0100
0001
1000
0100
1000
0010
,
0100
0001
0010
0100
0010
0001
1000
0100
1000
0010
0100
0001
0010
0001
1000
0100
,
0010
0001
1000
0010
0100
0001
0010
0001
1000
0100
0010
0001
1000
0010
0100
0010
,
1000
0100
0010
0001
1000
0100
1000
0010
0100
0001
0010
0100
0010
0001
1000
0010
,
0100
0001
1000
0100
1000
0010
0100
0001
0010
0100
0010
0001
1000
0100
1000
0010
,
0100
0001
0010
0001
1000
0100
0010
0001
1000
0010
1000
0100
0010
0001
1000
0010
,
0100
0001
0010
0001
1000
0100
0010
0001
1000
0010
0100
0001
0010
0001
1000
0100
,
0010
0001
1000
0010
0100
0001
1000
0100
1000
0010
0100
0001
0010
0100
1000
0001
,
1000
1000
0001
1000
0010
1000
0001
0100
,
0001
1000
0100
0010
0001
0010
0001
1000
,
0010
1000
0001
0100
0001
1000
0010
0100
,
0001
0010
0001
0010
0100
1000
0001
0100
,
0001
1000
0001
1000
0010
0100
0001
0100
,
0001
0010
0100
1000
0001
1000
0010
1000
,
0001
0100
0001
0100
0010
1000
0100
0010
,
0001
0010
0001
1000
0010
1000
0001
0100
,
0001
1000
0001
1000
0100
0010
0001
0010
,
0001
1000
0010
1000
0001
0010
0001
0010
,
0100
1000
0001
0100
0001
1000
0010
1000
,
0001
1000
0001
1000
0100
0010
0001
1000
,
0010
1000
0010
0100
0001
0100
0001
0010
,
0100
1000
0100
0010
0001
1000
0010
1000
,
0001
0100
0001
1000
0001
1000
0100
0010
,
0001
0000
1000
0000
0010
0000
1000
0000
0001
0000
1000
0000
0001
1000
0001
0000
,
0100
0001
0010
0100
1000
0001
1000
0010
1000
0001
1000
0001
0100
0001
1000
0010
,
1000
0010
0100
0001
0010
0100
1000
0100
0010
0001
1000
0010
1000
0001
1000
0001
,
0100
0001
0100
0001
1000
0010
1000
0001
1000
0001
1000
0100
0010
0001
1000
0010
,
1000
0010
0100
0001
0100
0001
0010
0001
0010
0100
1000
0100
1000
0001
1000
0010
,
2000
0000
0000
0000
0000
0000
3001
1000
,
0010
1000
0001
0100
0001
1000
0001
1000
,
0100
1000
0100
0010
0001
1000
0010
1000
,
0001
0100
0001
1000
0001
1000
0010
0100
,
0001
1000
0100
1000
0010
0100
0001
0010
0100
1000
0001
0100
0010
1000
0100
1000
,
0010
0100
0001
0010
0100
0010
0001
1000
0100
1000
0001
0100
0001
1000
0010
0100
,
0001
1000
0100
1000
0010
0100
0001
0010
0100
1000
0001
0100
0001
1000
0100
0010
,
0001
1000
0010
1000
0001
0010
0001
1000
0100
0010
0001
1000
0010
0100
0001
1000
,
0002
0000
0000
0000
0000
0000
1003
0001
,
1000
0010
0100
0001
0100
0001
0010
0100
,
1000
0001
0100
0001
1000
0001
1000
0100
,
0010
0001
1000
0010
1000
0001
0100
0001
,
0100
0010
1000
0010
1000
0100
0010
0001
,
1000
0001
0100
0001
1000
0001
1000
0010
,
2000
0000
0000
0000
0000
0000
0000
3000
,
0202
0000
0000
0000
0000
0000
0000
0303
,
0020
0000
0000
2030
0000
0000
0000
0000
,
0000
0000
0000
3200
,
0000
0000
0000
0000
,
0000
0320
0000
0000
,
0032
0000
0000
2003
0000
0000
0000
0000
,
0000
0000
0000
3020
,
0000
0000
0000
0000
,
0000
0000
0000
0000
0230
0000
0000
0000
0000
0000
0000
0000
0301
0010
0100
0000
,
2000
0000
0000
3020
0000
0000
0000
0000
,
0000
0000
0000
0230
,
0000
0000
0000
0000
,
0000
0302
0000
0000
,
0023
0000
0000
0230
0000
0000
0000
0000
,
0000
0000
0000
2300
,
0000
0000
0000
0000
0000
0000
0000
3200
,
0000
0310
0020
0000
0031
0001
0001
0001
,
0002
0000
0000
2003
0000
0000
0000
0000
,
0000
0000
0000
3020
,
0000
0000
0000
0000
,
0000
0230
0000
0000
,
0302
0000
0000
0023
0000
0000
0000
0000
,
0000
0000
0000
0230
,
0000
0000
0000
0000
,
0000
0000
2300
0000
0000
0000
0000
3010
,
0020
0000
0000
0230
0000
0000
0000
0000
,
0000
0000
0000
0302
,
0000
0000
0000
0000
,
0000
0203
0000
0000
,
0320
0000
0000
2030
0000
0000
0000
0000
,
0000
0000
0000
3200
,
0000
0000
0000
0000
0000
0000
0000
0320
,
0000
0031
0002
0000
1003
1000
1000
1000
,
2000
0000
3001
0200
0000
0000
0000
0000
,
0000
0000
0000
0320
,
0000
0000
0000
0000
,
0000
2030
0000
0000
,
3200
0000
0000
0320
0000
0000
0000
0000
,
0000
0000
0000
0032
,
0000
0000
0000
0000
,
0000
0000
0000
0000
2003
0000
0000
0000
0000
0000
0000
0000
3001
0100
0001
0000
,
2000
0000
0000
3200
0000
0000
0000
0000
,
0000
0000
0000
0320
,
0000
0000
0000
0000
,
0000
0032
0000
0000
,
2003
0000
0000
3020
0000
0000
0000
0000
,
0000
0000
0000
0230
,
0000
0000
0000
0000
,
0000
0301
0002
0000
0000
0000
0013
0010
,
0020
0000
0130
2000
0000
3001
0200
0000
,
0000
0000
0310
2000
0000
3100
0020
0000
,
0000
0000
0000
0000
0000
0000
0031
0100
,
0010
1000
0200
0000
0310
0001
1000
0001
,
0200
0000
0310
2000
0000
3001
0200
0000
,
0000
0000
0310
2000
0000
3010
0200
0000
,
0000
0000
0000
0000
0000
0000
0301
0010
,
0100
1000
0002
0000
0103
0010
1000
0100
,
0020
0000
0031
0200
0000
0310
2000
0000
,
0000
0000
3100
0020
0000
0130
0020
0000
,
0000
0000
0000
0000
0000
0000
0031
1000
,
0010
0100
0002
0000
0013
0100
1000
0100
,
0020
0000
0031
2000
0000
3001
0200
0000
,
0000
0000
0310
2000
0000
3010
2000
0000
,
0000
0000
0000
0000
0000
0000
0000
0000
0000
0000
0000
0000
3100
0010
0001
0000
,
1000
0001
0100
0010
1000
0100
0010
0001
,
2000
0000
3001
2000
0000
3001
2000
0000
,
0000
0000
3100
0020
0000
0130
0020
0000
,
0000
0000
0000
0000
,
0034
0000
0000
0000
,
1003
0001
1000
0010
1000
0010
0100
0001
0100
0001
1000
0001
1000
0100
0010
0001
,
0010
0001
1000
0001
0100
0001
1000
0010
1000
0010
1000
0001
0100
0001
0100
0001
,
1000
0001
1000
0100
1000
0100
0010
0001
0010
0001
1000
0010
1000
0010
1000
0100
,
1000
0100
0010
0001
1000
0001
1000
0001
0100
0010
0100
0010
1000
0100
0010
0001
,
1000
0001
0100
0001
1000
0010
1000
0010
0100
0001
0100
0001
0010
0100
1000
0100
,
0010
0001
1000
0001
0100
0001
1000
0010
1000
0001
1000
0100
1000
0100
0010
0001
,
1000
0001
0100
0001
1000
0010
1000
0001
1000
0001
0100
0001
0100
0010
0100
0010
,
1000
0100
0010
0001
1000
0001
0100
0001
1000
0010
1000
0001
1000
0001
1000
0100
,
0010
0001
1000
0010
0100
0010
1000
0100
0010
0001
1000
0010
0100
0001
0010
0001
,
1000
0100
0010
0001
1000
0100
1000
0010
0100
0001
0010
0100
1000
0001
0100
0001
,
1000
0100
0010
0001
1000
0010
0100
0010
1000
0100
0010
0001
1000
0001
0100
0001
,
0010
0100
1000
0010
0100
0001
1000
0100
1000
0010
0100
0001
0010
0100
0010
0001
,
1000
0100
1000
0010
0100
0001
0010
0100
1000
0001
0100
0001
1000
0100
0010
0001
,
1000
0010
0100
0001
0010
0001
1000
0010
0100
0001
1000
0100
1000
0010
0100
0001
,
0010
0100
0010
0001
1000
0100
1000
0001
0100
0010
1000
0100
0010
0001
1000
0010
,
1000
0001
0010
0100
1000
0001
0100
0001
1000
0010
0100
0001
0010
0100
1000
0001
,
2000
0000
0000
0000
,
0000
0000
0000
0000
,
3200
0000
0000
0000
,
0000
0000
0000
0000
,
0320
0000
0000
0000
,
0000
0000
0000
0000
,
0000
0000
0000
0000
,
0000
0000
0000
0000
,
0032
0000
0000
0000
,
0000
0000
0000
0000
,
2003
0000
0000
0000
,
0000
0000
0000
0000
,
3020
0000
0000
0000
,
0000
0000
0000
0000
,
0000
0000
0000
0000
,
0000
0000
0000
0000
,
0230
0000
0000
0000
,
0000
0000
0000
0000
,
0302
0000
0000
0000
,
0000
0000
0000
0000
,
0023
0000
0000
0000
,
0000
0000
0000
0000
,
0000
0000
0000
0000
,
0000
0000
0000
0000
,
0230
0000
0000
0000
,
0000
0000
0000
0000
,
2300
0000
0000
0000
,
0000
0000
0000
0000
,
3020
0000
0000
0000
,
0000
0000
0000
0000
,
0000
0000
0000
0000
,
0000
0000
0000
0000
,
0230
0000
0301
0020
0000
0130
2000
0000
,
0000
0000
3001
0100
0000
0001
0100
0000
,
0000
0000
0000
0000
,
0000
0000
0000
0000
,
2000
0000
0000
0000
,
3200
0000
0320
0000
,
0031
1000
0020
0000
0000
0000
0000
0000
0000
0000
0000
0000
0000
0000
0000
0000
,
0130
0001
0020
0000
0000
0000
0000
0000
0000
0000
0000
0000
0000
0000
0000
0000
,
0130
1000
0020
0000
0000
0000
0000
0000
0000
0000
0000
0000
0000
0000
0000
0000
,
0130
0001
0020
0000
0000
0000
0000
0000
0130
1000
0002
0000
0000
0000
0000
0000
,
1003
0010
0200
0000
0000
0000
0000
0000
0000
0000
0000
0000
0000
0000
0000
0000
,
0301
0010
0200
0000
0000
0000
0000
0000
0000
0000
0000
0000
0000
0000
0000
0000
,
1300
0001
1000
0010
1000
0010
0100
0001
0100
0001
0010
0001
0010
0100
1000
0001
,
1000
0010
1000
0001
1000
0001
0100
0001
0100
0010
0100
0010
1000
0100
0010
0001
,
1000
0001
1000
0001
0100
0001
0100
0010
1000
0100
0010
0001
1000
0010
1000
0001
,
1000
0001
0100
0001
0100
0010
0100
0010
1000
0100
0010
0001
0010
0001
1000
0010
,
1000
0001
0100
0001
0100
0010
1000
0100
1000
0100
0010
0001
0010
0001
1000
0010
,
1000
0001
0100
0001
1000
0001
1000
0010
0100
0001
0010
0001
0010
0100
1000
0001
,
1000
0010
1000
0001
1000
0001
0100
0001
0100
0010
0100
0010
1000
0100
1000
0100
,
0010
0001
1000
0010
1000
0001
0100
0001
1000
0001
1000
0100
1000
0100
0010
0001
,
0020
0030
0020
0030
0200
0300
0200
0300
,
2000
3000
2000
3000
0020
0030
0020
0030
,
0200
0300
0200
0300
0002
0003
0002
0003
,
2000
3000
2000
3000
0002
0003
0002
0003
,
0020
0030
0020
0030
0200
0300
0200
0300
,
0020
0030
0020
0030
0002
0003
0002
0003
,
2000
3000
2000
3000
0020
0030
0020
0030
,
0200
0300
0200
0300
0002
0003
0002
0003
,
2000
0000
0000
0000
,
3200
0000
0320
0000
,
0032
0000
0000
0000
,
2003
0000
0000
0000
,
3020
0000
0000
0000
,
0230
0000
0302
0000
,
0023
0000
0000
0000
,
0230
0000
0000
0000
0000
0000
0000
0300
,
2222
0000
0000
0000
,
0000
0000
0000
0000
,
0000
0000
0000
0000
,
0000
0000
0000
0000
,
3333
0000
0000
0000
;

//---------------dance-single - ----------------
#NOTES:
     dance-single:
     :
     Easy:
     20:
     1.000,1.000,0.010,1.000,1.000,2869.000,3.000,443.000,0.000,1.000:

0000
0000
0000
0000
,
2000
0000
0000
0000
,
3200
0000
0320
0000
,
0032
0000
0000
0000
,
2003
0000
0000
0000
,
3020
0000
0000
0000
,
0230
0000
0302
0000
,
0023
0000
0000
0000
,
0230
0000
0000
0000
,
2300
3010
0100
0001
0010
0100
1000
0001
,
2000
3100
1000
0010
0200
0301
0010
0100
,
2000
3100
0010
0001
1000
0001
0100
0001
,
2000
3010
0100
0010
1000
0001
0100
0001
,
2000
3010
0100
0001
0010
0100
1000
0100
,
0020
0031
1000
0001
0200
0301
0010
0100
,
2000
3010
1000
0001
0010
0001
1000
0001
,
0200
0310
1000
0100
1000
0001
0100
0001
,
2000
3010
1000
0100
0010
0001
1000
0001
,
0200
0301
0010
0100
2000
3001
1000
0010
,
2000
3001
0100
0010
1000
0100
0010
0001
,
2000
3001
0100
0001
1000
0010
1000
0100
,
2000
3010
1000
0001
0100
0001
1000
0010
,
2000
3100
0010
0001
2000
3001
0100
0001
,
2000
3100
1000
0010
0100
0001
0010
0100
,
2000
3001
1000
0100
1000
0001
0100
0001
,
0020
0130
1000
0001
1000
0100
0010
0001
,
2000
3001
0100
0001
2000
3010
1000
0100
,
2000
3001
1000
0100
0010
0001
1000
0001
,
0200
0301
1000
0010
1000
0100
0010
0100
,
2000
3001
0100
0001
1000
0100
1000
0010
,
2000
3001
1000
0100
0020
0130
1000
0001
,
0200
0310
0100
0001
0100
0010
1000
0100
,
0020
0031
1000
0010
1000
0001
1000
0010
,
1010
0000
0001
1000
0000
0100
0000
0020
,
0000
0000
0000
0000
0000
0000
0000
0000
0000
0000
0000
0000
0031
0100
0001
1000
,
0002
1003
0020
0230
0301
0020
0130
2000
,
3001
0100
0001
0010
0100
1000
0001
1000
,
0020
0230
0302
0013
0100
1000
0002
0023
,
0230
1300
0001
1000
0010
0100
0002
0023
,
0230
1300
0002
0203
0310
2000
3200
0320
,
0032
1003
0001
0100
0001
0010
0100
1000
,
0002
0203
0320
2030
3200
0320
0031
2000
,
3001
0100
0010
1000
0100
0010
0002
2003
,
3002
0103
0020
2030
3100
0020
0031
0200
,
0310
1000
0100
0010
0001
1000
0001
0010
,
0200
2300
3002
1003
0010
0100
0002
0023
,
0230
1300
0001
1000
0100
0010
0002
0203
,
0320
1030
0200
0320
0031
2000
3001
0200
,
0320
0000
1030
0000
0001
0000
1000
0000
0001
0010
0100
0000
1000
0000
0010
0100
,
0001
1000
0010
0100
0001
0100
0010
1000
0100
0010
0100
1000
0001
1000
0010
1000
,
0100
0010
0001
0100
0001
1000
0010
0100
0001
0010
0100
1000
0001
0100
0001
1000
,
0010
0100
0001
0010
0100
1000
0010
1000
0001
0100
0010
1000
0100
0010
0001
1000
,
0001
0100
0010
1000
0100
0010
0001
1000
0001
0100
0010
1000
0001
0100
0001
0010
,
0100
1000
0001
0100
0010
1000
0100
0010
0001
1000
0010
0100
0001
0010
0100
1000
,
0001
1000
0100
0010
0001
1000
0010
0100
0001
0100
0010
1000
0100
0010
0001
1000
,
0001
0100
0010
1000
0100
0010
0001
1000
0001
0100
0010
1000
0100
0010
0001
1000
,
0010
1000
0100
0010
0001
1000
0001
0100
0010
1000
0100
0010
0001
1000
0001
0100
,
0010
1000
0100
1000
0001
0100
0010
1000
0100
0010
0001
1000
0001
0100
0010
1000
,
0100
0010
0001
1000
0001
0010
0100
0010
0001
1000
0100
0010
0001
1000
0010
0100
,
0001
0010
0100
1000
0001
1000
0010
0100
0001
0010
0100
0010
0001
1000
0100
1000
,
0001
0100
0010
1000
0001
1000
0100
0010
0001
1000
0001
0100
0010
1000
0100
0010
,
0001
1000
0001
0010
0100
1000
0001
0100
0001
0010
0100
1000
0010
0100
0001
1000
,
0100
1000
0001
0100
0010
1000
0001
1000
0100
0010
0001
1000
0010
0100
0001
0010
,
0100
0010
0001
1000
0010
0100
0001
1000
0100
0010
0001
1000
0010
1000
0001
0100
,
0010
1000
0100
0010
0001
1000
0001
0100
0010
1000
0001
1000
0100
0010
0100
1000
,
0002
1003
0020
0130
0002
0103
0002
0013
,
0200
1300
0200
0310
0002
1003
0002
0103
,
0002
0013
0200
1300
0002
1003
0020
1030
,
0002
1003
0020
1030
0002
1003
0200
0310
,
0002
1003
0020
1030
0002
1003
0200
0310
,
0002
0103
0002
1003
0002
0103
0002
0103
,
0020
1030
0020
1030
0200
1300
0200
0310
,
0002
0013
0002
1003
0002
1003
0020
1030
,
0002
1003
0002
0103
0002
1003
0020
0130
,
0002
0013
0200
1300
0200
0310
0002
1003
,
0002
0103
0002
1003
0020
1030
0002
0103
,
0020
1030
0200
0310
0002
0013
0002
1003
,
0020
1030
0002
0103
0002
1003
0002
1003
,
0200
0310
0002
1003
0020
1030
0020
0130
,
0002
0103
0002
1003
0200
0310
0002
1003
,
0020
0000
1030
0000
0002
0000
0103
0000
0002
0000
0013
0000
0100
1000
0010
0000
,
0100
0001
1000
0001
0010
0100
1000
0001
1000
0010
0100
0001
0010
0100
1000
0001
,
0100
0001
1000
0100
0010
0001
1000
0010
0100
0001
0100
0010
1000
0100
0010
0001
,
1000
0001
0100
0010
1000
0100
0010
0001
1000
0010
1000
0001
0100
0010
1000
0100
,
0010
0001
1000
0001
0010
0100
0010
0001
1000
0001
0100
0010
1000
0001
1000
0100
,
0020
0000
0000
0000
0000
0000
0000
0000
0000
0000
0000
0000
0031
1000
0010
0100
,
0002
0013
0002
0013
0200
1300
0002
1003
,
0002
0103
0020
1030
0200
0310
0002
0013
,
0002
1003
0020
1030
0002
0103
0002
0013
,
0100
1000
0001
0100
0010
1000
0001
1000
0010
0100
0001
0010
0100
1000
0001
0100
,
0001
1000
0010
0100
0001
1000
0100
1000
0001
0010
0100
1000
0001
0100
0010
1000
,
0001
0010
0100
1000
0001
0100
0010
1000
0100
0010
0001
1000
0001
0010
0100
1000
,
0001
0100
0010
1000
0100
1000
0001
0010
0100
1000
0001
0100
0001
1000
0100
0010
,
0001
1000
0010
1000
0001
0100
0010
1000
0001
0100
0001
1000
0100
0010
0001
1000
,
0010
1000
0001
0010
0100
1000
0001
0100
0010
1000
0001
0100
0001
1000
0100
1000
,
0001
0010
0100
1000
0100
0010
0001
1000
0010
1000
0001
0100
0010
1000
0001
0010
,
0001
1000
0100
0010
0001
1000
0010
0100
0001
1000
0010
0100
0001
0010
0100
1000
,
0001
1000
0100
0010
0001
1000
0010
0100
0010
1000
0100
0010
0001
1000
0001
0010
,
0100
1000
0001
0100
0001
1000
0010
0100
0001
1000
0100
0010
0001
0010
0100
1000
,
0002
0000
0000
0000
,
0200
0000
0000
0000
0000
0000
0000
0303
,
0001
1000
0010
1000
0010
0100
0001
0010
0100
1000
0100
0010
0001
1000
0010
1000
,
0001
1000
0010
0100
0001
0100
0001
1000
0001
1000
0100
1000
0100
0010
0001
1000
,
0010
1000
0010
0100
0001
0100
0001
0010
0100
1000
0001
0100
0001
1000
0001
1000
,
0010
1000
0001
1000
0100
0010
0001
0010
0001
1000
0001
0100
0001
0100
0010
1000
,
0100
0010
0001
1000
0010
1000
0001
0100
0001
1000
0001
1000
0010
0100
0001
0010
,
0001
0010
0100
1000
0100
1000
0001
0100
0001
1000
0010
1000
0001
1000
0001
1000
,
0100
0010
0001
0010
0001
1000
0010
1000
0010
0100
0001
0100
0001
0010
0100
1000
,
0001
0100
0001
1000
0001
1000
0010
1000
0010
0100
0001
0100
0001
1000
0010
1000
,
0002
1003
0100
0010
0100
1000
0010
0100
0001
0010
0001
1000
0100
0010
0001
1000
,
0010
0100
0001
1000
0100
1000
0010
0100
0001
0010
0100
1000
0001
0100
0010
1000
,
0100
1000
0010
0100
0001
0010
0100
1000
0001
0100
0001
1000
0100
0010
0001
1000
,
0010
0100
0001
1000
0100
1000
0001
0100
0001
0010
0001
1000
0001
0100
0010
1000
,
0100
0010
0001
1000
0010
1000
0001
1000
0100
1000
0010
0100
0001
0010
0100
1000
,
0001
0100
0001
0010
0100
1000
0001
0100
0010
1000
0100
0010
0001
1000
0010
0100
,
0001
1000
0100
1000
0010
0100
0001
0010
0100
1000
0001
0100
0001
1000
0100
0010
,
0001
1000
0010
1000
0001
0010
0100
1000
0001
0100
0001
1000
0100
0010
0001
1000
,
0010
1000
0001
0010
0100
1000
0001
0100
0001
1000
0100
0010
0001
1000
0010
0100
,
0001
0010
0001
1000
0100
0010
0001
1000
0010
1000
0001
0010
0100
1000
0001
0100
,
0001
1000
0100
0010
0001
1000
0010
1000
0001
0010
0100
1000
0001
0100
0010
1000
,
0100
0010
0100
1000
0010
0100
0001
0010
0100
0010
0001
1000
0100
1000
0010
0100
,
0001
0010
0100
1000
0001
0100
0001
1000
0100
0010
0001
1000
0010
1000
0001
0010
,
0100
1000
0001
0100
0001
1000
0100
0010
0001
1000
0010
0100
0010
1000
0100
0010
,
0001
1000
0001
0100
0001
0010
0100
1000
0010
0100
0001
1000
0100
1000
0010
1000
,
0001
1000
0100
0010
0001
1000
0010
0100
0001
0010
0001
1000
0100
0010
0001
1000
,
0020
0130
0002
1003
0020
1030
0002
0103
,
0002
1003
0200
0310
0002
0013
0002
1003
,
0020
1030
0002
0103
0002
1003
0020
0130
,
0002
0013
0002
0013
0200
1300
0002
0103
,
0002
1003
0002
1003
0020
0130
0002
0103
,
0002
0013
0200
1300
0002
1003
0020
1030
,
0002
0103
0002
0103
0020
1030
0200
0310
,
0002
0013
0002
1003
0020
1030
0002
0103
,
0002
1003
0002
1003
0200
0310
0002
0013
,
0002
1003
0020
1030
0002
0013
0002
0013
,
0200
1300
0002
0103
0002
1003
0020
1030
,
0002
1003
0002
1003
0200
0310
0002
1003
,
0020
1030
0020
0130
0002
0103
0002
0013
,
0200
1300
0200
0310
0002
1003
0020
1030
,
0002
0103
0002
1003
0002
1003
0200
0310
,
0002
0000
1003
0000
0020
0000
1030
0000
0002
0000
1003
0000
0001
1000
0001
0000
,
1000
0100
0010
0001
1000
0001
0100
0010
1000
0100
0010
0001
1000
0001
0010
0100
,
1000
0001
0100
0001
1000
0100
1000
0001
0010
0100
1000
0010
0100
0001
1000
0100
,
0010
0100
1000
0001
0100
0010
1000
0001
1000
0100
0010
0001
1000
0001
0010
0100
,
1000
0001
0100
0001
1000
0010
0100
0001
1000
0100
0010
0001
1000
0001
0010
0100
,
2000
0000
0000
0000
0000
0000
0000
0000
0000
0000
0000
0000
3001
0010
0100
1000
,
0002
1003
0002
0103
0002
1003
0002
1003
,
0200
1300
0200
0310
0002
1003
0020
1030
,
0002
0103
0002
1003
0002
1003
0020
0130
,
0001
0010
0100
1000
0001
1000
0100
0010
0001
1000
0010
0100
0001
1000
0100
1000
,
0001
0010
0100
1000
0001
0100
0010
1000
0001
0100
0001
1000
0100
0010
0001
1000
,
0010
1000
0001
1000
0100
0010
0001
1000
0001
0100
0010
1000
0001
0010
0100
1000
,
0001
1000
0001
0010
0100
1000
0001
0100
0001
1000
0010
0100
0001
1000
0100
0010
,
0001
1000
0001
0010
0100
1000
0001
0100
0001
1000
0010
0100
0001
0010
0001
1000
,
0100
0010
0001
1000
0010
1000
0001
0100
0001
1000
0100
0010
0001
1000
0010
1000
,
0001
0100
0010
1000
0100
0010
0001
1000
0001
0010
0100
1000
0001
0100
0001
1000
,
0010
0100
0001
0010
0001
1000
0100
0010
0001
1000
0010
1000
0001
0100
0001
0010
,
0100
1000
0001
1000
0100
0010
0001
1000
0010
1000
0001
0100
0010
1000
0100
0010
,
0001
1000
0010
0100
0001
0010
0001
1000
0100
0010
0001
1000
0010
1000
0001
0100
,
0002
0000
0000
0000
,
2000
0000
0000
0000
0000
0000
0000
3003
,
0020
0130
0001
0020
0130
1000
0001
1000
,
0010
1000
0100
0010
0001
1000
0002
0013
,
0100
1000
0100
0010
0001
1000
0010
1000
,
0001
0100
0020
1030
0100
0010
0001
0010
,
0200
1300
0001
2000
3010
0100
0001
0010
,
0001
1000
0100
0010
0001
1000
0002
0013
,
0100
1000
0001
0100
0001
1000
0010
0100
,
0001
0000
0010
0000
0200
0000
1300
0000
0001
0000
1000
0000
0010
0100
0001
0000
,
0020
0130
1000
0002
1003
0010
0100
0001
,
1000
0100
0010
0001
1000
0001
0020
0130
,
1000
0001
1000
0100
0010
0001
1000
0010
,
1000
0001
0200
0301
0010
0100
1000
0100
,
0010
0001
1000
0002
1003
0100
1000
0001
,
0010
0100
1000
0001
1000
0100
0020
0031
,
1000
0001
0010
0100
1000
0001
0100
0002
,
2003
3020
0230
0301
0010
0002
2003
3020
,
0230
0301
0010
0200
1300
0001
0100
0001
,
1000
0010
0100
0001
0010
0100
2000
3001
,
1000
0001
0100
0010
1000
0100
0010
0001
,
1000
0001
0020
0130
1000
0100
0010
0001
,
2000
3010
0100
0002
0013
0100
1000
0100
,
0010
0001
1000
0001
0100
0001
0020
0130
,
1000
0001
1000
0100
0010
0001
1000
0010
,
1000
0001
0200
0310
1000
0100
0010
0002
,
2003
3010
0100
0002
0013
0100
1000
0001
,
0100
0001
1000
0010
0100
0001
0020
0130
,
1000
0100
0010
0001
1000
0001
0100
0001
,
1000
0010
0200
0301
0010
0100
1000
0100
,
0020
0031
1000
0002
1003
0010
0100
0001
,
1000
0100
0010
0001
1000
0001
0020
0130
,
1000
0001
1000
0100
0010
0001
1000
0020
,
0130
0002
0023
0130
2000
3020
0230
0302
,
0023
0130
2000
3020
0130
0001
0010
0100
,
1000
0100
0010
0001
1000
0010
2000
3100
,
0010
0001
1000
0001
0100
0001
0010
0100
,
1000
0001
2000
3010
0100
0001
0010
0100
,
2000
3100
0010
0002
1003
0001
0100
0001
,
0010
0100
1000
0001
1000
0010
0200
0301
,
0010
0100
1000
0001
1000
0100
0010
0001
,
1000
0000
0001
0000
0200
0000
0310
0000
1000
0000
0100
0000
0010
0001
1000
0000
,
0020
0130
0001
0020
0130
1000
0001
0100
,
0001
1000
0010
0100
0001
0010
0200
1300
,
0001
1000
0100
0010
0001
1000
0010
1000
,
0001
0100
0002
0013
0100
1000
0100
0010
,
0002
1003
0010
2000
3100
0010
0001
1000
,
0001
0100
0001
0010
0100
1000
0002
1003
,
0010
0100
0001
0010
0100
1000
0001
1000
,
0010
0200
0302
0013
0100
1000
0002
2003
,
3020
0130
0002
0023
0130
2000
3020
0130
,
0001
0010
0200
2300
3010
0200
0302
1003
,
0010
0100
0001
0010
0100
1000
0002
0203
,
0320
2030
3200
0310
0002
2003
3020
0230
,
0302
0013
0200
2300
3010
0200
0302
0013
,
0100
1000
0002
2003
3010
0200
0302
0013
,
0100
1000
0001
1000
0010
0100
0002
0023
,
0230
2300
3002
1003
0020
0230
0302
0023
,
0230
1300
0002
2003
3010
0200
0302
0013
,
0100
0010
0002
2003
3010
0200
0302
1003
,
1000
0100
0010
0001
1000
0010
0200
0302
,
0023
0230
2300
3001
2000
3020
0230
0302
,
0023
0130
2000
3002
1003
0200
0320
0031
,
1000
0010
2000
3002
0103
0020
2030
3100
,
0010
0000
0001
0000
1000
0000
0001
0000
0100
0000
0010
0000
1000
0100
0010
0000
,
0002
2003
3020
0230
0302
0023
0230
2300
,
3001
2000
3010
0200
0301
0020
0230
1300
,
0001
1000
0020
0230
0301
0020
0230
0000
,
0000
0000
0000
0000
,
4300
0000
0000
0000
,
3010
0100
0001
1000
0001
1000
0100
0010
0001
1000
0010
1000
0100
0010
0001
1000
,
0001
0100
0001
1000
0001
1000
0100
0010
0001
1000
0010
1000
0001
0100
0001
0010
,
0100
1000
0001
1000
0001
0100
0010
1000
0001
0100
0001
1000
0100
0010
0001
1000
,
0010
1000
0001
0100
0001
0010
0100
1000
0100
1000
0001
0010
0100
1000
0001
0100
,
0001
1000
0010
1000
0001
0010
0001
1000
0100
1000
0100
0010
0001
1000
0001
1000
,
0010
0100
0001
0010
0100
1000
0001
1000
0100
0010
0001
1000
0010
1000
0010
0100
,
0001
0100
0001
1000
0100
0010
0001
1000
0010
1000
0001
0100
0001
0010
0100
1000
,
0001
1000
0001
1000
0100
0010
0001
1000
0010
1000
0001
0100
0001
0010
0100
1000
,
0001
1000
0100
0010
0001
1000
0010
1000
0001
0100
0001
0010
0100
1000
0001
1000
,
0001
1000
0100
0010
0001
1000
0010
1000
0100
0010
0001
1000
0001
0010
0100
1000
,
0001
0100
0001
1000
0010
1000
0100
0010
0001
1000
0001
0010
0100
1000
0001
0100
,
0001
1000
0001
1000
0001
0100
0001
1000
0010
0100
0001
0010
0001
1000
0100
0010
,
0001
1000
0001
1000
0001
0100
0001
1000
0010
0100
0001
0010
0001
0010
0100
1000
,
0010
1000
0010
0100
0001
0100
0001
1000
0100
1000
0100
0010
0001
0010
0001
1000
,
0001
0010
0100
1000
0001
1000
0100
0010
0001
1000
0010
1000
0010
0100
0001
1000
,
0001
1000
0010
0100
0001
0100
0001
0010
0100
1000
0001
1000
0010
1000
0001
0100
,
0020
0000
0000
0000
,
0000
0000
0000
0000
,
0230
0000
0000
0000
,
0000
0000
0000
0000
,
2300
0000
0000
0000
,
0000
0000
0000
0000
,
0000
0000
0000
0000
,
0000
0000
0000
0000
,
3002
0000
0000
0000
,
0000
0000
0000
0000
,
2003
0000
0000
0000
,
0000
0000
0000
0000
,
3020
0000
0000
0000
,
0000
0000
0000
0000
,
0000
0000
0000
0000
,
0000
0000
0000
0000
,
0230
0000
0000
0000
,
0000
0000
0000
0000
,
0302
0000
0000
0000
,
0000
0000
0000
0000
,
0023
0000
0000
0000
,
0000
0000
0000
0000
,
0000
0000
0000
0000
,
0000
0000
0000
0000
,
0230
0000
0000
0000
,
0000
0000
0000
0000
,
2300
0000
0000
0000
,
0000
0000
0000
0000
,
3020
0000
0000
0000
,
0000
0000
0000
0000
,
0000
0000
0000
0000
,
0000
0000
0000
0000
,
0230
0000
0301
0020
0000
0130
2000
0000
,
0000
0000
3002
0203
0300
0002
0203
0300
,
0000
0000
0000
0000
,
0000
0000
0000
0000
,
1000
0001
0100
0010
1000
0000
0100
0000
0010
0000
0001
0000
1000
0000
0001
0000
,
0100
0010
1000
0100
0010
0000
0001
0000
1000
0010
1000
0100
0010
0000
0001
0000
,
1000
0001
0100
0001
0010
0000
0100
0000
1000
0000
0001
0000
1000
0000
0010
0000
,
0100
0001
0010
0100
1000
0000
0001
0000
1000
0000
0010
0000
0100
0000
0001
0000
,
0010
0100
1000
0001
1000
0000
0100
0000
0010
0000
0001
0000
1000
0000
0001
0000
,
0100
0001
0010
0100
1000
0000
0001
0000
1000
0010
0100
0001
0100
0000
0010
0000
,
1000
0100
0010
0001
1000
0000
0001
0000
0010
0000
0100
0000
1000
0000
0001
0000
,
0100
0001
1000
0100
0010
0000
0001
0000
1000
0000
0001
0000
0010
0000
0100
0000
,
1000
0001
0100
0001
1000
0010
0100
0001
0010
0100
1000
0001
0100
0001
1000
0100
,
0010
0001
1000
0010
1000
0001
0010
0100
1000
0001
0100
0001
1000
0100
0010
0001
,
1000
0010
0100
0001
0010
0001
1000
0100
0010
0001
1000
0010
1000
0001
0010
0100
,
1000
0001
0100
0001
1000
0100
0010
0001
1000
0010
0100
0001
0010
0001
1000
0100
,
0010
0001
1000
0010
0100
0001
1000
0100
1000
0001
0100
0010
1000
0100
0010
0001
,
1000
0010
0100
0001
0010
0001
1000
0100
0010
0001
1000
0010
0100
0001
0010
0001
,
1000
0100
0010
0100
1000
0010
0100
0001
0010
0001
1000
0010
0100
0001
1000
0100
,
1000
0010
0100
0001
0010
0100
1000
0001
0100
0001
1000
0100
0010
0001
1000
0001
,
0020
0030
0020
0030
0200
0300
0200
0300
,
2000
3000
2000
3000
0020
0030
0020
0030
,
0200
0300
0200
0300
0002
0003
0002
0003
,
2000
3000
2000
3000
0002
0003
0002
0003
,
0020
0030
0020
0030
0200
0300
0200
0300
,
0020
0030
0020
0030
0002
0003
0002
0003
,
2000
3000
2000
3000
0020
0030
0020
0030
,
0200
0300
0200
0300
0002
0003
0002
0003
,
1000
0001
0100
0001
0010
0000
0100
0000
1000
0000
0001
0000
1000
0000
0100
0000
,
0010
0001
1000
0010
0100
0000
0001
0000
0010
0100
1000
0100
0010
0000
0001
0000
,
1000
0001
0100
0001
0010
0000
0100
0000
1000
0000
0001
0000
1000
0000
0100
0000
,
0010
0001
1000
0001
0100
0000
0010
0000
1000
0000
0100
0000
0010
0000
0001
0000
,
1000
0001
0100
0001
1000
0000
0100
0000
0010
0000
0001
0000
1000
0000
0001
0000
,
0100
0001
0100
0010
1000
0000
0100
0000
0010
0001
1000
0001
0010
0000
0100
0000
,
1000
0001
0100
0001
1000
0000
0100
0000
0010
0000
0001
0000
1000
0000
0001
0000
,
0100
0001
0010
0100
1000
0000
0001
0000
1000
0000
0010
0000
0100
0000
0001
0000
,
2202
0000
0000
0000
,
0000
0000
0000
0000
,
0000
0000
0000
0000
,
0000
0000
0000
0000
,
3303
0000
0000
0000
;

//---------------dance-single - ----------------
#NOTES:
     dance-single:
     :
     Medium:
     22:
     1.000,1.000,0.006,1.000,1.000,3475.000,2.000,335.000,0.000,1.000:

0000
0000
0000
0000
,
2000
3001
1000
0010
0100
0001
0010
0100
,
2000
3001
1000
0010
0200
0301
0010
0100
,
2000
3001
1000
0010
0100
0001
1000
0001
,
0020
0130
1000
0001
1000
0010
1000
0100
,
0020
0031
0100
0001
0010
0100
1000
0001
,
2000
3100
0010
0001
2000
3001
0100
0001
,
0020
0130
1000
0001
1000
0001
0100
0001
,
0200
0310
1000
0100
0010
0001
1000
0001
,
0010
0100
1000
0001
1000
0100
0010
0001
1000
0001
0100
0010
1000
0001
0100
0001
,
1000
0100
0010
0100
1000
0001
0010
0001
1000
0100
0010
0001
1000
0001
0010
0100
,
1000
0001
0100
0001
1000
0100
0010
0001
1000
0001
0010
0100
0010
0001
1000
0001
,
0100
0010
1000
0001
1000
0100
0010
0100
1000
0001
0100
0010
1000
0100
0010
0001
,
1000
0001
0010
0100
1000
0001
0100
0001
1000
0010
0100
0001
0010
0100
1000
0001
,
1000
0100
0010
0100
1000
0001
0100
0001
1000
0010
0100
0001
0010
0001
1000
0100
,
0010
0001
1000
0001
0010
0100
1000
0001
0100
0001
1000
0100
0010
0001
1000
0010
,
1000
0001
0100
0001
0010
0100
1000
0001
1000
0100
0010
0001
1000
0010
1000
0001
,
0100
0010
1000
0100
1000
0001
0010
0100
1000
0001
0010
0001
1000
0100
0010
0001
,
1000
0001
0100
0010
1000
0100
1000
0001
0010
0100
1000
0001
1000
0010
0100
0001
,
1000
0100
0010
0100
1000
0001
0100
0010
1000
0100
0010
0100
1000
0001
0010
0100
,
1000
0001
1000
0010
0100
0001
0010
0100
1000
0001
1000
0100
0010
0001
1000
0010
,
1000
0001
0100
0001
0010
0100
1000
0001
1000
0100
0010
0001
1000
0010
1000
0100
,
0010
0001
1000
0001
0100
0001
0010
0100
0010
0001
1000
0001
0100
0010
1000
0001
,
0010
0100
1000
0001
1000
0100
0010
0001
1000
0010
0100
0001
1000
0100
0010
0100
,
1000
0001
0100
0001
1000
0010
0100
0001
0010
0100
1000
0100
0010
0001
1000
0001
,
0010
0100
1000
0001
0100
0001
1000
0010
0100
0001
0010
0100
1000
0001
1000
0100
,
0010
0100
1000
0001
0100
0001
1000
0010
0100
0001
0010
0100
1000
0100
0010
0001
,
1000
0001
0100
0001
1000
0100
0010
0001
1000
0010
0100
0001
0010
0100
1000
0001
,
1000
0010
0100
0001
1000
0100
1000
0001
0010
0100
1000
0001
1000
0010
0100
0001
,
1000
0100
0010
0001
1000
0001
0010
0100
1000
0001
0100
0001
1000
0010
0100
0001
,
0010
0100
1000
0100
0010
0001
1000
0001
0010
0100
1000
0001
0100
0001
1000
0010
,
0100
0001
1000
0100
1000
0001
0010
0100
1000
0001
1000
0100
0010
0001
1000
0001
,
0010
0100
1000
0001
0100
0001
1000
0010
0100
0001
0010
0001
1000
0100
0010
0001
,
2000
0000
3001
2000
0000
3200
0000
0320
,
0000
0000
0000
0000
0000
0000
0000
0000
0000
0000
0000
0000
0031
1000
0100
1000
,
0002
1003
0020
0230
0301
0020
0130
2000
,
3001
0100
0001
0010
0100
1000
0001
1000
,
0020
0230
0302
0013
0100
1000
0002
0023
,
0230
1300
0001
1000
0010
0100
0002
0023
,
0230
1300
0002
0203
0310
2000
3200
0320
,
0032
1003
0001
0100
0001
0010
0100
1000
,
0002
0203
0320
2030
3200
0320
0031
2000
,
3001
0100
0010
1000
0100
0010
0002
2003
,
3002
0103
0020
2030
3100
0020
0031
0200
,
0310
1000
0100
0010
0001
1000
0001
0010
,
0200
2300
3002
1003
0010
0100
0002
0023
,
0230
1300
0001
1000
0100
0010
0002
0203
,
0320
1030
0200
0320
0031
2000
3001
0200
,
0320
0000
1030
0000
0001
0000
1000
0000
0001
0010
0100
0000
1000
0000
0010
0100
,
0001
1000
0010
0100
0001
0100
0010
1000
0100
0010
0100
1000
0001
1000
0010
1000
,
0100
0010
0001
0100
0001
1000
0010
0100
0001
0010
0100
1000
0001
0100
0001
1000
,
0010
0100
0001
0010
0100
1000
0010
1000
0001
0100
0010
1000
0100
0010
0001
1000
,
0001
0100
0010
1000
0100
0010
0001
1000
0001
0100
0010
1000
0001
0100
0001
0010
,
0100
1000
0001
0100
0010
1000
0100
0010
0001
1000
0010
0100
0001
0010
0100
1000
,
0001
1000
0100
0010
0001
1000
0010
0100
0001
0100
0010
1000
0100
0010
0001
1000
,
0001
0100
0010
1000
0100
0010
0001
1000
0001
0100
0010
1000
0100
0010
0001
1000
,
0010
1000
0100
0010
0001
1000
0001
0100
0010
1000
0100
0010
0001
1000
0001
0100
,
0010
1000
0100
1000
0001
0100
0010
1000
0100
0010
0001
1000
0001
0100
0010
1000
,
0100
0010
0001
1000
0001
0010
0100
0010
0001
1000
0100
0010
0001
1000
0010
0100
,
0001
0010
0100
1000
0001
1000
0010
0100
0001
0010
0100
0010
0001
1000
0100
1000
,
0001
0100
0010
1000
0001
1000
0100
0010
0001
1000
0001
0100
0010
1000
0100
0010
,
0001
1000
0001
0010
0100
1000
0001
0100
0001
0010
0100
1000
0010
0100
0001
1000
,
0100
1000
0001
0100
0010
1000
0001
1000
0100
0010
0001
1000
0010
0100
0001
0010
,
0100
0010
0001
1000
0010
0100
0001
1000
0100
0010
0001
1000
0010
1000
0001
0100
,
0010
1000
0100
0010
0001
1000
0001
0100
0010
1000
0001
1000
0100
0010
0100
1000
,
0001
1000
0100
0010
0001
1000
0010
1000
0100
0010
0001
1000
0001
0100
0010
1000
,
0100
0010
0001
1000
0001
0010
0100
0010
0001
1000
0001
0100
0010
1000
0100
0010
,
0001
1000
0100
0010
0100
1000
0001
0100
0001
1000
0100
0010
0001
1000
0010
1000
,
0100
0010
0001
1000
0001
0100
0010
1000
0100
0010
0001
1000
0001
0010
0100
1000
,
0001
0100
0001
1000
0010
0100
0001
0010
0001
1000
0100
0010
0001
1000
0001
0010
,
0100
1000
0001
0100
0001
1000
0100
0010
0001
1000
0010
1000
0001
0100
0001
0010
,
0100
1000
0001
1000
0100
0010
0001
1000
0001
0100
0010
1000
0100
0010
0001
1000
,
0001
0100
0010
1000
0100
0010
0001
1000
0001
0010
0100
1000
0001
0100
0001
1000
,
0100
0010
0001
1000
0010
1000
0100
0010
0100
1000
0001
0100
0001
0010
0001
1000
,
0100
0010
0001
1000
0001
1000
0100
0010
0001
1000
0010
0100
0001
0010
0100
1000
,
0001
0100
0001
1000
0001
0010
0100
1000
0001
1000
0010
0100
0001
1000
0100
0010
,
0001
1000
0010
0100
0001
0100
0010
1000
0100
0010
0001
1000
0001
0010
0100
1000
,
0001
0100
0001
1000
0010
0100
0001
0010
0001
1000
0100
0010
0001
1000
0001
0010
,
0100
1000
0001
0100
0001
1000
0010
0100
0001
1000
0100
0010
0001
1000
0001
0100
,
0010
1000
0100
0010
0001
1000
0001
0010
0100
0010
0001
1000
0100
0010
0001
1000
,
0001
0010
0100
1000
0001
0100
0001
0010
0100
1000
0100
0010
0001
0100
0010
1000
,
0100
1000
0001
0100
0001
0010
0100
1000
0001
1000
0010
0100
0001
1000
0100
0010
,
0001
1000
0001
0100
0001
0010
0100
1000
0001
1000
0010
0100
0001
1000
0100
0010
,
0001
1000
0010
1000
0001
0010
0100
1000
0001
0100
0001
1000
0100
0010
0001
1000
,
0001
0010
0100
1000
0001
0100
0001
1000
0010
0100
0001
1000
0100
0010
0001
1000
,
0001
0010
0100
1000
0001
0100
0001
1000
0010
0100
0001
0010
0100
1000
0001
1000
,
0020
0130
0002
0013
0200
1300
0002
1003
,
0020
0130
0002
1003
0200
0310
0002
1003
,
0020
0130
0002
1003
0200
0310
0002
1003
,
0001
1000
0001
0010
0100
1000
0001
1000
0010
0100
0001
0010
0100
1000
0001
0100
,
0001
1000
0010
0100
0001
1000
0100
1000
0001
0010
0100
1000
0001
0100
0010
1000
,
0001
0010
0100
1000
0001
0100
0010
1000
0100
0010
0001
1000
0001
0010
0100
1000
,
0001
0100
0010
1000
0100
1000
0001
0010
0100
1000
0001
0100
0001
1000
0100
0010
,
0001
1000
0010
1000
0001
0100
0010
1000
0001
0100
0001
1000
0100
0010
0001
1000
,
0010
1000
0001
0010
0100
1000
0001
0100
0010
1000
0001
0100
0001
1000
0100
1000
,
0001
0010
0100
1000
0100
0010
0001
1000
0010
1000
0001
0100
0010
1000
0001
0010
,
0001
1000
0100
0010
0001
1000
0010
0100
0001
1000
0010
0100
0001
0010
0100
1000
,
0001
1000
0100
0010
0001
1000
0010
0100
0010
1000
0100
0010
0001
1000
0001
0010
,
0100
1000
0001
0100
0001
1000
0010
0100
0001
1000
0100
0010
0001
0010
0100
1000
,
0002
0000
0000
0000
,
0200
0000
0000
0000
0000
0000
0000
0303
,
0010
1000
0100
0010
0001
1000
0001
0010
0100
1000
0001
0100
0001
1000
0100
0010
,
0001
1000
0010
1000
0100
0010
0001
1000
0001
0100
0010
1000
0100
1000
0001
0010
,
0100
1000
0001
0100
0010
1000
0001
1000
0100
0010
0001
0100
0010
1000
0100
0010
,
0100
1000
0001
1000
0100
0010
0001
1000
0001
0100
0001
0010
0100
1000
0001
0100
,
0010
1000
0100
0010
0001
1000
0001
0100
0010
1000
0100
1000
0010
0100
0001
0010
,
0001
1000
0100
0010
0001
1000
0001
0010
0100
1000
0001
0100
0001
1000
0010
0100
,
0001
0010
0001
1000
0100
0010
0001
1000
0001
0010
0100
1000
0001
0100
0001
1000
,
0100
0010
0001
1000
0001
1000
0010
0100
0001
0010
0100
1000
0001
1000
0100
0010
,
0002
1003
0001
0010
0100
1000
0001
0100
0001
1000
0100
0010
0001
1000
0010
1000
,
0100
0010
0001
1000
0001
0010
0100
1000
0001
0100
0001
1000
0010
0100
0001
0010
,
0100
1000
0001
1000
0100
0010
0100
1000
0001
1000
0100
0010
0001
1000
0001
0010
,
0100
1000
0001
0100
0001
1000
0010
0100
0001
0010
0001
1000
0100
0010
0001
1000
,
0001
0010
0100
1000
0001
0100
0001
1000
0010
0100
0001
0010
0001
1000
0100
0010
,
0001
1000
0001
0010
0100
1000
0001
0100
0001
1000
0010
0100
0001
0010
0100
1000
,
0001
1000
0100
1000
0001
0010
0100
1000
0001
0100
0001
1000
0010
0100
0001
0010
,
0001
1000
0100
0010
0001
1000
0001
0010
0100
1000
0001
0100
0001
1000
0100
0010
,
0001
1000
0010
1000
0100
0010
0001
1000
0001
0100
0001
1000
0010
0100
0001
1000
,
0010
1000
0100
0010
0001
1000
0001
0100
0010
1000
0100
0010
0001
1000
0001
0010
,
0100
1000
0001
0100
0001
1000
0010
0100
0001
0010
0001
1000
0100
0010
0001
1000
,
0001
0010
0100
1000
0001
1000
0100
0010
0100
1000
0001
0100
0010
1000
0100
0010
,
0001
1000
0001
0010
0100
1000
0001
0100
0001
1000
0010
0100
0001
1000
0001
0100
,
0010
1000
0100
0010
0001
1000
0001
0010
0100
1000
0001
0100
0001
1000
0010
0100
,
0010
1000
0100
0010
0001
1000
0001
0010
0100
1000
0001
0100
0001
1000
0010
0100
,
0001
0010
0001
1000
0100
0010
0001
1000
0001
0010
0100
0010
0001
1000
0010
0100
,
0020
0130
0002
1003
0020
1030
0002
0103
,
0002
1003
0200
0310
0002
0013
0002
1003
,
0020
1030
0002
0103
0002
1003
0020
0130
,
0002
0013
0002
0013
0200
1300
0002
0103
,
0002
1003
0002
1003
0020
0130
0002
0103
,
0002
0013
0200
1300
0002
1003
0020
1030
,
0002
0103
0002
0103
0020
1030
0200
0310
,
0002
0013
0002
1003
0020
1030
0002
0103
,
0002
1003
0002
1003
0200
0310
0002
0013
,
0002
1003
0020
1030
0002
0013
0002
0013
,
0200
1300
0002
0103
0002
1003
0020
1030
,
0002
1003
0002
1003
0200
0310
0002
1003
,
0020
1030
0020
0130
0002
0103
0002
0013
,
0200
1300
0200
0310
0002
1003
0020
1030
,
0002
0103
0002
1003
0002
1003
0200
0310
,
0002
0000
1003
0000
0020
0000
1030
0000
0002
0000
1003
0000
0001
1000
0001
0000
,
1000
0100
0010
0001
1000
0001
0100
0010
1000
0100
0010
0001
1000
0001
0010
0100
,
1000
0001
0100
0001
1000
0100
1000
0001
0010
0100
1000
0010
0100
0001
1000
0100
,
0010
0100
1000
0001
0100
0010
1000
0001
1000
0100
0010
0001
1000
0001
0010
0100
,
1000
0001
0100
0001
1000
0010
0100
0001
1000
0100
0010
0001
1000
0001
0010
0100
,
2000
0000
0000
0000
0000
0000
0000
0000
0000
0000
0000
0000
3001
0010
0100
1000
,
0001
1000
0100
0010
0001
1000
0001
0010
0100
1000
0001
0100
0001
1000
0100
0010
,
0001
1000
0010
1000
0001
0100
0010
1000
0100
0010
0001
1000
0001
0010
0100
1000
,
0001
0100
0001
1000
0010
0100
0001
0010
0001
1000
0100
0010
0001
1000
0001
0100
,
0001
0010
0100
1000
0001
1000
0100
0010
0001
1000
0010
0100
0001
1000
0100
1000
,
0001
0010
0100
1000
0001
0100
0010
1000
0001
0100
0001
1000
0100
0010
0001
1000
,
0010
1000
0001
1000
0100
0010
0001
1000
0001
0100
0010
1000
0001
0010
0100
1000
,
0001
1000
0001
0010
0100
1000
0001
0100
0001
1000
0010
0100
0001
1000
0100
0010
,
0001
1000
0001
0010
0100
1000
0001
0100
0001
1000
0010
0100
0001
0010
0001
1000
,
0100
0010
0001
1000
0010
1000
0001
0100
0001
1000
0100
0010
0001
1000
0010
1000
,
0001
0100
0010
1000
0100
0010
0001
1000
0001
0010
0100
1000
0001
0100
0001
1000
,
0010
0100
0001
0010
0001
1000
0100
0010
0001
1000
0010
1000
0001
0100
0001
0010
,
0100
1000
0001
1000
0100
0010
0001
1000
0010
1000
0001
0100
0010
1000
0100
0010
,
0001
1000
0010
0100
0001
0010
0001
1000
0100
0010
0001
1000
0010
1000
0001
0100
,
0002
0000
0000
0000
,
2000
0000
0000
0000
0000
0000
0000
3003
,
0020
0130
0001
0020
0130
1000
0001
1000
,
0010
1000
0100
0010
0001
1000
0002
0013
,
0100
1000
0100
0010
0001
1000
0010
1000
,
0001
0100
0020
1030
0100
0010
0001
0010
,
0200
1300
0001
2000
3010
0100
0001
0010
,
0001
1000
0100
0010
0001
1000
0002
0013
,
0100
1000
0001
0100
0001
1000
0010
0100
,
0001
0000
0010
0000
0200
0000
1300
0000
0001
0000
1000
0000
0010
0100
0001
0000
,
0020
0130
1000
0002
1003
0010
0100
0001
,
1000
0100
0010
0001
1000
0001
0020
0130
,
1000
0001
1000
0100
0010
0001
1000
0010
,
1000
0001
0200
0301
0010
0100
1000
0100
,
0010
0001
1000
0002
1003
0100
1000
0001
,
0010
0100
1000
0001
1000
0100
0020
0031
,
1000
0001
0010
0100
1000
0001
0100
0002
,
2003
3020
0230
0301
0010
0002
2003
3020
,
0230
0301
0010
0200
1300
0001
0100
0001
,
1000
0010
0100
0001
0010
0100
2000
3001
,
1000
0001
0100
0010
1000
0100
0010
0001
,
1000
0001
0020
0130
1000
0100
0010
0001
,
2000
3010
0100
0002
0013
0100
1000
0100
,
0010
0001
1000
0001
0100
0001
0020
0130
,
1000
0001
1000
0100
0010
0001
1000
0010
,
1000
0001
0200
0310
1000
0100
0010
0002
,
2003
3010
0100
0002
0013
0100
1000
0001
,
0100
0001
1000
0010
0100
0001
0020
0130
,
1000
0100
0010
0001
1000
0001
0100
0001
,
1000
0010
0200
0301
0010
0100
1000
0100
,
0020
0031
1000
0002
1003
0010
0100
0001
,
1000
0100
0010
0001
1000
0001
0020
0130
,
1000
0001
1000
0100
0010
0001
1000
0020
,
0130
0002
0023
0130
2000
3020
0230
0302
,
0023
0130
2000
3020
0130
0001
0010
0100
,
1000
0100
0010
0001
1000
0010
2000
3100
,
0010
0001
1000
0001
0100
0001
0010
0100
,
1000
0001
2000
3010
0100
0001
0010
0100
,
2000
3100
0010
0002
1003
0001
0100
0001
,
0010
0100
1000
0001
1000
0010
0200
0301
,
0010
0100
1000
0001
1000
0100
0010
0001
,
1000
0000
0001
0000
0200
0000
0310
0000
1000
0000
0100
0000
0010
0001
1000
0000
,
0020
0130
0001
0020
0130
1000
0001
0100
,
0001
1000
0010
0100
0001
0010
0200
1300
,
0001
1000
0100
0010
0001
1000
0010
1000
,
0001
0100
0002
0013
0100
1000
0100
0010
,
0002
1003
0010
2000
3100
0010
0001
1000
,
0001
0100
0001
0010
0100
1000
0002
1003
,
0010
0100
0001
0010
0100
1000
0001
1000
,
0010
0200
0302
0013
0100
1000
0002
2003
,
3020
0130
0002
0023
0130
2000
3020
0130
,
0001
0010
0200
2300
3010
0200
0302
1003
,
0010
0100
0001
0010
0100
1000
0002
0203
,
0320
2030
3200
0310
0002
2003
3020
0230
,
0302
0013
0200
2300
3010
0200
0302
0013
,
0100
1000
0002
2003
3010
0200
0302
0013
,
0100
1000
0001
1000
0010
0100
0002
0023
,
0230
2300
3002
1003
0020
0230
0302
0023
,
0230
1300
0002
2003
3010
0200
0302
0013
,
0100
0010
0002
2003
3010
0200
0302
1003
,
1000
0100
0010
0001
1000
0010
0200
0302
,
0023
0230
2300
3001
2000
3020
0230
0302
,
0023
0130
2000
3002
1003
0200
0320
0031
,
1000
0010
2000
3002
0103
0020
2030
3100
,
0010
0000
0001
0000
1000
0000
0001
0000
0100
0000
0010
0000
1000
0100
0010
0000
,
0002
2003
3020
0230
0302
0023
0230
2300
,
3001
2000
3010
0200
0301
0020
0230
1300
,
0001
1000
0020
0230
0301
0020
0230
0000
,
0000
0000
0000
0000
,
4300
0000
0000
0000
,
3001
0010
0100
1000
0001
1000
0100
0010
0001
1000
0010
0100
0001
1000
0100
0010
,
0001
1000
0001
0010
0100
1000
0001
0100
0001
1000
0100
0010
0100
1000
0001
0010
,
0100
1000
0001
1000
0100
0010
0001
1000
0001
0100
0010
1000
0010
0100
0001
0010
,
0100
1000
0001
1000
0100
0010
0001
1000
0001
0100
0001
1000
0010
1000
0100
0010
,
0001
1000
0001
0010
0100
1000
0001
0100
0001
1000
0010
0100
0001
0010
0001
1000
,
0100
0010
0001
1000
0001
0100
0010
1000
0100
1000
0001
0010
0100
1000
0001
1000
,
0010
0100
0001
1000
0100
0010
0001
1000
0001
0010
0100
1000
0001
0100
0001
1000
,
0010
0100
0001
0010
0001
1000
0100
0010
0001
1000
0001
0010
0100
1000
0001
0100
,
0001
1000
0100
1000
0001
0010
0001
1000
0100
0010
0001
1000
0001
0100
0001
0010
,
0100
1000
0001
0100
0001
1000
0100
0010
0001
1000
0001
0010
0001
1000
0100
0010
,
0001
1000
0010
1000
0100
0010
0001
1000
0001
0100
0001
1000
0100
0010
0001
1000
,
0001
0010
0100
1000
0010
0100
0001
1000
0100
0010
0001
1000
0001
0010
0100
1000
,
0001
0100
0001
1000
0100
0010
0001
1000
0010
1000
0100
0010
0001
1000
0001
0100
,
0010
1000
0100
0010
0001
1000
0001
0010
0100
1000
0001
0100
0001
1000
0100
0010
,
0001
1000
0010
0100
0001
0010
0001
1000
0100
0010
0001
1000
0001
0010
0100
1000
,
0001
0100
0001
1000
0010
0100
0001
0010
0001
1000
0100
0010
0001
1000
0001
0100
,
0010
1000
0100
0010
0001
1000
0001
0010
0100
1000
0001
0100
0001
1000
0100
0010
,
0001
1000
0001
0010
0001
1000
0100
0010
0001
1000
0010
1000
0100
0010
0001
1000
,
0001
0100
0010
1000
0100
1000
0001
0010
0100
1000
0001
1000
0010
0100
0001
0100
,
0010
1000
0100
0010
0001
1000
0001
0010
0100
1000
0001
0100
0001
1000
0100
0010
,
0001
1000
0010
1000
0001
0100
0001
0010
0100
1000
0001
1000
0100
0010
0001
1000
,
0010
1000
0100
0010
0001
0100
0001
0010
0100
1000
0001
0100
0001
1000
0100
0010
,
0001
1000
0010
1000
0001
0100
0010
1000
0100
1000
0001
0010
0100
1000
0001
0100
,
0010
1000
0100
0010
0001
1000
0001
0010
0100
1000
0100
0010
0001
1000
0001
0100
,
0001
1000
0010
0100
0001
0010
0001
1000
0100
0010
0001
1000
0001
0010
0001
1000
,
0100
1000
0010
0100
0001
0010
0001
1000
0100
0010
0001
1000
0001
0010
0100
1000
,
0001
0100
0001
1000
0010
0100
0001
0010
0001
1000
0100
0010
0001
1000
0001
0010
,
0100
1000
0001
0100
0001
1000
0010
0100
0001
0010
0001
1000
0100
0010
0001
1000
,
0020
0000
0000
0000
,
0000
0000
0000
0000
,
0000
0000
0000
0000
,
0000
0000
0000
0000
,
0230
0000
0000
0000
,
0000
0000
0000
0000
,
0302
0000
0000
0000
,
0000
0000
0000
0000
,
0023
0000
0000
0000
,
0000
0000
0000
0000
,
0000
0000
0000
0000
,
0000
0000
0000
0000
,
0230
0000
0000
0000
,
0000
0000
0000
0000
,
2300
0000
0000
0000
,
0000
0000
0000
0000
,
3020
0000
0000
0000
,
0000
0000
0000
0000
,
0000
0000
0000
0000
,
0000
0000
0000
0000
,
0230
0000
0301
0020
0000
0130
2000
0000
,
0000
0000
3002
0203
0300
0002
0203
0300
,
0000
0000
0000
0000
,
0000
0000
0000
0000
,
1000
0001
0100
0010
1000
0000
0100
0000
0010
0000
0001
0000
1000
0000
0001
0000
,
0100
0010
1000
0100
0010
0000
0001
0000
1000
0010
1000
0100
0010
0000
0001
0000
,
1000
0001
0100
0001
0010
0000
0100
0000
1000
0000
0001
0000
1000
0000
0010
0000
,
0100
0001
0010
0100
1000
0000
0001
0000
1000
0000
0010
0000
0100
0000
0001
0000
,
0010
0100
1000
0001
1000
0000
0100
0000
0010
0000
0001
0000
1000
0000
0001
0000
,
0100
0001
0010
0100
1000
0000
0001
0000
1000
0010
0100
0001
0100
0000
0010
0000
,
1000
0100
0010
0001
1000
0000
0001
0000
0010
0000
0100
0000
1000
0000
0001
0000
,
0100
0001
1000
0100
0010
0000
0001
0000
1000
0000
0001
0000
0010
0000
0100
0000
,
1000
0001
1000
0010
1000
0010
0100
0001
0100
0001
0010
0001
0010
0100
1000
0001
,
1000
0010
1000
0001
1000
0001
0100
0001
0100
0010
0100
0010
1000
0100
0010
0001
,
1000
0001
1000
0001
0100
0001
0100
0010
1000
0100
0010
0001
1000
0010
1000
0001
,
1000
0001
0100
0001
0100
0010
0100
0010
1000
0100
0010
0001
0010
0001
1000
0010
,
1000
0001
0100
0001
0100
0010
1000
0100
1000
0100
0010
0001
0010
0001
1000
0010
,
1000
0001
0100
0001
1000
0001
1000
0010
0100
0001
0010
0001
0010
0100
1000
0001
,
1000
0010
1000
0001
1000
0001
0100
0001
0100
0010
0100
0010
1000
0100
1000
0100
,
0010
0001
1000
0010
1000
0001
0100
0001
1000
0001
1000
0100
1000
0100
0010
0001
,
0020
0030
0020
0030
0200
0300
0200
0300
,
2000
3000
2000
3000
0020
0030
0020
0030
,
0200
0300
0200
0300
0002
0003
0002
0003
,
2000
3000
2000
3000
0002
0003
0002
0003
,
0020
0030
0020
0030
0200
0300
0200
0300
,
0020
0030
0020
0030
0002
0003
0002
0003
,
2000
3000
2000
3000
0020
0030
0020
0030
,
0200
0300
0200
0300
0002
0003
0002
0003
,
1000
0001
0100
0001
0010
0000
0100
0000
1000
0000
0001
0000
1000
0000
0100
0000
,
0010
0001
1000
0010
0100
0000
0001
0000
0010
0100
1000
0100
0010
0000
0001
0000
,
1000
0001
0100
0001
0010
0000
0100
0000
1000
0000
0001
0000
1000
0000
0100
0000
,
0010
0001
1000
0001
0100
0000
0010
0000
1000
0000
0100
0000
0010
0000
0001
0000
,
1000
0001
0100
0001
1000
0000
0100
0000
0010
0000
0001
0000
1000
0000
0001
0000
,
0100
0001
0100
0010
1000
0000
0100
0000
0010
0001
1000
0001
0010
0000
0100
0000
,
1000
0001
0100
0001
0010
0100
1000
0010
0100
0001
0010
0100
1000
0001
0100
0010
,
1000
0100
0010
0001
1000
0010
0100
0001
0010
0100
1000
0010
0100
0001
0010
0000
,
2202
0000
0000
0000
,
0000
0000
0000
0000
,
0000
0000
0000
0000
,
0000
0000
0000
0000
,
3303
0000
0000
0000
;

//---------------dance-single - ----------------
#NOTES:
     dance-single:
     :
     Hard:
     24:
     1.000,1.000,0.006,0.703,1.000,3873.000,2.000,217.000,0.000,1.000:

0000
0000
0000
0000
,
1000
0001
1000
0100
0010
0001
1000
0010
0100
0001
0010
0100
1000
0001
1000
0100
,
0010
0001
1000
0010
1000
0100
0010
0001
1000
0001
0100
0010
1000
0100
0010
0001
,
1000
0001
0010
0100
1000
0001
0100
0001
1000
0100
0010
0001
1000
0010
1000
0100
,
0010
0001
1000
0001
0100
0001
0010
0100
1000
0001
1000
0010
0100
0001
1000
0100
,
0010
0001
1000
0010
1000
0001
1000
0100
0010
0001
1000
0001
0010
0100
1000
0001
,
0100
0001
1000
0100
0010
0001
1000
0001
0010
0100
1000
0001
1000
0010
0100
0001
,
1000
0001
0010
0100
1000
0001
1000
0100
0010
0001
1000
0010
1000
0100
0010
0001
,
1000
0001
0010
0100
1000
0001
0100
0001
1000
0010
1000
0100
0010
0001
1000
0001
,
0010
0100
1000
0001
1000
0100
0010
0001
1000
0001
0100
0010
1000
0001
0100
0001
,
1000
0100
0010
0100
1000
0001
0010
0001
1000
0100
0010
0001
1000
0001
0010
0100
,
1000
0001
0100
0001
1000
0100
0010
0001
1000
0001
0010
0100
0010
0001
1000
0001
,
0100
0010
1000
0001
1000
0100
0010
0100
1000
0001
0100
0010
1000
0100
0010
0001
,
1000
0001
0010
0100
1000
0001
0100
0001
1000
0010
0100
0001
0010
0100
1000
0001
,
1000
0100
0010
0100
1000
0001
0100
0001
1000
0010
0100
0001
0010
0001
1000
0100
,
0010
0001
1000
0001
0010
0100
1000
0001
0100
0001
1000
0100
0010
0001
1000
0010
,
1000
0001
0100
0001
0010
0100
1000
0001
1000
0100
0010
0001
1000
0010
1000
0001
,
0100
0010
1000
0100
1000
0001
0010
0100
1000
0001
0010
0001
1000
0100
0010
0001
,
1000
0001
0100
0010
1000
0100
1000
0001
0010
0100
1000
0001
1000
0010
0100
0001
,
1000
0100
0010
0100
1000
0001
0100
0010
1000
0100
0010
0100
1000
0001
0010
0100
,
1000
0001
1000
0010
0100
0001
0010
0100
1000
0001
1000
0100
0010
0001
1000
0010
,
1000
0001
0100
0001
0010
0100
1000
0001
1000
0100
0010
0001
1000
0010
1000
0100
,
0010
0001
1000
0001
0100
0001
0010
0100
0010
0001
1000
0001
0100
0010
1000
0001
,
0010
0100
1000
0001
1000
0100
0010
0001
1000
0010
0100
0001
1000
0100
0010
0100
,
1000
0001
0100
0001
1000
0010
0100
0001
0010
0100
1000
0100
0010
0001
1000
0001
,
0010
0100
1000
0001
0100
0001
1000
0010
0100
0001
0010
0100
1000
0001
1000
0100
,
0010
0100
1000
0001
0100
0001
1000
0010
0100
0001
0010
0100
1000
0100
0010
0001
,
1000
0001
0100
0001
1000
0100
0010
0001
1000
0010
0100
0001
0010
0100
1000
0001
,
1000
0010
0100
0001
1000
0100
1000
0001
0010
0100
1000
0001
1000
0010
0100
0001
,
1000
0100
0010
0001
1000
0001
0010
0100
1000
0001
0100
0001
1000
0010
0100
0001
,
0010
0100
1000
0100
0010
0001
1000
0001
0010
0100
1000
0001
0100
0001
1000
0010
,
0100
0001
1000
0100
1000
0001
0010
0100
1000
0001
1000
0100
0010
0001
1000
0001
,
0010
0100
1000
0001
0100
0001
1000
0010
0100
0001
0010
0001
1000
0100
0010
0001
,
2000
0000
3001
2000
0000
3200
0000
0320
,
0000
0000
0000
0000
0000
0000
0000
0000
0000
0000
0000
0000
0031
1000
0010
0100
,
0002
1003
0020
0230
0301
0020
0130
2000
,
3001
0100
0001
0010
0100
1000
0001
1000
,
0020
0230
0302
0013
0100
1000
0002
0023
,
0230
1300
0001
1000
0010
0100
0002
0023
,
0230
1300
0002
0203
0310
2000
3200
0320
,
0032
1003
0001
0100
0001
0010
0100
1000
,
0002
0203
0320
2030
3200
0320
0031
2000
,
3001
0100
0010
1000
0100
0010
0002
2003
,
3002
0103
0020
2030
3100
0020
0031
0200
,
0310
1000
0100
0010
0001
1000
0001
0010
,
0200
2300
3002
1003
0010
0100
0002
0023
,
0230
1300
0001
1000
0100
0010
0002
0203
,
0320
1030
0200
0320
0031
2000
3001
0200
,
0320
0000
1030
0000
0001
0000
1000
0000
0001
0010
0100
0000
1000
0000
0010
0100
,
0001
1000
0010
0100
0001
0100
0010
1000
0100
0010
0100
1000
0001
1000
0010
1000
,
0100
0010
0001
0100
0001
1000
0010
0100
0001
0010
0100
1000
0001
0100
0001
1000
,
0010
0100
0001
0010
0100
1000
0010
1000
0001
0100
0010
1000
0100
0010
0001
1000
,
0001
0100
0010
1000
0100
0010
0001
1000
0001
0100
0010
1000
0001
0100
0001
0010
,
0100
1000
0001
0100
0010
1000
0100
0010
0001
1000
0010
0100
0001
0010
0100
1000
,
0001
1000
0100
0010
0001
1000
0010
0100
0001
0100
0010
1000
0100
0010
0001
1000
,
0001
0100
0010
1000
0100
0010
0001
1000
0001
0100
0010
1000
0100
0010
0001
1000
,
0010
1000
0100
0010
0001
1000
0001
0100
0010
1000
0100
0010
0001
1000
0001
0100
,
0010
1000
0100
1000
0001
0100
0010
1000
0100
0010
0001
1000
0001
0100
0010
1000
,
0100
0010
0001
1000
0001
0010
0100
0010
0001
1000
0100
0010
0001
1000
0010
0100
,
0001
0010
0100
1000
0001
1000
0010
0100
0001
0010
0100
0010
0001
1000
0100
1000
,
0001
0100
0010
1000
0001
1000
0100
0010
0001
1000
0001
0100
0010
1000
0100
0010
,
0001
1000
0001
0010
0100
1000
0001
0100
0001
0010
0100
1000
0010
0100
0001
1000
,
0100
1000
0001
0100
0010
1000
0001
1000
0100
0010
0001
1000
0010
0100
0001
0010
,
0100
0010
0001
1000
0010
0100
0001
1000
0100
0010
0001
1000
0010
1000
0001
0100
,
0010
1000
0100
0010
0001
1000
0001
0100
0010
1000
0001
1000
0100
0010
0100
1000
,
0001
1000
0100
0010
0001
1000
0010
1000
0100
0010
0001
1000
0001
0100
0010
1000
,
0100
0010
0001
1000
0001
0010
0100
0010
0001
1000
0001
0100
0010
1000
0100
0010
,
0001
1000
0100
0010
0100
1000
0001
0100
0001
1000
0100
0010
0001
1000
0010
1000
,
0100
0010
0001
1000
0001
0100
0010
1000
0100
0010
0001
1000
0001
0010
0100
1000
,
0001
0100
0001
1000
0010
0100
0001
0010
0001
1000
0100
0010
0001
1000
0001
0010
,
0100
1000
0001
0100
0001
1000
0100
0010
0001
1000
0010
1000
0001
0100
0001
0010
,
0100
1000
0001
1000
0100
0010
0001
1000
0001
0100
0010
1000
0100
0010
0001
1000
,
0001
0100
0010
1000
0100
0010
0001
1000
0001
0010
0100
1000
0001
0100
0001
1000
,
0100
0010
0001
1000
0010
1000
0100
0010
0100
1000
0001
0100
0001
0010
0001
1000
,
0100
0010
0001
1000
0001
1000
0100
0010
0001
1000
0010
0100
0001
0010
0100
1000
,
0001
0100
0001
1000
0001
0010
0100
1000
0001
1000
0010
0100
0001
1000
0100
0010
,
0001
1000
0010
0100
0001
0100
0010
1000
0100
0010
0001
1000
0001
0010
0100
1000
,
0001
0100
0001
1000
0010
0100
0001
0010
0001
1000
0100
0010
0001
1000
0001
0010
,
0100
1000
0001
0100
0001
1000
0010
0100
0001
1000
0100
0010
0001
1000
0001
0100
,
0010
1000
0100
0010
0001
1000
0001
0010
0100
0010
0001
1000
0100
0010
0001
1000
,
0001
0010
0100
1000
0001
0100
0001
0010
0100
1000
0100
0010
0001
0100
0010
1000
,
0100
1000
0001
0100
0001
0010
0100
1000
0001
1000
0010
0100
0001
1000
0100
0010
,
0001
1000
0001
0100
0001
0010
0100
1000
0001
1000
0010
0100
0001
1000
0100
0010
,
0001
1000
0010
1000
0001
0010
0100
1000
0001
0100
0001
1000
0100
0010
0001
1000
,
0001
0010
0100
1000
0001
0100
0001
1000
0010
0100
0001
1000
0100
0010
0001
1000
,
0001
0010
0100
1000
0001
0100
0001
1000
0010
0100
0001
0010
0100
1000
0001
1000
,
0100
0010
0001
1000
0010
1000
0100
0010
0001
1000
0001
0010
0100
0010
0001
1000
,
0001
0100
0001
0010
0100
1000
0001
1000
0100
0010
0001
1000
0010
1000
0001
1000
,
0100
0010
0001
1000
0001
0100
0001
0010
0100
1000
0001
1000
0010
1000
0100
0010
,
0001
1000
0001
0010
0100
1000
0001
1000
0010
0100
0001
0010
0100
1000
0001
0100
,
0001
1000
0010
0100
0001
1000
0100
1000
0001
0010
0100
1000
0001
0100
0010
1000
,
0001
0010
0100
1000
0001
0100
0010
1000
0100
0010
0001
1000
0001
0010
0100
1000
,
0001
0100
0010
1000
0100
1000
0001
0010
0100
1000
0001
0100
0001
1000
0100
0010
,
0001
1000
0010
1000
0001
0100
0010
1000
0001
0100
0001
1000
0100
0010
0001
1000
,
0010
1000
0001
0010
0100
1000
0001
0100
0010
1000
0001
0100
0001
1000
0100
1000
,
0001
0010
0100
1000
0100
0010
0001
1000
0010
1000
0001
0100
0010
1000
0001
0010
,
0001
1000
0100
0010
0001
1000
0010
0100
0001
1000
0010
0100
0001
0010
0100
1000
,
0001
1000
0100
0010
0001
1000
0010
0100
0010
1000
0100
0010
0001
1000
0001
0010
,
0100
1000
0001
0100
0001
1000
0010
0100
0001
1000
0100
0010
0001
0010
0100
1000
,
0002
0000
0000
0000
,
0200
0000
0000
0000
0000
0000
0000
0303
,
0010
1000
0100
0010
0001
1000
0001
0010
0100
1000
0001
0100
0001
1000
0100
0010
,
0001
1000
0010
1000
0100
0010
0001
1000
0001
0100
0010
1000
0100
1000
0001
0010
,
0100
1000
0001
0100
0010
1000
0001
1000
0100
0010
0001
0100
0010
1000
0100
0010
,
0100
1000
0001
1000
0100
0010
0001
1000
0001
0100
0001
0010
0100
1000
0001
0100
,
0010
1000
0100
0010
0001
1000
0001
0100
0010
1000
0100
1000
0010
0100
0001
0010
,
0001
1000
0100
0010
0001
1000
0001
0010
0100
1000
0001
0100
0001
1000
0010
0100
,
0001
0010
0001
1000
0100
0010
0001
1000
0001
0010
0100
1000
0001
0100
0001
1000
,
0100
0010
0001
1000
0001
1000
0010
0100
0001
0010
0100
1000
0001
1000
0100
0010
,
0002
1003
0001
0010
0100
1000
0001
0100
0001
1000
0100
0010
0001
1000
0010
1000
,
0100
0010
0001
1000
0001
0010
0100
1000
0001
0100
0001
1000
0010
0100
0001
0010
,
0100
1000
0001
1000
0100
0010
0100
1000
0001
1000
0100
0010
0001
1000
0001
0010
,
0100
1000
0001
0100
0001
1000
0010
0100
0001
0010
0001
1000
0100
0010
0001
1000
,
0001
0010
0100
1000
0001
0100
0001
1000
0010
0100
0001
0010
0001
1000
0100
0010
,
0001
1000
0001
0010
0100
1000
0001
0100
0001
1000
0010
0100
0001
0010
0100
1000
,
0001
1000
0100
1000
0001
0010
0100
1000
0001
0100
0001
1000
0010
0100
0001
0010
,
0001
1000
0100
0010
0001
1000
0001
0010
0100
1000
0001
0100
0001
1000
0100
0010
,
0001
1000
0010
1000
0100
0010
0001
1000
0001
0100
0001
1000
0010
0100
0001
1000
,
0010
1000
0100
0010
0001
1000
0001
0100
0010
1000
0100
0010
0001
1000
0001
0010
,
0100
1000
0001
0100
0001
1000
0010
0100
0001
0010
0001
1000
0100
0010
0001
1000
,
0001
0010
0100
1000
0001
1000
0100
0010
0100
1000
0001
0100
0010
1000
0100
0010
,
0001
1000
0001
0010
0100
1000
0001
0100
0001
1000
0010
0100
0001
1000
0001
0100
,
0010
1000
0100
0010
0001
1000
0001
0010
0100
1000
0001
0100
0001
1000
0010
0100
,
0010
1000
0100
0010
0001
1000
0001
0010
0100
1000
0001
0100
0001
1000
0010
0100
,
0001
0010
0001
1000
0100
0010
0001
1000
0001
0010
0100
0010
0001
1000
0010
0100
,
0001
1000
0001
0010
0100
1000
0001
1000
0100
0010
0001
1000
0010
1000
0100
0010
,
0001
1000
0001
0100
0001
0010
0100
1000
0001
1000
0010
0100
0001
1000
0001
0010
,
0100
1000
0001
0100
0010
1000
0001
1000
0100
0010
0001
1000
0010
1000
0100
0010
,
0001
1000
0001
0010
0001
1000
0100
0010
0001
1000
0001
0010
0100
1000
0001
0100
,
0001
1000
0100
0010
0001
1000
0010
1000
0001
0010
0100
1000
0001
1000
0100
0010
,
0001
1000
0010
1000
0100
0010
0001
0100
0001
1000
0100
0010
0001
1000
0001
0010
,
0001
1000
0100
1000
0010
0100
0001
0010
0001
1000
0100
0010
0001
1000
0001
0010
,
0100
1000
0001
1000
0100
0010
0001
1000
0010
1000
0100
0010
0001
1000
0001
0100
,
0001
0010
0100
1000
0001
1000
0010
0100
0001
0010
0001
1000
0100
0010
0001
1000
,
0001
0010
0100
1000
0001
0100
0001
1000
0010
1000
0100
0010
0001
1000
0001
0010
,
0100
1000
0001
0100
0001
1000
0100
0010
0001
1000
0010
1000
0001
1000
0100
0010
,
0001
1000
0001
0100
0001
0010
0100
1000
0001
1000
0100
0010
0001
1000
0001
0010
,
0100
1000
0001
0100
0001
1000
0010
0100
0001
0010
0001
1000
0100
0010
0001
1000
,
0001
0010
0100
1000
0001
0100
0001
1000
0010
0100
0001
0010
0001
1000
0100
0010
,
0001
1000
0001
0010
0100
1000
0001
1000
0100
0010
0001
1000
0001
0010
0100
1000
,
0001
1000
0100
0010
0001
0100
0001
0010
0100
1000
0001
1000
0100
0010
0100
1000
,
0001
1000
0100
0010
0001
1000
0001
0100
0001
0010
0100
1000
0001
0100
0001
1000
,
0010
1000
0100
0010
0001
1000
0001
0010
0001
1000
0100
0010
0001
1000
0001
0100
,
0010
1000
0100
1000
0001
0010
0100
1000
0001
1000
0100
0010
0001
1000
0010
1000
,
0100
0010
0001
1000
0001
0100
0010
1000
0100
0010
0001
1000
0001
0010
0001
1000
,
0100
1000
0001
0010
0001
1000
0100
0010
0001
1000
0010
1000
0001
0010
0100
1000
,
0001
1000
0100
0010
0001
1000
0001
0010
0100
1000
0001
0100
0001
1000
0100
0010
,
0001
1000
0010
1000
0001
0100
0010
1000
0100
0010
0001
1000
0001
0010
0100
1000
,
0001
0100
0001
1000
0010
0100
0001
0010
0001
1000
0100
0010
0001
1000
0001
0100
,
0001
0010
0100
1000
0001
1000
0100
0010
0001
1000
0010
0100
0001
1000
0100
1000
,
0001
0010
0100
1000
0001
0100
0010
1000
0001
0100
0001
1000
0100
0010
0001
1000
,
0010
1000
0001
1000
0100
0010
0001
1000
0001
0100
0010
1000
0001
0010
0100
1000
,
0001
1000
0001
0010
0100
1000
0001
0100
0001
1000
0010
0100
0001
1000
0100
0010
,
0001
1000
0001
0010
0100
1000
0001
0100
0001
1000
0010
0100
0001
0010
0001
1000
,
0100
0010
0001
1000
0010
1000
0001
0100
0001
1000
0100
0010
0001
1000
0010
1000
,
0001
0100
0010
1000
0100
0010
0001
1000
0001
0010
0100
1000
0001
0100
0001
1000
,
0010
0100
0001
0010
0001
1000
0100
0010
0001
1000
0010
1000
0001
0100
0001
0010
,
0100
1000
0001
1000
0100
0010
0001
1000
0010
1000
0001
0100
0010
1000
0100
0010
,
0001
1000
0010
0100
0001
0010
0001
1000
0100
0010
0001
1000
0010
1000
0001
0100
,
0002
0000
0000
0000
,
2000
0000
0000
0000
0000
0000
0000
3003
,
0020
0130
0001
0020
0130
1000
0001
1000
,
0010
1000
0100
0010
0001
1000
0002
0013
,
0100
1000
0100
0010
0001
1000
0010
1000
,
0001
0100
0020
1030
0100
0010
0001
0010
,
0200
1300
0001
2000
3010
0100
0001
0010
,
0001
1000
0100
0010
0001
1000
0002
0013
,
0100
1000
0001
0100
0001
1000
0010
0100
,
0001
0000
0010
0000
0200
0000
1300
0000
0001
0000
1000
0000
0010
0100
0001
0000
,
0020
0130
1000
0002
1003
0010
0100
0001
,
1000
0100
0010
0001
1000
0001
0020
0130
,
1000
0001
1000
0100
0010
0001
1000
0010
,
1000
0001
0200
0301
0010
0100
1000
0100
,
0010
0001
1000
0002
1003
0100
1000
0001
,
0010
0100
1000
0001
1000
0100
0020
0031
,
1000
0001
0010
0100
1000
0001
0100
0002
,
2003
3020
0230
0301
0010
0002
2003
3020
,
0230
0301
0010
0200
1300
0001
0100
0001
,
1000
0010
0100
0001
0010
0100
2000
3001
,
1000
0001
0100
0010
1000
0100
0010
0001
,
1000
0001
0020
0130
1000
0100
0010
0001
,
2000
3010
0100
0002
0013
0100
1000
0100
,
0010
0001
1000
0001
0100
0001
0020
0130
,
1000
0001
1000
0100
0010
0001
1000
0010
,
1000
0001
0200
0310
1000
0100
0010
0002
,
2003
3010
0100
0002
0013
0100
1000
0001
,
0100
0001
1000
0010
0100
0001
0020
0130
,
1000
0100
0010
0001
1000
0001
0100
0001
,
1000
0010
0200
0301
0010
0100
1000
0100
,
0020
0031
1000
0002
1003
0010
0100
0001
,
1000
0100
0010
0001
1000
0001
0020
0130
,
1000
0001
1000
0100
0010
0001
1000
0020
,
0130
0002
0023
0130
2000
3020
0230
0302
,
0023
0130
2000
3020
0130
0001
0010
0100
,
1000
0100
0010
0001
1000
0010
2000
3100
,
0010
0001
1000
0001
0100
0001
0010
0100
,
1000
0001
2000
3010
0100
0001
0010
0100
,
2000
3100
0010
0002
1003
0001
0100
0001
,
0010
0100
1000
0001
1000
0010
0200
0301
,
0010
0100
1000
0001
1000
0100
0010
0001
,
1000
0000
0001
0000
0200
0000
0310
0000
1000
0000
0100
0000
0010
0001
1000
0000
,
0020
0130
0001
0020
0130
1000
0001
0100
,
0001
1000
0010
0100
0001
0010
0200
1300
,
0001
1000
0100
0010
0001
1000
0010
1000
,
0001
0100
0002
0013
0100
1000
0100
0010
,
0002
1003
0010
2000
3100
0010
0001
1000
,
0001
0100
0001
0010
0100
1000
0002
1003
,
0010
0100
0001
0010
0100
1000
0001
1000
,
0010
0200
0302
0013
0100
1000
0002
2003
,
3020
0130
0002
0023
0130
2000
3020
0130
,
0001
0010
0200
2300
3010
0200
0302
1003
,
0010
0100
0001
0010
0100
1000
0002
0203
,
0320
2030
3200
0310
0002
2003
3020
0230
,
0302
0013
0200
2300
3010
0200
0302
0013
,
0100
1000
0002
2003
3010
0200
0302
0013
,
0100
1000
0001
1000
0010
0100
0002
0023
,
0230
2300
3002
1003
0020
0230
0302
0023
,
0230
1300
0002
2003
3010
0200
0302
0013
,
0100
0010
0002
2003
3010
0200
0302
1003
,
1000
0100
0010
0001
1000
0010
0200
0302
,
0023
0230
2300
3001
2000
3020
0230
0302
,
0023
0130
2000
3002
1003
0200
0320
0031
,
1000
0010
2000
3002
0103
0020
2030
3100
,
0010
0000
0001
0000
1000
0000
0001
0000
0100
0000
0010
0000
1000
0100
0010
0000
,
0002
2003
3020
0230
0302
0023
0230
2300
,
3001
2000
3010
0200
0301
0020
0230
1300
,
0001
1000
0020
0230
0301
0020
0230
0000
,
0000
0000
0000
0000
,
4300
0000
0000
0000
,
3001
0010
0100
1000
0001
1000
0100
0010
0001
1000
0010
0100
0001
1000
0100
0010
,
0001
1000
0001
0010
0100
1000
0001
0100
0001
1000
0100
0010
0100
1000
0001
0010
,
0100
1000
0001
1000
0100
0010
0001
1000
0001
0100
0010
1000
0010
0100
0001
0010
,
0100
1000
0001
1000
0100
0010
0001
1000
0001
0100
0001
1000
0010
1000
0100
0010
,
0001
1000
0001
0010
0100
1000
0001
0100
0001
1000
0010
0100
0001
0010
0001
1000
,
0100
0010
0001
1000
0001
0100
0010
1000
0100
1000
0001
0010
0100
1000
0001
1000
,
0010
0100
0001
1000
0100
0010
0001
1000
0001
0010
0100
1000
0001
0100
0001
1000
,
0010
0100
0001
0010
0001
1000
0100
0010
0001
1000
0001
0010
0100
1000
0001
0100
,
0001
1000
0100
1000
0001
0010
0001
1000
0100
0010
0001
1000
0001
0100
0001
0010
,
0100
1000
0001
0100
0001
1000
0100
0010
0001
1000
0001
0010
0001
1000
0100
0010
,
0001
1000
0010
1000
0100
0010
0001
1000
0001
0100
0001
1000
0100
0010
0001
1000
,
0001
0010
0100
1000
0010
0100
0001
1000
0100
0010
0001
1000
0001
0010
0100
1000
,
0001
0100
0001
1000
0100
0010
0001
1000
0010
1000
0100
0010
0001
1000
0001
0100
,
0010
1000
0100
0010
0001
1000
0001
0010
0100
1000
0001
0100
0001
1000
0100
0010
,
0001
1000
0010
0100
0001
0010
0001
1000
0100
0010
0001
1000
0001
0010
0100
1000
,
0001
0100
0001
1000
0010
0100
0001
0010
0001
1000
0100
0010
0001
1000
0001
0100
,
0010
1000
0100
0010
0001
1000
0001
0010
0100
1000
0001
0100
0001
1000
0100
0010
,
0001
1000
0001
0010
0001
1000
0100
0010
0001
1000
0010
1000
0100
0010
0001
1000
,
0001
0100
0010
1000
0100
1000
0001
0010
0100
1000
0001
1000
0010
0100
0001
0100
,
0010
1000
0100
0010
0001
1000
0001
0010
0100
1000
0001
0100
0001
1000
0100
0010
,
0001
1000
0010
1000
0001
0100
0001
0010
0100
1000
0001
1000
0100
0010
0001
1000
,
0010
1000
0100
0010
0001
0100
0001
0010
0100
1000
0001
0100
0001
1000
0100
0010
,
0001
1000
0010
1000
0001
0100
0010
1000
0100
1000
0001
0010
0100
1000
0001
0100
,
0010
1000
0100
0010
0001
1000
0001
0010
0100
1000
0100
0010
0001
1000
0001
0100
,
0001
1000
0010
0100
0001
0010
0001
1000
0100
0010
0001
1000
0001
0010
0001
1000
,
0100
1000
0010
0100
0001
0010
0001
1000
0100
0010
0001
1000
0001
0010
0100
1000
,
0001
0100
0001
1000
0010
0100
0001
0010
0001
1000
0100
0010
0001
1000
0001
0010
,
0100
1000
0001
0100
0001
1000
0010
0100
0001
0010
0001
1000
0100
0010
0001
1000
,
0020
0000
0000
0000
,
0000
0000
0000
0000
,
0000
0000
0000
0000
,
0000
0000
0000
0000
,
0230
0000
0000
0000
,
0000
0000
0000
0000
,
0302
0000
0000
0000
,
0000
0000
0000
0000
,
0023
0000
0000
0000
,
0000
0000
0000
0000
,
0000
0000
0000
0000
,
0000
0000
0000
0000
,
0230
0000
0000
0000
,
0000
0000
0000
0000
,
2300
0000
0000
0000
,
0000
0000
0000
0000
,
3020
0000
0000
0000
,
0000
0000
0000
0000
,
0000
0000
0000
0000
,
0000
0000
0000
0000
,
0230
0000
0301
0020
0000
0130
2000
0000
,
0000
0000
3002
0203
0300
0002
0203
0300
,
0000
0000
0000
0000
,
0000
0000
0000
0000
,
0001
1000
0001
0010
0100
1000
0001
1000
0100
0010
0001
1000
0010
1000
0100
0010
,
0001
1000
0001
0100
0001
0010
0100
1000
0001
1000
0100
0010
0001
1000
0010
0100
,
0001
1000
0100
1000
0001
0010
0100
1000
0001
1000
0100
0010
0001
1000
0010
1000
,
0100
0010
0001
0100
0001
1000
0010
0100
0001
0010
0001
1000
0100
0010
0001
1000
,
0001
0010
0100
1000
0001
0100
0001
1000
0010
1000
0100
0010
0001
1000
0001
0010
,
0100
1000
0001
0100
0001
1000
0010
0100
0001
0010
0001
1000
0100
0010
0100
1000
,
0001
0010
0100
1000
0001
1000
0100
0010
0100
1000
0001
0100
0001
1000
0100
0010
,
0001
1000
0001
0010
0100
1000
0001
0100
0001
1000
0010
0100
0001
0010
0001
1000
,
0100
1000
0001
0010
0100
1000
0001
1000
0100
0010
0001
1000
0010
1000
0100
0010
,
0001
1000
0001
0100
0010
1000
0100
1000
0001
0010
0100
1000
0001
1000
0100
0010
,
0001
1000
0010
1000
0100
0010
0001
0100
0001
1000
0100
0010
0001
1000
0001
0010
,
0100
1000
0001
1000
0100
1000
0001
0010
0100
1000
0001
1000
0010
1000
0100
0010
,
0001
1000
0001
0100
0001
0010
0100
1000
0001
1000
0010
0100
0001
0010
0001
1000
,
0100
0010
0001
1000
0001
0010
0100
1000
0001
0100
0001
1000
0010
0100
0001
0010
,
0001
1000
0100
0010
0001
1000
0001
0010
0100
1000
0001
1000
0100
1000
0010
0100
,
0001
0010
0001
1000
0001
0010
0100
1000
0001
1000
0100
0010
0001
1000
0001
0010
,
0100
1000
0001
0100
0001
1000
0010
0100
0001
0010
0100
1000
0001
0100
0001
1000
,
0100
0010
0001
1000
0010
1000
0100
0010
0001
0100
0001
0010
0100
1000
0001
0100
,
0001
0010
0100
1000
0010
0100
0001
0010
0100
0010
0001
1000
0001
0010
0001
0100
,
0001
1000
0100
0010
0001
1000
0010
0100
0001
1000
0100
0010
0100
1000
0010
0100
,
0001
1000
0100
1000
0010
0100
0010
1000
0100
0010
0001
0100
0001
1000
0001
0010
,
0100
1000
0001
0100
0001
1000
0100
0010
0001
1000
0001
0010
0100
1000
0001
0100
,
0001
1000
0010
0100
0001
0010
0001
1000
0100
0010
0001
1000
0001
0010
0001
1000
,
0010
1000
0100
0010
0001
0100
0001
1000
0100
1000
0001
0010
0100
1000
0010
0100
,
0001
1000
0100
1000
0001
0010
0100
1000
0010
0100
0001
1000
0100
1000
0001
0010
,
0100
1000
0010
0100
0001
1000
0100
1000
0001
0010
0100
0010
0001
1000
0010
1000
,
0100
0010
0001
0100
0001
1000
0001
0010
0100
1000
0001
0100
0001
1000
0100
0010
,
0001
1000
0010
1000
0100
0010
0001
1000
0001
0010
0100
1000
0001
0100
0001
1000
,
0100
0010
0001
1000
0001
0010
0100
1000
0001
0100
0001
1000
0010
1000
0100
0010
,
0001
1000
0001
0010
0001
1000
0100
0010
0001
1000
0010
1000
0100
0010
0001
0100
,
0001
1000
0001
0010
0100
1000
0001
0100
0001
1000
0100
0010
0001
1000
0010
1000
,
0100
0010
0001
0100
0001
1000
0001
0010
0100
1000
0001
0100
0001
1000
0010
0000
,
2202
0000
0000
0000
,
0000
0000
0000
0000
,
0000
0000
0000
0000
,
0000
0000
0000
0000
,
3303
0000
0000
0000
;

//---------------dance-single - ----------------
#NOTES:
     dance-single:
     :
     Challenge:
     26:
     1.000,1.000,0.331,0.681,1.000,4186.000,102.000,210.000,0.000,35.000:

0000
0000
0000
0000
,
1000
0001
1000
0100
0010
0001
1000
0010
0100
0001
0010
0100
1000
0001
1000
0100
,
0010
0001
1000
0010
1000
0100
0010
0001
1000
0001
0100
0010
1000
0100
0010
0001
,
1000
0001
0010
0100
1000
0001
0100
0001
1000
0100
0010
0001
1000
0010
1000
0100
,
0010
0001
1000
0001
0100
0001
0010
0100
1000
0001
1000
0010
0100
0001
1000
0100
,
0010
0001
1000
0010
1000
0001
1000
0100
0010
0001
1000
0001
0010
0100
1000
0001
,
0100
0001
1000
0100
0010
0001
1000
0001
0010
0100
1000
0001
1000
0010
0100
0001
,
1000
0001
0010
0100
1000
0001
1000
0100
0010
0001
1000
0010
1000
0100
0010
0001
,
1000
0001
0010
0100
1000
0001
0100
0001
1000
0010
1000
0100
0010
0001
1000
0001
,
0010
0100
1000
0001
1000
0100
0010
0001
1000
0001
0100
0010
1000
0001
0100
0001
,
1000
0100
0010
0100
1000
0001
0010
0001
1000
0100
0010
0001
1000
0001
0010
0100
,
1000
0001
0100
0001
1000
0100
0010
0001
1000
0001
0010
0100
0010
0001
1000
0001
,
0100
0010
1000
0001
1000
0100
0010
0100
1000
0001
0100
0010
1000
0100
0010
0001
,
1000
0001
0010
0100
1000
0001
0100
0001
1000
0010
0100
0001
0010
0100
1000
0001
,
1000
0100
0010
0100
1000
0001
0100
0001
1000
0010
0100
0001
0010
0001
1000
0100
,
0010
0001
1000
0001
0010
0100
1000
0001
0100
0001
1000
0100
0010
0001
1000
0010
,
1000
0001
0100
0001
0010
0100
1000
0001
1000
0100
0010
0001
1000
0010
1000
0001
,
0100
0010
1000
0100
1000
0001
0010
0100
1000
0001
0010
0001
1000
0100
0010
0001
,
1000
0001
0100
0010
1000
0100
1000
0001
0010
0100
1000
0001
1000
0010
0100
0001
,
1000
0100
0010
0100
1000
0001
0100
0010
1000
0100
0010
0100
1000
0001
0010
0100
,
1000
0001
1000
0010
0100
0001
0010
0100
1000
0001
1000
0100
0010
0001
1000
0010
,
1000
0001
0100
0001
0010
0100
1000
0001
1000
0100
0010
0001
1000
0010
1000
0100
,
0010
0001
1000
0001
0100
0001
0010
0100
0010
0001
1000
0001
0100
0010
1000
0001
,
0010
0100
1000
0001
1000
0100
0010
0001
1000
0010
0100
0001
1000
0100
0010
0100
,
1000
0001
0100
0001
1000
0010
0100
0001
0010
0100
1000
0100
0010
0001
1000
0001
,
0010
0100
1000
0001
0100
0001
1000
0010
0100
0001
0010
0100
1000
0001
1000
0100
,
0010
0100
1000
0001
0100
0001
1000
0010
0100
0001
0010
0100
1000
0100
0010
0001
,
1000
0001
0100
0001
1000
0100
0010
0001
1000
0010
0100
0001
0010
0100
1000
0001
,
1000
0010
0100
0001
1000
0100
1000
0001
0010
0100
1000
0001
1000
0010
0100
0001
,
1000
0100
0010
0001
1000
0001
0010
0100
1000
0001
0100
0001
1000
0010
0100
0001
,
0010
0100
1000
0100
0010
0001
1000
0001
0010
0100
1000
0001
0100
0001
1000
0010
,
0100
0001
1000
0100
1000
0001
0010
0100
1000
0001
1000
0100
0010
0001
1000
0001
,
0010
0100
1000
0001
0100
0001
1000
0010
0100
0001
0010
0001
1000
0100
0010
0001
,
2000
0000
3001
2000
0000
3200
0000
0320
,
0000
0000
0000
0000
0000
0000
0000
0000
0000
0000
0000
0000
0031
1000
0001
1000
,
0002
1003
0020
0230
0301
0020
0130
2000
,
3001
0100
0001
0010
0100
1000
0001
1000
,
0020
0230
0302
0013
0100
1000
0002
0023
,
0230
1300
0001
1000
0010
0100
0002
0023
,
0230
1300
0002
0203
0310
2000
3200
0320
,
0032
1003
0001
0100
0001
0010
0100
1000
,
0002
0203
0320
2030
3200
0320
0031
2000
,
3001
0100
0010
1000
0100
0010
0002
2003
,
3002
0103
0020
2030
3100
0020
0031
0200
,
0310
1000
0100
0010
0001
1000
0001
0010
,
0200
2300
3002
1003
0010
0100
0002
0023
,
0230
1300
0001
1000
0100
0010
0002
0203
,
0320
1030
0200
0320
0031
2000
3001
0200
,
0320
0000
1030
0000
0001
0000
1000
0000
0001
0010
0100
0000
1000
0000
0010
0100
,
0001
1000
0010
0100
0001
0100
0010
1000
0100
0010
0100
1000
0001
1000
0010
1000
,
0100
0010
0001
0100
0001
1000
0010
0100
0001
0010
0100
1000
0001
0100
0001
1000
,
0010
0100
0001
0010
0100
1000
0010
1000
0001
0100
0010
1000
0100
0010
0001
1000
,
0001
0100
0010
1000
0100
0010
0001
1000
0001
0100
0010
1000
0001
0100
0001
0010
,
0100
1000
0001
0100
0010
1000
0100
0010
0001
1000
0010
0100
0001
0010
0100
1000
,
0001
1000
0100
0010
0001
1000
0010
0100
0001
0100
0010
1000
0100
0010
0001
1000
,
0001
0100
0010
1000
0100
0010
0001
1000
0001
0100
0010
1000
0100
0010
0001
1000
,
0010
1000
0100
0010
0001
1000
0001
0100
0010
1000
0100
0010
0001
1000
0001
0100
,
0010
1000
0100
1000
0001
0100
0010
1000
0100
0010
0001
1000
0001
0100
0010
1000
,
0100
0010
0001
1000
0001
0010
0100
0010
0001
1000
0100
0010
0001
1000
0010
0100
,
0001
0010
0100
1000
0001
1000
0010
0100
0001
0010
0100
0010
0001
1000
0100
1000
,
0001
0100
0010
1000
0001
1000
0100
0010
0001
1000
0001
0100
0010
1000
0100
0010
,
0001
1000
0001
0010
0100
1000
0001
0100
0001
0010
0100
1000
0010
0100
0001
1000
,
0100
1000
0001
0100
0010
1000
0001
1000
0100
0010
0001
1000
0010
0100
0001
0010
,
0100
0010
0001
1000
0010
0100
0001
1000
0100
0010
0001
1000
0010
1000
0001
0100
,
0010
1000
0100
0010
0001
1000
0001
0100
0010
1000
0001
1000
0100
0010
0100
1000
,
0001
1000
0100
0010
0001
1000
0010
1000
0100
0010
0001
1000
0001
0100
0010
1000
,
0100
0010
0001
1000
0001
0010
0100
0010
0001
1000
0001
0100
0010
1000
0100
0010
,
0001
1000
0100
0010
0100
1000
0001
0100
0001
1000
0100
0010
0001
1000
0010
1000
,
0100
0010
0001
1000
0001
0100
0010
1000
0100
0010
0001
1000
0001
0010
0100
1000
,
0001
0100
0001
1000
0010
0100
0001
0010
0001
1000
0100
0010
0001
1000
0001
0010
,
0100
1000
0001
0100
0001
1000
0100
0010
0001
1000
0010
1000
0001
0100
0001
0010
,
0100
1000
0001
1000
0100
0010
0001
1000
0001
0100
0010
1000
0100
0010
0001
1000
,
0001
0100
0010
1000
0100
0010
0001
1000
0001
0010
0100
1000
0001
0100
0001
1000
,
0100
0010
0001
1000
0010
1000
0100
0010
0100
1000
0001
0100
0001
0010
0001
1000
,
0100
0010
0001
1000
0001
1000
0100
0010
0001
1000
0010
0100
0001
0010
0100
1000
,
0001
0100
0001
1000
0001
0010
0100
1000
0001
1000
0010
0100
0001
1000
0100
0010
,
0001
1000
0010
0100
0001
0100
0010
1000
0100
0010
0001
1000
0001
0010
0100
1000
,
0001
0100
0001
1000
0010
0100
0001
0010
0001
1000
0100
0010
0001
1000
0001
0010
,
0100
1000
0001
0100
0001
1000
0010
0100
0001
1000
0100
0010
0001
1000
0001
0100
,
0010
1000
0100
0010
0001
1000
0001
0010
0100
0010
0001
1000
0100
0010
0001
1000
,
0001
0010
0100
1000
0001
0100
0001
0010
0100
1000
0100
0010
0001
0100
0010
1000
,
0100
1000
0001
0100
0001
0010
0100
1000
0001
1000
0010
0100
0001
1000
0100
0010
,
0001
1000
0001
0100
0001
0010
0100
1000
0001
1000
0010
0100
0001
1000
0100
0010
,
0001
1000
0010
1000
0001
0010
0100
1000
0001
0100
0001
1000
0100
0010
0001
1000
,
0001
0010
0100
1000
0001
0100
0001
1000
0010
0100
0001
1000
0100
0010
0001
1000
,
0001
0010
0100
1000
0001
0100
0001
1000
0010
0100
0001
0010
0100
1000
0001
1000
,
0100
0010
0001
1000
0010
1000
0100
0010
0001
1000
0001
0010
0100
0010
0001
1000
,
0001
0100
0001
0010
0100
1000
0001
1000
0100
0010
0001
1000
0010
1000
0001
1000
,
0100
0010
0001
1000
0001
0100
0001
0010
0100
1000
0001
1000
0010
1000
0100
0010
,
0001
1000
0001
0010
0100
1000
0001
1000
0010
0100
0001
0010
0100
1000
0001
0100
,
0001
1000
0010
0100
0001
1000
0100
1000
0001
0010
0100
1000
0001
0100
0010
1000
,
0001
0010
0100
1000
0001
0100
0010
1000
0100
0010
0001
1000
0001
0010
0100
1000
,
0001
0100
0010
1000
0100
1000
0001
0010
0100
1000
0001
0100
0001
1000
0100
0010
,
0001
1000
0010
1000
0001
0100
0010
1000
0001
0100
0001
1000
0100
0010
0001
1000
,
0010
1000
0001
0010
0100
1000
0001
0100
0010
1000
0001
0100
0001
1000
0100
1000
,
0001
0010
0100
1000
0100
0010
0001
1000
0010
1000
0001
0100
0010
1000
0001
0010
,
0001
1000
0100
0010
0001
1000
0010
0100
0001
1000
0010
0100
0001
0010
0100
1000
,
0001
1000
0100
0010
0001
1000
0010
0100
0010
1000
0100
0010
0001
1000
0001
0010
,
0100
1000
0001
0100
0001
1000
0010
0100
0001
1000
0100
0010
0001
0010
0100
1000
,
0002
0000
0000
0000
,
0200
0000
0000
0000
0000
0000
0000
0303
,
0010
1000
0100
0010
0001
1000
0001
0010
0100
1000
0001
0100
0001
1000
0100
0010
,
0001
1000
0010
1000
0100
0010
0001
1000
0001
0100
0010
1000
0100
1000
0001
0010
,
0100
1000
0001
0100
0010
1000
0001
1000
0100
0010
0001
0100
0010
1000
0100
0010
,
0100
1000
0001
1000
0100
0010
0001
1000
0001
0100
0001
0010
0100
1000
0001
0100
,
0010
1000
0100
0010
0001
1000
0001
0100
0010
1000
0100
1000
0010
0100
0001
0010
,
0001
1000
0100
0010
0001
1000
0001
0010
0100
1000
0001
0100
0001
1000
0010
0100
,
0001
0010
0001
1000
0100
0010
0001
1000
0001
0010
0100
1000
0001
0100
0001
1000
,
0100
0010
0001
1000
0001
1000
0010
0100
0001
0010
0100
1000
0001
1000
0100
0010
,
0002
1003
0001
0010
0100
1000
0001
0100
0001
1000
0100
0010
0001
1000
0010
1000
,
0100
0010
0001
1000
0001
0010
0100
1000
0001
0100
0001
1000
0010
0100
0001
0010
,
0100
1000
0001
1000
0100
0010
0100
1000
0001
1000
0100
0010
0001
1000
0001
0010
,
0100
1000
0001
0100
0001
1000
0010
0100
0001
0010
0001
1000
0100
0010
0001
1000
,
0001
0010
0100
1000
0001
0100
0001
1000
0010
0100
0001
0010
0001
1000
0100
0010
,
0001
1000
0001
0010
0100
1000
0001
0100
0001
1000
0010
0100
0001
0010
0100
1000
,
0001
1000
0100
1000
0001
0010
0100
1000
0001
0100
0001
1000
0010
0100
0001
0010
,
0001
1000
0100
0010
0001
1000
0001
0010
0100
1000
0001
0100
0001
1000
0100
0010
,
0001
1000
0010
1000
0100
0010
0001
1000
0001
0100
0001
1000
0010
0100
0001
1000
,
0010
1000
0100
0010
0001
1000
0001
0100
0010
1000
0100
0010
0001
1000
0001
0010
,
0100
1000
0001
0100
0001
1000
0010
0100
0001
0010
0001
1000
0100
0010
0001
1000
,
0001
0010
0100
1000
0001
1000
0100
0010
0100
1000
0001
0100
0010
1000
0100
0010
,
0001
1000
0001
0010
0100
1000
0001
0100
0001
1000
0010
0100
0001
1000
0001
0100
,
0010
1000
0100
0010
0001
1000
0001
0010
0100
1000
0001
0100
0001
1000
0010
0100
,
0010
1000
0100
0010
0001
1000
0001
0010
0100
1000
0001
0100
0001
1000
0010
0100
,
0001
0010
0001
1000
0100
0010
0001
1000
0001
0010
0100
0010
0001
1000
0010
0100
,
0001
1000
0001
0010
0100
1000
0001
1000
0100
0010
0001
1000
0010
1000
0100
0010
,
0001
1000
0001
0100
0001
0010
0100
1000
0001
1000
0010
0100
0001
1000
0001
0010
,
0100
1000
0001
0100
0010
1000
0001
1000
0100
0010
0001
1000
0010
1000
0100
0010
,
0001
1000
0001
0010
0001
1000
0100
0010
0001
1000
0001
0010
0100
1000
0001
0100
,
0001
1000
0100
0010
0001
1000
0010
1000
0001
0010
0100
1000
0001
1000
0100
0010
,
0001
1000
0010
1000
0100
0010
0001
0100
0001
1000
0100
0010
0001
1000
0001
0010
,
0001
1000
0100
1000
0010
0100
0001
0010
0001
1000
0100
0010
0001
1000
0001
0010
,
0100
1000
0001
1000
0100
0010
0001
1000
0010
1000
0100
0010
0001
1000
0001
0100
,
0001
0010
0100
1000
0001
1000
0010
0100
0001
0010
0001
1000
0100
0010
0001
1000
,
0001
0010
0100
1000
0001
0100
0001
1000
0010
1000
0100
0010
0001
1000
0001
0010
,
0100
1000
0001
0100
0001
1000
0100
0010
0001
1000
0010
1000
0001
1000
0100
0010
,
0001
1000
0001
0100
0001
0010
0100
1000
0001
1000
0100
0010
0001
1000
0001
0010
,
0100
1000
0001
0100
0001
1000
0010
0100
0001
0010
0001
1000
0100
0010
0001
1000
,
0001
0010
0100
1000
0001
0100
0001
1000
0010
0100
0001
0010
0001
1000
0100
0010
,
0001
1000
0001
0010
0100
1000
0001
1000
0100
0010
0001
1000
0001
0010
0100
1000
,
0001
1000
0100
0010
0001
0100
0001
0010
0100
1000
0001
1000
0100
0010
0100
1000
,
0001
1000
0100
0010
0001
1000
0001
0100
0001
0010
0100
1000
0001
0100
0001
1000
,
0010
1000
0100
0010
0001
1000
0001
0010
0001
1000
0100
0010
0001
1000
0001
0100
,
0010
1000
0100
1000
0001
0010
0100
1000
0001
1000
0100
0010
0001
1000
0010
1000
,
0100
0010
0001
1000
0001
0100
0010
1000
0100
0010
0001
1000
0001
0010
0001
1000
,
0100
1000
0001
0010
0001
1000
0100
0010
0001
1000
0010
1000
0001
0010
0100
1000
,
0001
1000
0100
0010
0001
1000
0001
0010
0100
1000
0001
0100
0001
1000
0100
0010
,
0001
1000
0010
1000
0001
0100
0010
1000
0100
0010
0001
1000
0001
0010
0100
1000
,
0001
0100
0001
1000
0010
0100
0001
0010
0001
1000
0100
0010
0001
1000
0001
0100
,
0001
0010
0100
1000
0001
1000
0100
0010
0001
1000
0010
0100
0001
1000
0100
1000
,
0001
0010
0100
1000
0001
0100
0010
1000
0001
0100
0001
1000
0100
0010
0001
1000
,
0010
1000
0001
1000
0100
0010
0001
1000
0001
0100
0010
1000
0001
0010
0100
1000
,
0001
1000
0001
0010
0100
1000
0001
0100
0001
1000
0010
0100
0001
1000
0100
0010
,
0001
1000
0001
0010
0100
1000
0001
0100
0001
1000
0010
0100
0001
0010
0001
1000
,
0100
0010
0001
1000
0010
1000
0001
0100
0001
1000
0100
0010
0001
1000
0010
1000
,
0001
0100
0010
1000
0100
0010
0001
1000
0001
0010
0100
1000
0001
0100
0001
1000
,
0010
0100
0001
0010
0001
1000
0100
0010
0001
1000
0010
1000
0001
0100
0001
0010
,
0100
1000
0001
1000
0100
0010
0001
1000
0010
1000
0001
0100
0010
1000
0100
0010
,
0001
1000
0010
0100
0001
0010
0001
1000
0100
0010
0001
1000
0010
1000
0001
0100
,
0002
0000
0000
0000
,
2000
0000
0000
0000
0000
0000
0000
3003
,
1020
0130
0001
0120
0130
1000
0001
1000
,
0010
1000
0100
0010
0001
1000
0012
0013
,
0100
1000
0100
0010
0001
1000
0010
1000
,
0001
0100
0120
1030
0100
0010
0001
0010
,
1200
1300
0001
2010
3010
0100
0001
0010
,
0001
1000
0100
0010
0001
1000
1002
0013
,
0100
1000
0001
0100
0001
1000
0010
0100
,
0001
0000
0010
0000
0210
0000
1300
0000
0001
0000
1000
0000
0010
0100
0001
0000
,
1020
0130
1000
0102
1003
0010
0100
0001
,
1000
0100
0010
0001
1000
0001
0120
0130
,
1000
0001
1000
0100
0010
0001
1000
0010
,
1000
0001
0210
0301
0010
0100
1000
0100
,
0021
0031
1000
0102
1003
0100
1000
0001
,
0010
0100
1000
0001
1000
0100
0120
0031
,
1000
0001
0010
0100
1000
0001
0100
0002
,
2103
3001
1200
0301
0010
0102
2003
3120
,
0230
0301
0010
1200
1300
0001
0100
0001
,
1000
0010
0100
0001
0010
0100
2001
3001
,
1000
0001
0100
0010
1000
0100
0010
0001
,
1000
0001
0120
0130
1000
0100
0010
0001
,
2010
3010
0100
1002
0013
0100
1000
0100
,
0010
0001
1000
0001
0100
0001
1020
0130
,
1000
0001
1000
0100
0010
0001
1000
0010
,
1000
0001
0210
0310
1000
0100
0010
0102
,
2013
3010
0100
0012
0013
0100
1000
0001
,
0100
0001
1000
0010
0100
0001
0120
0130
,
1000
0100
0010
0001
1000
0001
0100
0001
,
1000
0010
0201
0301
0010
0100
1000
0100
,
0120
0031
1000
0012
1003
0010
0100
0001
,
1000
0100
0010
0001
1000
0001
0120
0130
,
1000
0001
1000
0100
0010
0001
1000
0120
,
0130
0002
0123
0130
2010
3020
0230
0302
,
0123
0130
2010
3120
0130
0001
0010
0100
,
1000
0100
0010
0001
1000
0010
2100
3100
,
0010
0001
1000
0001
0100
0001
0010
0100
,
1000
0001
2010
3010
0100
0001
0010
0100
,
2001
3100
0010
0102
1003
0001
0100
0001
,
0010
0100
1000
0001
1000
0010
0201
0301
,
0010
0100
1000
0001
1000
0100
0010
0001
,
1000
0000
0001
0000
0210
0000
0310
0000
1000
0000
0100
0000
0010
0001
1000
0000
,
0120
0130
0001
0120
0130
1000
0001
0100
,
0001
1000
0010
0100
0001
0010
1200
1300
,
0001
1000
0100
0010
0001
1000
0010
1000
,
0001
0100
0012
0013
0100
1000
0100
0010
,
1002
1003
0010
2100
3100
0010
0001
1000
,
0001
0100
0001
0010
0100
1000
0102
1003
,
0010
0100
0001
0010
0100
1000
0001
1000
,
0010
0201
0312
0013
0100
1000
0012
2003
,
3021
0130
0002
0123
0130
2100
3021
0130
,
0001
0010
1200
2300
3010
0200
0312
1003
,
0010
0100
0001
0010
0100
1000
1002
0213
,
0321
2030
3200
0310
1002
2003
3021
0230
,
0302
0013
1200
2301
3010
0201
0312
0013
,
0100
1000
0012
2103
3010
0210
0312
0013
,
0100
1000
0001
1000
0010
0100
0002
0023
,
1230
2300
3102
1003
0020
0231
0302
0123
,
0230
1300
0012
2103
3010
0201
0312
0013
,
0100
0010
0012
2103
3010
0201
0312
1003
,
1000
0100
0010
0001
1000
0010
0201
0302
,
0123
0230
2301
3001
2000
3021
0230
0302
,
0123
1130
2000
3002
1003
0201
0321
0031
,
1000
0010
2100
3002
0113
0020
2030
3100
,
0010
0000
0001
0000
1000
0000
0001
0000
0100
0000
0010
0000
1000
0100
0010
0000
,
1002
2003
3120
0230
0312
0023
0230
2300
,
3001
2000
3010
0200
0301
0020
0230
1300
,
0001
1000
0020
0230
0301
0020
0230
0000
,
0000
0000
0000
0000
,
4300
0000
0000
0000
,
3001
0010
0100
1000
0001
1000
0100
0010
0001
1000
0010
0100
0001
1000
0100
0010
,
0001
1000
0001
0010
0100
1000
0001
0100
0001
1000
0100
0010
0100
1000
0001
0010
,
0100
1000
0001
1000
0100
0010
0001
1000
0001
0100
0010
1000
0010
0100
0001
0010
,
0100
1000
0001
1000
0100
0010
0001
1000
0001
0100
0001
1000
0010
1000
0100
0010
,
0001
1000
0001
0010
0100
1000
0001
0100
0001
1000
0010
0100
0001
0010
0001
1000
,
0100
0010
0001
1000
0001
0100
0010
1000
0100
1000
0001
0010
0100
1000
0001
1000
,
0010
0100
0001
1000
0100
0010
0001
1000
0001
0010
0100
1000
0001
0100
0001
1000
,
0010
0100
0001
0010
0001
1000
0100
0010
0001
1000
0001
0010
0100
1000
0001
0100
,
0001
1000
0100
1000
0001
0010
0001
1000
0100
0010
0001
1000
0001
0100
0001
0010
,
0100
1000
0001
0100
0001
1000
0100
0010
0001
1000
0001
0010
0001
1000
0100
0010
,
0001
1000
0010
1000
0100
0010
0001
1000
0001
0100
0001
1000
0100
0010
0001
1000
,
0001
0010
0100
1000
0010
0100
0001
1000
0100
0010
0001
1000
0001
0010
0100
1000
,
0001
0100
0001
1000
0100
0010
0001
1000
0010
1000
0100
0010
0001
1000
0001
0100
,
0010
1000
0100
0010
0001
1000
0001
0010
0100
1000
0001
0100
0001
1000
0100
0010
,
0001
1000
0010
0100
0001
0010
0001
1000
0100
0010
0001
1000
0001
0010
0100
1000
,
0001
0100
0001
1000
0010
0100
0001
0010
0001
1000
0100
0010
0001
1000
0001
0100
,
0010
1000
0100
0010
0001
1000
0001
0010
0100
1000
0001
0100
0001
1000
0100
0010
,
0001
1000
0001
0010
0001
1000
0100
0010
0001
1000
0010
1000
0100
0010
0001
1000
,
0001
0100
0010
1000
0100
1000
0001
0010
0100
1000
0001
1000
0010
0100
0001
0100
,
0010
1000
0100
0010
0001
1000
0001
0010
0100
1000
0001
0100
0001
1000
0100
0010
,
0001
1000
0010
1000
0001
0100
0001
0010
0100
1000
0001
1000
0100
0010
0001
1000
,
0010
1000
0100
0010
0001
0100
0001
0010
0100
1000
0001
0100
0001
1000
0100
0010
,
0001
1000
0010
1000
0001
0100
0010
1000
0100
1000
0001
0010
0100
1000
0001
0100
,
0010
1000
0100
0010
0001
1000
0001
0010
0100
1000
0100
0010
0001
1000
0001
0100
,
0001
1000
0010
0100
0001
0010
0001
1000
0100
0010
0001
1000
0001
0010
0001
1000
,
0100
1000
0010
0100
0001
0010
0001
1000
0100
0010
0001
1000
0001
0010
0100
1000
,
0001
0100
0001
1000
0010
0100
0001
0010
0001
1000
0100
0010
0001
1000
0001
0010
,
0100
1000
0001
0100
0001
1000
0010
0100
0001
0010
0001
1000
0100
0010
0001
1000
,
0001
0010
0100
1000
0001
0100
0001
1000
0100
0010
0001
1000
0010
1000
0100
0010
,
0001
1000
0001
0010
0100
1000
0001
0100
0001
0010
0100
1000
0001
1000
0100
0010
,
0001
1000
0010
1000
0100
0010
0001
1000
0001
0100
0010
1000
0100
0010
0001
1000
,
0001
0010
0100
1000
0001
0100
0001
1000
0100
0010
0001
1000
0001
0010
0100
1000
,
0001
1000
0010
0100
0001
0010
0001
1000
0100
0010
0001
1000
0001
0010
0100
1000
,
0001
1000
0010
1000
0100
0010
0001
1000
0001
0100
0001
0010
0100
1000
0001
1000
,
0100
0010
0001
1000
0001
0010
0100
1000
0001
0100
0001
1000
0100
0010
0001
1000
,
0001
0010
0100
1000
0001
1000
0010
1000
0100
0010
0001
1000
0001
0010
0100
1000
,
0001
0100
0010
1000
0100
1000
0001
0010
0001
1000
0100
0010
0001
1000
0001
0010
,
0100
1000
0001
0100
0001
0010
0100
1000
0001
1000
0100
0010
0100
1000
0001
0010
,
0001
1000
0100
0010
0001
1000
0001
0010
0100
0010
0001
1000
0100
1000
0010
0100
,
0001
0010
0001
1000
0100
0010
0001
1000
0001
0010
0100
1000
0001
1000
0100
0010
,
0001
1000
0001
0010
0100
1000
0001
0100
0001
1000
0100
0010
0001
1000
0001
0010
,
0100
1000
0001
1000
0100
0010
0001
1000
0010
1000
0100
0010
0001
1000
0001
0010
,
0100
1000
0001
1000
0100
0010
0001
1000
0001
0010
0001
1000
0100
0010
0001
1000
,
0001
0010
0100
1000
0001
1000
0100
0010
0001
1000
0001
0010
0100
1000
0001
1000
,
0010
0100
0001
0010
0001
1000
0100
0010
0001
1000
0001
0010
0100
1000
0001
1000
,
0100
0010
0001
1000
0010
1000
0100
0010
0001
1000
0001
0010
0100
1000
0001
1000
,
0100
0010
0001
1000
0010
1000
0100
0010
0001
0100
0001
1000
0100
0010
0001
1000
,
0001
0010
0100
1000
0001
1000
0100
0010
0001
1000
0010
1000
0100
0010
0001
1000
,
0200
0000
0310
0002
0000
1003
0020
0000
,
0000
0000
0230
0302
0003
2000
3200
0300
,
0000
0000
0000
0000
,
0000
0000
0000
0000
,
0001
1000
0001
0010
0100
1000
0001
1000
0100
0010
0001
1000
0010
1000
0100
0010
,
0001
1000
0001
0100
0001
0010
0100
1000
0001
1000
0100
0010
0001
1000
0010
0100
,
0001
1000
0100
1000
0001
0010
0100
1000
0001
1000
0100
0010
0001
1000
0010
1000
,
0100
0010
0001
0100
0001
1000
0010
0100
0001
0010
0001
1000
0100
0010
0001
1000
,
0001
0010
0100
1000
0001
0100
0001
1000
0010
1000
0100
0010
0001
1000
0001
0010
,
0100
1000
0001
0100
0001
1000
0010
0100
0001
0010
0001
1000
0100
0010
0100
1000
,
0001
0010
0100
1000
0001
1000
0100
0010
0100
1000
0001
0100
0001
1000
0100
0010
,
0001
1000
0001
0010
0100
1000
0001
0100
0001
1000
0010
0100
0001
0010
0001
1000
,
0100
1000
0001
0010
0100
1000
0001
1000
0100
0010
0001
1000
0010
1000
0100
0010
,
0001
1000
0001
0100
0010
1000
0100
1000
0001
0010
0100
1000
0001
1000
0100
0010
,
0001
1000
0010
1000
0100
0010
0001
0100
0001
1000
0100
0010
0001
1000
0001
0010
,
0100
1000
0001
1000
0100
1000
0001
0010
0100
1000
0001
1000
0010
1000
0100
0010
,
0001
1000
0001
0100
0001
0010
0100
1000
0001
1000
0010
0100
0001
0010
0001
1000
,
0100
0010
0001
1000
0001
0010
0100
1000
0001
0100
0001
1000
0010
0100
0001
0010
,
0001
1000
0100
0010
0001
1000
0001
0010
0100
1000
0001
1000
0100
1000
0010
0100
,
0001
0010
0001
1000
0001
0010
0100
1000
0001
1000
0100
0010
0001
1000
0001
0010
,
0200
1300
0001
1000
0100
0010
0001
1000
0001
0010
0100
1000
0001
0100
0001
1000
,
0100
0010
0001
1000
0010
1000
0100
0010
0001
1000
0001
0010
0100
1000
0001
0100
,
0001
1000
0100
0010
0001
1000
0001
0010
0100
1000
0010
1000
0001
1000
0100
0010
,
0001
1000
0001
0100
0010
1000
0100
1000
0001
0010
0100
1000
0001
1000
0100
0010
,
0001
1000
0010
1000
0100
0010
0001
1000
0001
0100
0001
0010
0100
1000
0001
1000
,
0100
0010
0001
1000
0010
1000
0001
0100
0001
0010
0100
1000
0001
1000
0100
0010
,
0001
1000
0001
0010
0100
1000
0001
0100
0001
1000
0100
0010
0001
1000
0001
0010
,
0100
1000
0001
1000
0100
0010
0001
1000
0001
0010
0100
1000
0001
0100
0001
0010
,
0100
1000
0001
1000
0100
0010
0001
1000
0010
1000
0100
0010
0001
1000
0001
0010
,
0100
1000
0001
1000
0100
0010
0001
0100
0001
1000
0010
1000
0100
0010
0001
1000
,
0001
0010
0100
1000
0001
0100
0010
1000
0100
1000
0001
0010
0100
1000
0001
1000
,
0100
0010
0001
1000
0010
1000
0100
0010
0001
0100
0001
0010
0100
1000
0001
1000
,
0100
0010
0001
1000
0001
0010
0100
0010
0001
1000
0001
0100
0001
0010
0100
1000
,
0001
1000
0100
0010
0001
1000
0010
1000
0100
0010
0001
1000
0001
0010
0100
1000
,
0001
0100
0001
1000
0100
0010
0001
1000
0001
0010
0100
1000
0001
1000
0010
1000
,
0001
1000
0100
0010
0001
1000
0001
0100
0001
0010
0100
1000
0100
0010
0001
0000
,
2002
0000
0000
0000
,
0000
0000
0000
0000
,
0000
0000
0000
0000
,
0000
0000
0000
0000
,
3003
0000
0000
0000
;
