#TITLE:Slit Down;
#SUBTITLE:;
#ARTIST:The Berzerker;
#TITLETRANSLIT:;
#SUBTITLETRANSLIT:;
#ARTISTTRANSLIT:;
#CREDIT:;
#BANNER:the berzerker.banner.jpg;
#BACKGROUND:the berzerker.bg.jpg;
#LYRICSPATH:;
#CDTITLE:CDTITLE.jpg;
#MUSIC:09 - slit down444.mp3;
#OFFSET:-0.140;
#SAMPLESTART:25.872;
#SAMPLELENGTH:12.000;
#SELECTABLE:YES;
#BPMS:0.000=183.040,57.000=366.079;
#STOPS:;
#BGCHANGES:;
// cache tags:
#FIRSTBEAT:26.000;
#LASTBEAT:503.000;
#SONGFILENAME:Songs/Definitive Keyboard Megapack/Slit Down - The Berzerker(Leone510)/09 - slit down444.sm;
#HASMUSIC:1;
#HASBANNER:1;
#MUSICLENGTH:100.866;
// end cache tags

//---------------dance-single - ----------------
#NOTES:
     dance-single:
     :
     Hard:
     15:
     1.000,1.000,1.000,0.228,0.025,833.000,287.000,23.000,0.000,89.000:
0000
0000
0000
0000
,
0000
0000
0000
0000
,
0000
0000
0000
0000
,
0000
0000
0000
0000
,
0000
0000
0000
0000
,
0000
0000
0000
0000
,
0000
0000
0000
0000
2020
0000
3032
2000
,
3103
0010
0201
0302
0110
1103
1010
0110
,
0102
0000
0000
0000
2003
0000
0000
0000
3111
0000
0000
0000
1200
0000
0000
0000
2302
0000
0000
0000
0000
0000
0000
3003
2100
0000
0000
0000
0001
0000
0000
0000
,
3100
1000
1020
0032
1100
0113
1001
0101
,
0210
0000
0302
0000
1113
0000
0021
0000
2230
0000
3311
0000
0101
1000
0010
0000
,
0101
0000
1010
0000
0101
0010
0001
0000
1100
0000
0011
0000
1010
0000
0110
0000
,
0102
0000
2003
0000
3111
0000
0101
0000
1100
0000
0110
0000
0101
0010
0001
0000
,
1100
0010
1000
0000
0011
0100
1000
0000
0101
0000
1010
0000
0110
0000
1001
0000
,
2010
3020
1131
0000
0000
0000
1010
0001
,
1000
0010
1100
0001
1000
0010
0101
1000
,
0001
1000
0110
1000
0010
0001
0110
1000
,
0010
0001
1100
0010
0001
0100
1010
0001
,
1000
0010
0101
0010
1000
0010
1100
0001
,
1000
0010
0101
1000
0010
0001
1100
0010
,
0001
1000
0011
0100
0001
0010
1001
0010
,
0100
0001
1010
0001
0100
1000
0110
1000
,
0101
0000
1100
0000
0110
0000
1010
0001
,
1000
0010
1100
0001
1000
0010
0101
1000
,
0001
1000
0110
1000
0010
0001
0110
1000
,
0010
0001
1100
0010
0001
0100
1010
0001
,
1000
0010
0101
0010
1000
0010
1100
0001
,
1000
0010
0101
1000
0010
0001
1100
0010
,
0001
1000
0011
0100
0001
0010
1001
0010
,
0100
0001
1010
0001
0100
1000
0110
1000
,
0101
0000
1100
0000
0110
0000
1010
0001
,
1000
0010
1100
0001
1000
0010
0101
1000
,
0001
1000
0110
1000
0010
0001
0110
1000
,
0010
0001
1100
0010
0001
0100
1010
0001
,
1000
0010
0101
0010
1000
0010
1100
0001
,
1000
0010
0101
1000
0010
0001
1100
0010
,
0001
1000
0011
0100
0001
0010
1001
0010
,
0100
0001
1010
0001
0100
1000
0110
1000
,
0101
1101
0110
0111
,
0101
1101
0101
1101
,
1010
1110
0101
1011
,
0101
1101
0110
0111
,
0101
1101
0101
1101
,
1010
1110
0101
1011
,
0101
1101
0110
0111
,
0101
1101
0101
1101
,
0010
0000
1000
0000
0001
0000
1000
0010
,
0111
1000
0001
1000
0111
1000
0100
0010
,
1101
0010
0001
0100
1011
0100
0010
0100
,
1011
0100
0001
0010
1101
0010
0001
1000
,
0111
1000
0001
1000
0111
1000
0100
0010
,
1101
0010
0001
0100
1011
0100
0010
0100
,
1011
0100
0001
0010
1101
0010
0001
1000
,
0111
1000
0001
1000
0111
1000
0100
0010
,
1101
0010
0001
0100
1011
0100
0010
0100
,
1011
0100
0001
0010
1101
0010
0001
1000
,
0111
1000
0001
1000
0111
1000
0100
0010
,
1101
0010
0001
0100
1011
0100
0010
0100
,
1011
0100
0001
0010
1101
0010
0001
1000
,
0111
1000
0001
1000
0111
1000
0100
0010
,
1101
0010
0001
0100
1011
0100
0010
0000
,
0001
0000
0100
0000
0000
0100
1000
0000
,
0011
0000
0000
0001
1000
0000
0101
0000
,
1101
0110
0111
0101
,
1101
0101
1101
1010
,
1110
0101
1011
0101
,
1101
0110
0111
0101
,
1101
0101
1101
1010
,
1110
0101
1011
0101
,
1101
0110
0111
0101
,
1101
0000
0101
0000
1101
0000
0100
0010
,
0001
0100
0010
1000
0010
0100
1000
0010
,
1000
0010
0100
0010
1000
0010
0001
0100
,
0010
0001
0100
1000
0010
0100
1000
0010
,
0100
0001
0100
1000
0010
0001
0100
1000
,
0001
0100
0010
1000
0010
0100
1000
0010
,
1000
0010
0100
0010
1000
0010
0001
0100
,
0010
0001
0100
1000
0010
0100
1000
0010
,
0100
0001
0100
1000
0010
0001
0100
1000
,
0001
0100
0010
1000
0010
0100
1000
0010
,
1000
0010
0100
0010
1000
0010
0001
0100
,
0010
0001
0100
1000
0010
0100
1000
0010
,
0100
0001
0100
1000
0010
0001
0100
1000
,
0001
0100
0010
1000
0010
0100
1000
0010
,
1000
0010
0100
0010
1000
0010
0001
0100
,
0010
0001
0100
1000
0010
0100
1000
0010
,
0100
0001
0100
1000
0010
0001
0100
1000
,
0101
1101
0110
0111
,
0101
1101
0101
1101
,
1010
1110
0101
1011
,
0101
1101
0110
0111
,
0101
1101
0101
1101
,
1010
1110
0101
1011
,
0101
1101
0110
0111
,
0101
1101
0101
1101
,
1010
0001
1000
0010
1100
0001
1000
0010
,
0101
1000
0001
1000
0110
1000
0010
0001
,
0110
1000
0010
0001
1100
0010
0001
0100
,
1010
0001
1000
0010
0101
0010
1000
0010
,
1100
0001
1000
0010
0101
1000
0010
0001
,
1100
0010
0001
1000
0011
0100
0001
0010
,
1001
0010
0100
0001
1010
0001
0100
1000
,
0110
1000
0101
0000
1100
0000
0110
0000
,
1010
0001
1000
0010
1100
0001
1000
0010
,
0101
1000
0001
1000
0110
1000
0010
0001
,
0110
1000
0010
0001
1100
0010
0001
0100
,
1010
0001
1000
0010
0101
0010
1000
0010
,
1100
0001
1000
0010
0101
1000
0010
0001
,
1100
0010
0001
1000
0011
0100
0001
0010
,
1001
0010
0100
0001
1010
0001
0100
1000
,
0110
1000
0101
0000
1100
0000
0110
0000
,
1010
0001
1000
0010
1100
0001
1000
0010
,
0101
1000
0001
1000
0110
1000
0010
0001
,
0110
1000
0010
0001
1100
0010
0001
0100
,
1010
0001
1000
0010
0101
0010
1000
0010
,
1100
0001
1000
0010
0101
1000
0010
0001
,
1100
0010
0001
1000
0011
0100
0001
0010
,
1001
0010
0100
0001
1010
0001
0100
1000
,
0110
1000
0101
0000
1100
0000
0110
0000
,
1010
0001
1000
0010
1100
0001
1000
0010
,
0101
1000
0001
1000
0110
1000
0010
0001
,
0110
1000
0010
0001
1100
0010
0001
0100
,
1010
0001
1000
0010
0101
0010
1000
0010
,
1100
0001
1000
0010
0101
1000
0010
0001
,
1100
0010
0001
1000
0011
0100
0001
0010
,
1001
0010
0100
0001
1010
0001
0100
0000
;

//---------------dance-single - Copied from----------------
#NOTES:
     dance-single:
     Copied from:
     Medium:
     11:
     0.938,1.000,1.000,0.476,0.025,489.000,125.000,48.000,0.000,0.000:
0000
0000
0000
0000
,
0000
0000
0000
0000
,
0000
0000
0000
0000
,
0000
0000
0000
0000
,
0000
0000
0000
0000
,
0000
0000
0000
0000
,
0000
0000
0000
0000
1010
0000
0001
1000
,
0100
0010
0101
0001
0110
1000
1010
0010
,
0101
1000
0011
0100
1001
0000
1100
0001
,
0100
1000
1010
0001
1100
0010
1001
0001
,
0110
0000
0001
0000
1010
0000
0001
0000
1100
0000
0001
0000
0001
1000
0010
0000
,
0001
0000
1000
0000
0001
0010
0001
0000
1000
0000
0001
0000
1100
0000
0010
0000
,
0101
0000
1000
0000
0110
0000
0001
0000
1100
0000
0010
0000
0001
0010
0001
0000
,
1000
0010
1000
0000
0010
0100
1000
0000
0101
0000
1000
0000
0110
0000
0001
0000
,
1010
0010
1001
0000
0000
0000
1000
0000
,
0001
1000
0010
0101
,
0010
0110
1000
0010
,
0001
1000
0001
1010
,
1000
0101
1000
0100
,
1000
0001
0010
1100
,
0001
0011
0001
1000
,
0100
0010
0100
0110
,
0101
1100
0110
1010
,
0001
1000
0010
0001
,
1000
0110
1000
0110
,
0001
1000
0001
1100
,
0010
0101
1000
0100
,
0010
0001
1010
1000
,
0101
0001
0100
0001
,
0100
0010
1100
0110
,
0101
1100
0110
1000
,
0001
1000
0010
0101
,
0010
0110
1000
0010
,
0001
1000
0001
1010
,
1000
0101
1000
0100
,
1000
0001
0010
1100
,
0001
0011
0001
1000
,
0100
0010
0100
0110
,
0101
1100
0110
1010
,
0001
1000
0010
0001
,
1000
0110
1000
0110
,
0001
1000
0001
1100
,
0010
0101
1000
0100
,
0010
0001
1010
1000
,
0101
0001
0100
0001
,
0100
0010
1100
0110
,
0101
1100
0110
1000
,
0001
1000
0010
0101
,
0010
0000
0110
0001
1000
0000
0010
0000
,
0001
1000
0001
1010
,
1000
0101
1000
0100
,
1000
0001
0010
1100
,
0001
0000
0011
0100
0001
0000
1000
0000
,
0100
0010
0100
0110
,
0101
1100
0110
1010
,
0001
1000
0010
0001
,
1000
0000
0110
0001
1000
0000
0110
0000
,
0001
1000
0001
1100
,
0010
0101
1000
0100
,
0010
0001
1010
1000
,
0101
0000
0001
1000
0100
0000
0001
0000
,
0100
0000
0010
0000
0000
0100
0010
0000
,
1001
0000
0000
0001
,
0001
0001
0001
0001
,
0001
0001
0002
2003
,
0000
3020
0230
2300
,
0000
3002
0000
1003
,
1000
1000
1000
1000
,
1000
1000
2000
3002
,
0003
0200
0320
2030
,
3000
0002
0000
0103
,
0100
0100
0100
0100
,
0100
0100
0200
0302
,
0000
0203
2300
3020
,
0030
0200
0000
0310
,
0010
0010
0010
0010
,
0010
0010
0020
2030
,
0000
3200
0320
0032
,
0000
2003
0000
3001
,
0001
0001
0001
0001
,
0001
0001
0002
2003
,
0000
3020
0230
2300
,
0000
3002
0000
1003
,
1000
1000
1000
1000
,
1000
1000
2000
3002
,
0003
0200
0320
2030
,
3000
0002
0000
0103
,
0100
0100
0100
0100
,
0100
0100
0200
0302
,
0000
0203
2300
3020
,
0030
0200
0000
0310
,
0010
0010
0010
0010
,
0010
0010
0020
2030
,
0000
3200
0320
0032
,
0000
0000
0000
0000
2003
0000
0000
0000
0000
0000
0000
3000
1000
0000
0000
0000
,
0001
1000
0010
0101
,
0010
0110
1000
0010
,
0001
1000
0001
1010
,
1000
0101
1000
0100
,
1000
0001
0010
1100
,
0001
0011
0001
1000
,
0100
0010
0100
0110
,
0101
1100
0110
1010
,
0001
1000
0010
0001
,
1000
0110
1000
0110
,
0001
1000
0001
1100
,
0010
0101
1000
0100
,
0010
0001
1010
1000
,
0101
0001
0100
0001
,
0100
0010
1100
0110
,
0101
1100
0110
1000
,
0001
1000
0010
0101
,
0010
0110
1000
0010
,
0001
1000
0001
1010
,
1000
0101
1000
0100
,
1000
0001
0010
1100
,
0001
0011
0001
1000
,
0100
0010
0100
0110
,
0101
1100
0110
1010
,
0001
1000
0010
0001
,
1000
0110
1000
0110
,
0001
1000
0001
1100
,
0010
0101
1000
0100
,
0010
0001
1010
1000
,
0101
0001
0100
0001
,
0100
0010
1100
0110
;
