#TITLE:Jordan;
#SUBTITLE:8-Bit Remix;
#ARTIST:Buckethead;
#TITLETRANSLIT:;
#SUBTITLETRANSLIT:;
#ARTISTTRANSLIT:;
#CREDIT:;
#BANNER:Jordan-BN.bmp;
#BACKGROUND:Jordan-BG.bmp;
#LYRICSPATH:;
#CDTITLE:metzger-cdtitle.png;
#MUSIC:Jordan_8-bit_remix.mp3;
#OFFSET:-2.100;
#SAMPLESTART:99.980;
#SAMPLELENGTH:12.000;
#SELECTABLE:YES;
#BPMS:0.000=231.960;
#STOPS:;
#BGCHANGES:;
// cache tags:
#FIRSTBEAT:0.000;
#LASTBEAT:896.000;
#SONGFILENAME:Songs/Hard Songs Megapack Volume 9/Jordan 8-Bit Remix/Jordan_8-bit_remix.sm;
#HASMUSIC:1;
#HASBANNER:1;
#MUSICLENGTH:245.812;
// end cache tags

//---------------dance-single - Blank----------------
#NOTES:
     dance-single:
     Blank:
     Challenge:
     13:
     1.000,1.000,0.244,1.000,1.000,1844.000,60.000,530.000,10.000,2.000:

1000
M000
M000
M000
,
1000
M000
M000
M000
,
1000
M000
1000
M000
,
1000
M000
1000
M000
,
1000
0100
0001
0010
0100
0000
0100
0000
,
0100
0010
0001
1000
0200
0000
0310
0000
,
1000
0100
0001
0010
0100
0000
0100
0000
,
0100
0010
0001
1000
0200
0000
0310
0000
,
1000
0100
0001
0010
0100
0000
0100
0000
,
0100
0000
0010
0000
0001
0000
1000
0000
0200
0000
0000
0000
0310
0001
0010
0100
,
1000
0100
0001
0010
0100
0000
0100
0000
,
0100
0010
0001
1000
0202
0003
0310
0000
,
1000
0100
0001
0010
0100
0000
0100
0000
,
0100
0010
0001
1000
0200
0000
0310
0000
,
1000
0100
0001
0010
0100
0000
0100
0000
,
0100
0010
0001
1000
0200
0000
0310
0000
,
1000
0100
0001
0010
0100
0000
0100
0000
,
0100
0010
0001
1000
0200
0000
0310
0000
,
1000
0100
0001
0010
0100
0000
0100
0000
,
0100
0010
0001
1000
0200
0000
0310
0000
,
1000
0100
0001
0010
0100
0000
0100
0000
,
0100
0010
0001
1000
0200
0000
0310
0000
,
1000
0100
0001
0010
0100
0000
0100
0000
,
0100
0010
0001
1000
0200
0000
0310
0000
,
1000
0100
0001
0010
0100
0000
0100
0000
,
0100
0010
0001
1000
0200
0000
0310
0000
,
1000
0100
0001
0010
0100
0000
0010
0010
,
0010
0001
0001
0001
0001
0001
2000
0000
,
3020
0000
0000
0000
0000
0000
0000
0000
0000
0000
0000
0000
0000
0030
0200
0000
,
0000
0000
0300
0000
0200
0300
0000
0000
0002
0003
0002
0003
0002
0003
0002
0003
,
2000
3000
2000
3000
2000
3000
2000
3000
2000
3000
2000
3000
0020
0030
0020
0030
,
0020
0030
0020
0030
0020
0030
0020
0030
0200
0000
0000
0000
0300
0000
0200
0000
,
0320
0000
0000
0000
0000
0000
0000
0000
0000
0000
0000
0000
0000
0030
0200
0000
,
0000
0000
0300
0000
0200
0300
0000
0000
0002
0003
0002
0003
0002
0003
0002
0003
,
2000
3000
2000
3000
2000
3000
2000
3000
2000
3000
2000
3000
0020
0030
0020
0030
,
0020
0030
0020
0030
0020
0030
0020
0030
0200
0000
0000
0000
0300
0000
0200
0000
,
0320
0000
0000
0000
0000
0000
0000
0000
0000
0000
0000
0000
0000
0030
0200
0000
,
0000
0000
0300
0000
0200
0300
0000
0000
0002
0003
0002
0003
0002
0003
0002
0003
,
2000
3000
2000
3000
2000
3000
2000
3000
2000
3000
2000
3000
0020
0030
0020
0030
,
0020
0030
0020
0030
0020
0030
0020
0030
0200
0000
0000
0000
0300
0000
0200
0000
,
0320
0000
0000
0000
0000
0000
0000
0000
0000
0000
0000
0000
0000
0030
0200
0000
,
0000
0000
0300
0000
0200
0300
0000
0000
0002
0003
0002
0003
0002
0003
0002
0003
,
2000
3000
2000
3000
2000
3000
2000
3000
2000
3000
2000
3000
0020
0030
0020
0030
,
0020
0030
0020
0030
0020
0030
0020
0030
0200
0000
0000
0000
0300
0000
0200
0000
,
1300
0100
0001
0010
0100
0000
0100
0000
,
0100
0010
0001
1000
0200
0000
0310
0000
,
1000
0100
0001
0010
0100
0000
0100
0000
,
0100
0010
0001
1000
0200
0000
0310
0000
,
1000
0100
0001
0010
0100
0000
0100
0000
,
0100
0000
0010
0000
0001
0000
1000
0000
0200
0000
0000
0000
0310
0001
0010
0100
,
1000
0000
0100
0000
0001
0000
0010
0000
1100
0000
0001
0000
0120
0030
0020
0030
,
0100
0010
0001
1010
0200
0000
0310
0000
,
1000
0100
0001
0010
0100
0000
0100
0000
,
0100
0010
0001
1000
0200
0000
0310
0000
,
1000
0100
0001
0010
0100
0000
0100
0000
,
0100
0010
0001
1000
0200
0000
0310
0000
,
1000
0100
0001
0010
0100
0000
0100
0000
,
0100
0010
0001
1000
0200
0000
0310
0000
,
1000
0100
0001
0010
0100
0000
0100
0000
,
0100
0010
0001
1000
0200
0000
0310
0000
,
1000
0100
0001
0010
0100
0000
0100
0000
,
0100
0010
0001
1000
0200
0000
0310
0000
,
1000
0100
0001
0010
0100
0000
0100
0000
,
0100
0010
0001
1000
0200
0000
0310
0000
,
1000
0100
0001
0010
0100
0000
0100
0000
,
0100
0010
0001
1000
0200
0000
0310
0000
,
1000
0100
0001
0010
0100
0000
0010
0010
,
0010
0001
0001
0001
0001
0001
2000
0000
,
3020
0000
0000
0000
0000
0000
0000
0000
0000
0000
0000
0000
0000
0030
0200
0000
,
0000
0000
0300
0000
0200
0300
0000
0000
0002
0003
0002
0003
0002
0003
0002
0003
,
2000
3000
2000
3000
2000
3000
2000
3000
2000
3000
2000
3000
0020
0030
0020
0030
,
0020
0030
0020
0030
0020
0030
0020
0030
0200
0000
0000
0000
0300
0000
0200
0000
,
0320
0000
0000
0000
0000
0000
0000
0000
0000
0000
0000
0000
0000
0030
0200
0000
,
0000
0000
0300
0000
0200
0300
0000
0000
0002
0003
0002
0003
0002
0003
0002
0003
,
2000
3000
2000
3000
2000
3000
2000
3000
2000
3000
2000
3000
0020
0030
0020
0030
,
0020
0030
0020
0030
0020
0030
0020
0030
0200
0000
0000
0000
0300
0000
0200
0000
,
0320
0000
0000
0000
0000
0000
0000
0000
0000
0000
0000
0000
0000
0030
0200
0000
,
0000
0000
0300
0000
0200
0300
0000
0000
0002
0003
0002
0003
0002
0003
0002
0003
,
2000
3000
2000
3000
2000
3000
2000
3000
2000
3000
2000
3000
0020
0030
0020
0030
,
0020
0030
0020
0030
0020
0030
0020
0030
0200
0000
0000
0000
0300
0000
0200
0000
,
0320
0000
0000
0000
0000
0000
0000
0000
0000
0000
0000
0000
0000
0030
0200
0000
,
0000
0000
0300
0000
0200
0300
0000
0000
0002
0003
0002
0003
0002
0003
0002
0003
,
2000
3000
2000
3000
2000
3000
2000
3000
2000
3000
2000
3000
0020
0030
0020
0030
,
0020
0030
0020
0030
0020
0030
0020
0030
0200
0000
0000
0000
0300
0000
0200
0000
,
0301
0010
0100
0010
0001
1000
0100
0010
0001
0010
0100
0010
0001
0010
0100
1000
,
0100
0010
0100
1000
0100
0010
0001
1000
0100
0010
0001
0010
0100
0010
0100
1000
,
0100
0010
0001
0100
0010
1000
0100
0010
0001
0100
0010
1000
0100
0010
0001
0010
,
0100
1000
0010
0100
0001
0010
0100
1000
0020
0000
0000
0000
0000
0000
0000
0000
,
2230
0000
0000
0000
,
0000
0000
0000
0000
0000
0000
0000
0000
0000
0000
0000
0000
0000
0000
0000
0000
0000
0000
0000
0000
0000
0000
0000
0000
0000
0000
0000
0000
0000
0000
0000
0000
0000
3300
0000
0000
0020
0000
0000
0000
0032
0000
0000
0000
2003
0000
0000
0000
,
3020
0000
0230
2300
3002
0000
0203
0320
,
2030
0000
3020
0032
0203
0000
0000
0300
,
0022
0000
0000
0000
,
0000
0000
0233
2300
0000
0000
3200
0300
,
0002
0000
0023
0000
2030
0000
3200
0000
0000
0000
0000
0300
0200
0000
0302
0000
,
2003
0000
3002
0000
0023
0030
0020
0030
0020
0030
0200
0000
0300
0000
0000
0000
,
2000
3020
0030
2000
3200
0020
0330
0002
,
2003
3020
0230
0302
0023
0230
2300
3020
,
0230
0302
2003
3200
0302
0023
0230
0302
,
0000
0000
2003
0000
0000
0000
0000
0000
0000
0000
0000
0000
3020
0000
0000
0030
,
1000
0100
0010
0001
1000
0100
0010
0001
0010
0100
1000
0001
0010
0100
1000
0100
,
0010
0100
1000
0100
0010
0100
1000
0100
0010
0001
0010
0100
0010
0001
0010
0100
,
1000
0010
0100
0001
0010
0100
1000
0010
0100
0001
0010
0100
1000
0100
0010
0001
,
0010
0000
0000
0100
0000
0000
1000
0000
0000
0100
0000
0000
0010
0000
0000
0001
0000
0000
1000
0000
0000
0100
0000
0000
0010
0000
0001
0000
1000
0000
0100
0000
0010
0000
0001
0000
0010
0000
0100
0000
1000
0000
0100
0000
0010
0000
0001
0000
,
0020
0000
0000
0000
0000
0000
0000
0030
1000
0100
0010
0100
0010
0001
0010
0001
,
0010
0100
1000
0001
0010
0100
1000
0100
0010
0100
0001
0010
0100
1000
0100
0010
,
0001
0010
0100
0010
1000
0100
0010
0100
0001
0010
0100
1000
0100
0010
0100
0010
,
0001
0010
0100
1000
0001
0010
0100
1000
0001
0010
0100
0010
0001
1000
0100
0010
,
0001
1000
0100
0010
0001
1000
0001
0100
0010
0001
1000
0100
0010
0001
0100
0010
,
0001
0010
0100
1000
0001
0010
0100
0001
0010
0100
0001
0010
0100
1000
0100
0010
,
0001
1000
0100
0010
0001
0010
0100
1000
0001
0010
0100
1000
0100
0010
0100
0001
,
0010
0100
1000
0010
0100
1000
0010
0100
1000
0001
0010
0100
1000
0001
0010
0100
,
1000
0100
0010
0001
1000
0100
0010
0001
0100
0010
0001
1000
0100
0010
0001
0010
,
0100
0010
0001
1000
0100
0010
0001
0010
0100
0010
0001
1000
0100
0010
0001
0010
,
0100
1000
0001
0010
0100
1000
0010
0100
1000
0100
0010
0001
0100
0010
1000
0100
,
0010
0001
0100
0010
1000
0100
0010
0001
1000
0100
0010
0100
1000
0001
0010
0100
,
1000
0010
0100
0001
0010
0100
1000
0010
0100
0001
0010
0100
1000
0010
0100
0010
,
0001
1000
0100
0010
0001
0100
0010
0100
0001
0010
0001
1000
0100
1000
0100
0010
,
0001
0010
0001
0010
0100
1000
0001
0010
0100
0010
0001
1000
0100
0010
0001
1000
,
0200
0000
0000
0000
,
0302
0000
0000
0000
0000
0000
0000
0000
0000
0000
0000
0000
0000
0000
0000
0003
0000
0000
0100
0000
0000
0000
0000
0000
0010
0000
0000
0000
0100
0000
0000
0000
1000
0000
0000
0000
0100
0000
0000
0010
0000
0000
0001
0000
0000
0010
0000
0000
,
0100
1000
0010
0001
0010
0100
1000
0001
0010
0100
1000
0010
0100
0010
0001
1000
,
0100
0010
0001
0010
0100
0010
0001
1000
0100
0010
0100
1000
0001
0010
0100
0010
,
0001
1000
0100
0010
0100
1000
0001
0010
0100
1000
0001
0010
0100
1000
0001
0010
,
0100
1000
0001
0100
1000
0010
0001
0100
0010
1000
0100
0010
,
0001
0100
0010
0001
1000
0100
0010
0001
0100
0010
0001
0100
0010
0001
1000
0100
,
0010
0100
1000
0001
0010
0100
1000
0100
0010
0100
0010
0001
0100
0010
1000
0100
,
0010
0000
0000
0001
0000
0000
1000
0000
0000
0100
0000
0000
0010
0000
0000
0001
0000
0000
0010
0000
0000
0100
0000
0000
1000
0000
0000
0000
0000
0000
0001
0000
0010
0000
0100
0000
1000
0000
0001
0000
0010
0000
0100
0000
0000
0000
0000
0000
,
2000
0000
0000
3000
0001
0100
0001
0100
0001
0010
0100
1000
0001
0010
0100
0010
,
2000
0000
3010
0100
0010
0100
1000
0100
0010
0001
0010
0100
0010
0001
1000
0100
,
0010
0001
1000
0100
0010
0001
0100
0010
0100
1000
0001
0010
0100
1000
0100
0010
,
0001
1000
0100
0010
0100
1000
0001
0010
0100
0010
0001
1000
,
0100
0000
0000
0000
0010
0000
0000
0000
0001
0000
0000
0000
0010
0000
0000
0000
0100
0000
0000
0000
1000
0000
0000
0000
0100
0000
0000
0001
0000
0000
0010
0000
0000
0100
0000
0000
1000
0000
0000
0100
0000
0000
0001
0000
0000
0010
0000
0000
,
1000
0100
0001
0010
1000
0100
0010
0001
1000
0100
0010
0001
0010
0100
0010
0001
,
1000
0100
0010
0100
1000
0001
0010
0100
1000
0010
0100
0001
0010
1000
0100
0010
,
0001
0000
0000
0010
0000
0000
0100
0000
0000
0010
0000
0000
0100
0000
0000
0010
0000
0000
0100
0000
0000
0010
0000
0000
1000
0000
0000
0001
0000
0000
1000
0000
0000
0001
0000
0000
1000
0000
0000
0001
0000
0000
1000
0000
0001
0000
0100
0000
,
2000
0000
0000
3020
0000
0000
2030
0000
,
0000
0000
0000
3000
2000
0000
0000
0000
0000
0000
3000
0000
1000
0100
0010
0100
,
2000
0000
3020
0000
0230
0000
0302
0000
0000
0000
0000
0003
0002
0000
0023
0000
,
0032
0000
0203
0300
0200
0300
2000
3000
0002
0023
0230
2300
3200
0000
0320
0000
,
2030
0000
0000
0000
3200
0000
0000
0300
0020
0000
0032
0000
0023
2030
3200
0320
,
0032
0000
0000
0000
0023
0230
2300
0000
3020
0230
0302
0023
2030
3002
0203
0320
,
0032
0000
0000
2003
0000
0000
3200
0000
0000
0320
0000
0000
0032
0000
0000
0003
2000
0000
0000
0000
3200
0000
0000
0000
0320
0000
0000
0000
0032
0000
0000
0000
2003
0000
0000
0000
3200
0000
0000
0000
0300
0000
0020
0000
0000
0000
0000
0000
,
0032
0000
0000
0000
0000
0000
0000
0000
0000
0013
0100
1000
0001
0010
0100
1000
0001
0010
0100
1000
0001
0010
0100
1000
,
0200
0000
0000
0000
,
0000
0000
0000
0000
,
0000
0000
0000
0000
,
0302
0203
0320
2030
,
3002
0000
0000
2003
3020
0000
0000
0000
,
0230
0000
2300
0000
3002
0203
0000
0000
,
0320
0000
0000
0000
,
2030
0000
0000
0000
0001
0000
0100
0000
3001
0000
0100
0010
0001
0010
0100
1000
,
0100
0002
0000
0000
0000
0000
0000
0000
0023
0000
0000
0000
0000
0000
0000
0000
,
0000
0000
0000
0000
,
2030
0000
0000
0000
,
0000
0000
0000
3100
0010
0002
0000
0000
,
0203
0000
0320
0000
2030
0000
3002
0003
0002
0000
0000
0000
0000
0000
0000
0000
,
0000
0003
0002
0003
0002
0203
0320
0030
2000
3000
0200
0000
0000
0000
0000
0000
,
0302
0023
0230
0000
0000
0302
2003
3002
,
2003
0000
0000
3002
0000
0000
2003
0000
0000
3002
0000
0000
2003
0000
0000
3002
0000
0000
2003
0000
0200
3000
0320
0000
0032
0000
0000
0000
0000
0000
0000
0000
0000
0000
0000
0000
0000
0000
0000
0000
0000
0000
0000
0000
0000
0000
0000
0000
,
0103
0100
1010
0010
0110
0100
0101
0001
,
1001
1000
1010
0010
0110
0100
0101
0001
,
0011
0010
1010
1000
1100
0100
0110
0010
,
0110
0100
0101
0001
1001
1000
1100
0100
,
0110
0010
0110
0010
0011
0001
1001
1000
,
1010
0010
0110
0100
0101
0001
0011
0010
,
0100
0100
0101
0001
1001
1000
1010
0010
,
0110
0100
1100
1000
2010
0000
0010
0000
,
3010
0001
0010
0100
0010
1001
0100
0010
0001
0010
0001
0100
0001
1000
0001
0100
,
0001
0010
0100
1000
0100
0010
0100
0001
0100
0010
1000
0100
0010
0001
0010
0100
,
1000
0001
0010
0100
1000
0001
0010
0100
0010
0001
1000
0100
0010
0100
1000
0001
,
0010
0000
0100
0000
0010
0000
0001
0000
0010
0000
0100
0000
1000
0000
0100
0000
0002
0003
0020
0030
0002
0003
1000
0000
0100
0000
0010
0000
0001
0000
0010
0000
,
0100
1000
0010
0100
0010
0001
1000
0100
0001
0010
1000
0100
0010
0001
0010
0100
,
1000
0100
1000
0010
1000
0001
1000
0010
1000
0100
0010
0001
0100
0001
1000
0001
,
0100
0001
0010
0100
1000
0010
0100
0001
0010
0100
1000
0010
0100
0001
0001
0010
,
0100
1000
0100
0010
0001
0010
0100
0010
0001
1000
0100
0010
0001
0010
0100
1000
,
0011
0100
1000
0100
0010
0100
1000
0100
0010
0001
0010
0100
0010
0001
0010
0100
,
0010
0001
0010
0100
0010
0001
0010
0100
1010
0100
0010
0100
1000
0100
0010
0100
,
1001
0010
0100
0010
0001
0010
0100
0010
0001
0010
0100
0010
0001
1000
0100
0010
,
0001
0100
1000
0010
0100
1000
0100
0010
1100
0010
0100
1000
0100
0010
0100
1000
,
0101
0010
0100
1000
0001
0010
0100
0010
0001
0010
0100
0010
0001
0010
0100
0010
,
0001
0010
0100
0010
0001
1000
0100
0010
0101
0010
0001
1000
0100
0010
0100
1000
,
0110
0001
0010
0100
0010
0001
0010
0100
0010
0001
0010
0100
1000
0100
0010
0001
,
1100
0010
0100
1000
0001
0010
0100
1000
0100
0010
0100
1000
0100
0010
1000
0100
,
0011
0100
1000
0100
0010
0100
1000
0100
0010
0001
0010
0100
0010
0001
0010
0100
,
0010
0001
0010
0100
0010
0001
0010
0100
1010
0100
0010
0100
1000
0100
0010
0100
,
1001
0010
0100
0010
0001
0010
0100
0010
0001
0010
0100
0010
0001
1000
0100
0010
,
0001
0100
1000
0010
0100
1000
0100
0010
1100
0010
0100
1000
0100
0010
0100
1000
,
0101
0010
0100
1000
0001
0010
0100
0010
0001
0010
0100
0010
0001
0010
0100
0010
,
0001
0010
0100
0010
0001
1000
0100
0010
0101
0010
0001
1000
0100
0010
0100
1000
,
0011
1100
0110
1010
,
0101
0000
0000
0000
0000
0000
0000
0000
0011
0000
0000
0000
0000
0000
0000
0000
0200
0300
0020
0030
0200
0300
0000
0000
1001
0000
0000
0000
0000
0000
0000
0000
,
0120
0000
0000
0000
0000
0000
0000
0000
0000
0000
0000
0000
0000
0030
0200
0000
,
0000
0000
0300
0000
0200
0300
0000
0000
0002
0003
0002
0003
0002
0003
0002
0003
,
2000
3000
2000
3000
2000
3000
2000
3000
2000
3000
2000
3000
0020
0030
0020
0030
,
0020
0030
0020
0030
0020
0030
0020
0030
0200
0000
0000
0000
0300
0000
0200
0000
,
0320
0000
0000
0000
0000
0000
0000
0000
0000
0000
0000
0000
0000
0030
0200
0000
,
0000
0000
0300
0000
0200
0300
0000
0000
0002
0003
0002
0003
0002
0003
0002
0003
,
2000
3000
2000
3000
2000
3000
2000
3000
2000
3000
2000
3000
0020
0030
0020
0030
,
0020
0030
0020
0030
0020
0030
0020
0030
0200
0000
0000
0000
0300
0000
0200
0000
,
0320
0000
0000
0000
0000
0000
0000
0000
0000
0000
0000
0000
0000
0030
0200
0000
,
0000
0000
0300
0000
0200
0300
0000
0000
0002
0003
0002
0003
0002
0003
0002
0003
,
2000
3000
2000
3000
2000
3000
2000
3000
2000
3000
2000
3000
0020
0030
0020
0030
,
0020
0030
0020
0030
0020
0030
0020
0030
0200
0000
0000
0000
0300
0000
0200
0000
,
0320
0000
0000
0000
0000
0000
0000
0000
0000
0000
0000
0000
0000
0030
0200
0000
,
0000
0000
0300
0000
0200
0300
0000
0000
0002
0003
0002
0003
0002
0003
0002
0003
,
2000
3000
2000
3000
2000
3000
2000
3000
2000
3000
2000
3000
0020
0030
0020
0030
,
0020
0030
0020
0030
0020
0030
0020
0030
0200
0000
0000
0000
0300
0000
0200
0000
,
0320
0000
0000
0000
0000
0000
0000
0000
0000
0000
0000
0000
0000
0030
0200
0000
,
0000
0000
0300
0000
0200
0300
0000
0000
0002
0003
0002
0003
0002
0003
0002
0003
,
2000
3000
2000
3000
2000
3000
2000
3000
2000
3000
2000
3000
0020
0030
0020
0030
,
0020
0030
0020
0030
0020
0030
0020
0030
0200
0000
0000
0000
0300
0000
0200
0000
,
0320
0000
0000
0000
0000
0000
0000
0000
0000
0000
0000
0000
0000
0030
0200
0000
,
0000
0000
0300
0000
0200
0300
0000
0000
0002
0003
0002
0003
0002
0003
0002
0003
,
2000
3000
2000
3000
2000
3000
2000
3000
2000
3000
2000
3000
0020
0030
0020
0030
,
0020
0030
0020
0030
0020
0030
0020
0030
0200
0000
0000
0000
0300
0000
0200
0000
,
0320
0000
0000
0000
0000
0000
0000
0000
0000
0000
0000
0000
0000
0030
0200
0000
,
0000
0000
0300
0000
0200
0300
0000
0000
0002
0003
0002
0003
0002
0003
0002
0003
,
2000
3000
2000
3000
2000
3000
2000
3000
2000
3000
2000
3000
0020
0030
0020
0030
,
0020
0030
0020
0030
0020
0030
0020
0030
0200
0000
0000
0000
0300
0000
0200
0000
,
0320
0000
0000
0000
0000
0000
0000
0000
0000
0000
0000
0000
0000
0030
0200
0000
,
0000
0000
0300
0000
0200
0300
0000
0000
0002
0003
0002
0003
0002
0003
0002
0003
,
2000
3000
2000
3000
2000
3000
2000
3000
2000
3000
2000
3000
0020
0030
0020
0030
,
0020
0030
0020
0030
0020
0030
0020
0030
1200
0000
0000
0300
0201
0000
0000
0000
,
0300
0000
0000
0000
;

//---------------dance-single - Copied from Blank----------------
#NOTES:
     dance-single:
     Copied from Blank:
     Beginner:
     15:
     1.000,1.000,1.000,1.000,1.000,1922.000,500.000,567.000,10.000,174.000:



1000
M000
M000
M000
,
1000
M000
M000
M000
,
1000
M000
1000
M000
,
1000
M000
1000
M000
,
1001
0100
0001
0010
1100
0010
0100
0010
,
1100
0010
0001
1000
0201
0000
0320
0000
,
1031
0100
0001
0010
1100
0010
0100
0010
,
1100
0010
0001
1000
0201
0000
0320
0000
,
1031
0100
0001
0010
1100
0010
0100
0010
,
1100
0000
0010
0000
0001
0000
1000
0000
0201
0000
0000
0000
0321
1000
0001
1000
,
0031
1010
0101
1010
0100
0011
0100
1010
,
0100
0011
1100
0010
1202
0003
0320
0000
,
1030
0001
0100
0010
1100
0010
0101
0010
,
1100
0010
0101
1000
0211
0000
0320
0000
,
1130
0001
0110
0001
1100
0010
0101
0010
,
1100
0010
0101
1000
0211
0000
0320
0000
,
1130
0001
0110
0001
1100
0010
0101
0010
,
1100
0010
0101
1000
0211
0000
0320
0000
,
1130
0001
0110
0001
1100
0010
0101
0010
,
1100
0010
0101
1000
0211
0000
0320
0000
,
1030
0001
0010
0001
1100
0010
0101
0010
,
1100
0010
0101
1000
0211
0000
0320
0000
,
1130
0001
0110
0001
1100
0010
0101
0010
,
1100
0010
0101
1000
0211
0000
0320
0000
,
1130
0001
0110
0001
1100
0010
0101
0010
,
1100
0010
0101
1000
0211
0000
0320
0000
,
1031
0100
1001
0010
1100
0000
0110
0010
,
1010
0001
1001
0001
1101
0000
2200
0300
,
3020
0000
0000
0000
0000
0000
0000
0000
1001
0000
0000
0000
0000
0030
0201
0000
,
0000
0000
0300
0000
0200
0300
0000
0000
0012
0003
0002
0003
0002
0003
0002
0003
,
2000
3000
2000
3000
2000
3000
2000
3000
2100
3000
2000
3000
0020
0030
0020
0030
,
0020
0030
0020
0030
0020
0030
0020
0030
1200
0000
0000
0000
0300
0000
0200
0000
,
0322
0000
0000
0000
0003
0000
0000
0000
1001
0000
0000
0000
0000
0030
0201
0000
,
0000
0000
0300
0000
0200
0300
0000
0000
1002
0003
0002
0003
0002
0003
0002
0003
,
2000
3000
2000
3000
2000
3000
2000
3000
2010
3000
2000
3000
0020
0030
0020
0030
,
0020
0030
0020
0030
0020
0030
0020
0030
1200
0000
0000
0000
0300
0000
0200
0000
,
0322
0000
0000
0000
0003
0000
0000
0000
1001
0000
0000
0000
0000
0030
0201
0000
,
0000
0000
0300
0000
0200
0300
0000
0000
1002
0003
0002
0003
0002
0003
0002
0003
,
2000
3000
2000
3000
2000
3000
2000
3000
2010
3000
2000
3000
0020
0030
0020
0030
,
0020
0030
0020
0030
0020
0030
0020
0030
1200
0000
0000
0000
0300
0000
0200
0000
,
0322
0000
0000
0000
0003
0000
0000
0000
1001
0000
0000
0000
0000
0030
0201
0000
,
0000
0000
0300
0000
0200
0300
0000
0000
1002
0003
0002
0003
0002
0003
0002
0003
,
2000
3000
2000
3000
2000
3000
2000
3000
2010
3000
2000
3000
0020
0030
0020
0030
,
0020
0030
0020
0030
0020
0030
0020
0030
1200
0000
0000
0000
0300
0000
0200
0000
,
1301
0100
0001
0010
1100
0010
0100
0010
,
1100
0010
0001
1000
0201
0000
0320
0000
,
1031
0100
0001
0010
1100
0010
0100
0010
,
1100
0010
0001
1000
0201
0000
0320
0000
,
1031
0100
0001
0010
1100
0010
0100
0010
,
1100
0000
0010
0000
0001
0000
1000
0000
0201
0000
0000
0000
0321
1000
0001
1000
,
0031
0000
1010
0000
0100
0000
0011
0000
0100
0000
0020
0030
0020
0030
1001
0000
,
0100
0010
0100
0011
1200
0000
0320
0000
,
1030
0001
0100
0010
1100
0010
0101
0010
,
1100
0010
0101
1000
0211
0000
0320
0000
,
1130
0001
0110
0001
1100
0010
0101
0010
,
1100
0010
0101
1000
0211
0000
0320
0000
,
1130
0001
0110
0001
1100
0010
0101
0010
,
1100
0010
0101
1000
0211
0000
0320
0000
,
1130
0001
0110
0001
1100
0010
0101
0010
,
1100
0010
0101
1000
0211
0000
0320
0000
,
1030
0001
0010
0001
1100
0010
0101
0010
,
1100
0010
0101
1000
0211
0000
0320
0000
,
1130
0001
0110
0001
1100
0010
0101
0010
,
1100
0010
0101
1000
0211
0000
0320
0000
,
1130
0001
0110
0001
1100
0010
0101
0010
,
1100
0010
0101
1000
0211
0000
0320
0000
,
1031
0100
1001
0010
1100
0000
0110
0010
,
1010
0001
1001
0001
1101
0000
2200
0300
,
3020
0000
0000
0000
0000
0000
0000
0000
1001
0000
0000
0000
0000
0030
0201
0000
,
0000
0000
0300
0000
0200
0300
0000
0000
0012
0003
0002
0003
0002
0003
0002
0003
,
2000
3000
2000
3000
2000
3000
2000
3000
2100
3000
2000
3000
0020
0030
0020
0030
,
0020
0030
0020
0030
0020
0030
0020
0030
1200
0000
0000
0000
0300
0000
0200
0000
,
0322
0000
0000
0000
0003
0000
0000
0000
1001
0000
0000
0000
0000
0030
0201
0000
,
0000
0000
0300
0000
0200
0300
0000
0000
1002
0003
0002
0003
0002
0003
0002
0003
,
2000
3000
2000
3000
2000
3000
2000
3000
2010
3000
2000
3000
0020
0030
0020
0030
,
0020
0030
0020
0030
0020
0030
0020
0030
1200
0000
0000
0000
0300
0000
0200
0000
,
0322
0000
0000
0000
0003
0000
0000
0000
1001
0000
0000
0000
0000
0030
0201
0000
,
0000
0000
0300
0000
0200
0300
0000
0000
1002
0003
0002
0003
0002
0003
0002
0003
,
2000
3000
2000
3000
2000
3000
2000
3000
2010
3000
2000
3000
0020
0030
0020
0030
,
0020
0030
0020
0030
0020
0030
0020
0030
1200
0000
0000
0000
0300
0000
0200
0000
,
0322
0000
0000
0000
0003
0000
0000
0000
1001
0000
0000
0000
0000
0030
0201
0000
,
0000
0000
0300
0000
0200
0300
0000
0000
1002
0003
0002
0003
0002
0003
0002
0003
,
2000
3000
2000
3000
2000
3000
2000
3000
2010
3000
2000
3000
0020
0030
0020
0030
,
0020
0030
0020
0030
0020
0030
0020
0030
1200
0000
0000
0000
0300
0000
0200
0000
,
0300
0010
0100
0010
0001
1000
0100
0010
0001
0010
0100
0010
0001
0010
0100
1000
,
0100
0010
0100
1000
0100
0010
0001
1000
0100
0010
0001
0010
0100
0010
0100
1000
,
0100
0010
0001
0100
0010
1000
0100
0010
0001
0100
0010
1000
0100
0010
0001
0010
,
0100
1000
0010
0100
0001
0010
0100
1000
0020
0000
0000
0000
0000
0000
0000
0000
,
2231
0011
0001
0011
,
0001
0000
0000
0000
0000
0000
0000
0000
0000
0000
0000
0000
0011
0000
0000
0000
0000
0000
0000
0000
0000
0000
0000
0000
0001
0000
0000
0000
0000
0000
0000
0000
0000
3300
0000
0000
1120
0000
0000
0000
0032
0000
0000
0000
2003
0000
0000
0000
,
3120
0000
1231
2300
3012
0000
1213
0320
,
2031
0000
3121
0032
1203
0000
1011
0300
,
1022
1100
1000
1100
,
1000
0000
1233
2300
0001
0000
3211
0300
,
1002
0000
0023
0000
2131
0000
3200
0000
0010
0000
0000
0300
1210
0000
0302
0000
,
2013
0000
3002
0000
1123
0030
0020
0030
1020
0030
0200
0000
1311
0000
0000
0000
,
2100
3020
1131
2000
3201
0020
1330
0002
,
2103
3020
1230
0302
1023
0230
2311
3020
,
1230
0302
2113
3200
1302
0023
1231
0302
,
0010
0000
2003
0000
0110
0000
0000
0000
0001
0000
0000
0000
3121
0000
0000
0030
,
1001
0100
0010
0001
1010
0100
0010
0001
1010
0100
1000
0001
0110
0001
1000
0100
,
0011
0100
1000
0100
0011
0100
1000
0001
0110
0001
0010
0100
1010
0001
0010
0100
,
1001
0010
0100
0001
1010
0100
1000
0010
0101
1000
0010
0100
1001
0100
0010
0001
,
0110
0000
0000
0001
0000
0000
1000
0000
0000
0001
0000
0000
0110
0000
0000
0001
0000
0000
1000
0000
0000
0100
0000
0000
0010
0000
0001
0000
1000
0000
0100
0000
0010
0000
0001
0000
0010
0000
0100
0000
1000
0000
0100
0000
0010
0000
0001
0000
,
0020
0000
0000
0000
0000
0000
0000
0030
1001
0100
0010
0100
0010
0001
1010
0001
,
0010
0100
1000
0001
0010
0100
1000
0100
0011
0100
0001
0010
0100
1000
0100
0010
,
0001
0010
0100
0010
1000
0100
0010
0100
1001
0010
0100
0001
1000
0010
0100
0010
,
0001
0010
0100
1000
0001
0010
0100
1000
0011
0100
1000
0010
0001
1000
0100
0001
,
0010
1000
0100
0010
0001
1000
0100
0001
1010
0100
0010
0100
0010
0001
1100
0010
,
0001
0010
0100
1000
0001
0010
0100
0001
1010
0100
0001
0010
0100
1000
0100
0010
,
0001
1000
0100
0010
0001
0010
0100
0010
1001
0010
0100
1000
0100
0010
0100
1000
,
0011
0100
1000
0010
0100
1000
0010
0100
1000
0001
0010
0100
1000
0001
0010
0100
,
1000
0001
0010
0100
1000
0100
0010
0001
1100
0010
0001
1000
0100
0010
1001
0010
,
0100
0010
0001
1000
0100
0010
0001
0010
1100
0010
0001
0010
0100
1000
0001
0010
,
0100
1000
0001
0010
0100
1000
0010
0100
1001
0100
0010
0001
0100
0010
1000
0100
,
0010
0001
0100
0010
1000
0100
0010
0001
1010
0100
0010
0100
1000
0001
0010
0100
,
1000
0010
0100
0001
0010
0100
1000
0010
0101
1000
0010
0100
0001
0010
1100
0010
,
0001
1000
0100
0010
0001
0100
0010
0100
1001
0010
0001
1000
0100
1000
0100
0010
,
0001
0010
0001
0010
0100
1000
0001
0010
1100
0010
0001
1000
0100
0010
0001
1000
,
0210
0000
0011
1001
,
0302
0000
0000
0000
0000
0000
0000
0000
0000
0000
0000
0000
1100
0000
0000
0003
0000
0000
0010
0000
0000
0000
0000
0000
0101
0000
0000
0000
0010
0000
0000
0000
0100
0000
0000
0000
1010
0000
0000
0001
0000
0000
0100
0000
0000
0010
0000
0000
,
1001
0100
0010
0001
1010
0100
1000
0001
0110
0001
1000
0000
0101
0010
0001
0010
,
1100
0001
0010
0100
1001
0010
0001
1000
0110
0001
0100
1000
0101
0010
0100
0010
,
1001
0010
0100
1000
0010
0100
0001
0010
0100
1000
0001
0010
0101
0010
0001
0010
,
0100
1000
0100
0011
0100
0001
1010
0100
0010
1001
0100
0001
,
0110
1000
0010
0001
1010
0100
0010
1000
0101
0010
0001
0100
0011
0100
1000
0100
,
0011
0100
1000
0100
0011
0100
0010
0001
1010
0100
0010
0001
1100
0010
0001
1000
,
0110
0000
0000
0001
0000
0000
1000
0000
0000
0100
0000
0000
0011
0000
0000
0100
0000
0000
0010
0000
0000
0100
0000
0000
1001
0000
0000
0000
0000
0000
0001
0000
0010
0000
0100
0000
1000
0000
0001
0000
0010
0000
0100
0000
0000
0000
0000
0000
,
2000
0000
0000
3000
0011
0100
0001
0100
1001
0010
0100
1000
0101
0010
0100
1000
,
0011
0100
1000
0200
0000
0000
1300
0000
0011
1000
0010
0001
0110
0001
1000
0100
,
0011
0100
1000
0100
1010
0001
0100
0001
0110
1000
0001
0010
1100
0001
0100
1000
,
0110
0001
0010
0101
1000
0010
0101
1000
0001
0110
0001
1000
,
0110
0000
0000
0000
1000
0000
0000
0000
0100
0000
0000
0000
0011
0000
0000
0000
0100
0000
0000
0000
1000
0000
0000
0000
0011
0000
0000
0100
0000
0000
0010
0000
0000
0001
0000
0000
1010
0000
0000
0100
0000
0000
0001
0000
0000
0010
0000
0000
,
1001
0100
0001
0010
1001
0100
0010
0001
1010
0100
0010
0001
1010
0100
0010
0100
,
1001
0100
0010
0100
0001
0010
0100
1000
0100
0010
0001
0100
0010
1000
0100
0010
,
0001
0000
0000
0010
0000
0000
0100
0000
0000
0010
0000
0000
0100
0000
0000
0010
0000
0000
0100
0000
0000
0010
0000
0000
1100
0000
0000
0001
0000
0000
1000
0000
0000
0001
0000
0000
1000
0000
0000
0001
0000
0000
1000
0000
0001
0000
0100
0000
,
2000
0000
0101
3020
1100
0000
2131
0000
,
0011
0000
0000
3000
2110
0000
0000
0000
0011
0000
3000
0000
1001
0100
0010
0100
,
2001
0000
3020
0000
1230
0000
0302
0000
1010
0000
0000
0003
0102
0000
0023
0000
,
1032
0000
0203
0300
0210
0300
2000
3000
0102
0023
0230
2300
3201
0000
0320
0000
,
2030
0000
0000
0000
3201
0000
0000
0300
1020
0000
0032
0000
0123
2030
3200
0320
,
1032
0000
0000
0000
1023
0230
2300
0000
3021
0230
0302
0023
2130
3002
0203
0320
,
0132
0000
0000
2003
0000
0000
3200
0000
0000
0320
0000
0000
0032
0000
0000
0003
2000
0000
0000
0000
3200
0000
0000
0000
0320
0000
0000
0000
0032
0000
0000
0000
2003
0000
0000
0000
3200
0000
0000
0000
0000
0000
0320
0000
0000
0000
0000
0000
,
1032
0000
0000
0000
0000
0000
0000
0000
0000
0013
0100
1000
0001
0010
0100
1000
0001
0010
0100
1000
0001
0010
0100
1000
,
0200
0000
0000
0000
,
0000
0000
0000
0000
,
0000
0000
0000
0000
,
0302
0203
0320
2030
,
3002
0000
0000
2003
3020
0000
0000
0000
,
0230
0000
2300
0000
3002
0203
0000
0000
,
0320
0000
0000
0000
,
2030
0000
0000
0000
0001
0000
0100
0000
3001
0000
0100
0010
0001
0010
0100
1000
,
0100
0002
0000
0000
0000
0000
0000
0000
0023
0000
0000
0000
0000
0000
0000
0000
,
0000
0000
0000
0000
,
2030
0000
0000
0000
,
0000
0000
0000
3100
0010
0002
0000
0000
,
0203
0000
0320
0000
2030
0000
3002
0003
0002
0000
0000
0000
0000
0000
0000
0000
,
0000
0003
0002
0003
0002
0203
0320
0030
2000
3000
0200
0000
0000
0000
0000
0000
,
0302
0023
0230
0000
0000
0302
2003
3002
,
2003
0000
0000
3002
0000
0000
2003
0000
0000
3002
0000
0000
2003
0000
0000
3002
0000
0000
2003
0000
0200
3000
0320
0000
0032
0000
0000
0000
0000
0000
0000
0000
0000
0000
0000
0000
0000
0000
0000
0000
0000
0000
0000
0000
0000
0000
0000
0000
,
0113
0110
1110
0011
0111
0101
1101
1001
,
1011
1010
1110
0110
0111
0101
0111
1001
,
1011
0110
1110
1001
1101
0110
0111
1010
,
0111
1100
1101
0011
1011
1010
1101
0101
,
0011
0011
1110
1010
0111
1001
1101
1010
,
1011
0110
0111
0110
1101
1001
0111
0011
,
0110
1100
0111
1001
1101
1010
1011
0110
,
1110
1110
2110
0011
,
3110
0001
0010
0100
1010
0100
0001
0010
1100
0010
0001
0100
0011
1000
0001
0100
,
1001
0010
0100
1000
0101
1000
0010
0001
1100
0010
1000
0100
1010
0001
0010
0100
,
1010
0001
0010
0100
1001
0100
0010
0100
0011
0100
1000
0100
0011
0100
1000
0001
,
1010
0000
0100
0000
0010
0000
0001
0000
1010
0000
0001
0000
0100
0000
1000
0000
0102
0003
0020
0030
0002
0003
1000
0000
0110
0000
1000
0000
0001
0000
0010
0000
,
0100
1000
0010
0100
0011
0100
1000
0100
1001
0010
1000
0100
0011
1000
0010
0100
,
1010
0100
1000
0010
1001
0100
1000
0010
1001
0100
0010
0001
1100
0001
1000
0001
,
0110
0001
0010
0100
1001
0010
0100
0001
1010
0100
1000
0010
1100
0001
0001
0010
,
1100
0001
0100
0010
1001
0010
0100
0010
0101
1000
0100
0010
1001
0010
0100
1000
,
0111
1000
0001
0010
0100
0010
1000
0100
0010
0001
0010
0100
0010
0001
0010
0100
,
0010
0001
0010
0100
0010
0001
0010
0100
1011
0100
0010
0100
1000
0100
1000
0010
,
1101
0010
0100
0010
0001
0010
0100
0010
0001
0010
0100
0010
0001
1000
0100
0010
,
0001
0100
1000
0010
0100
1000
0100
0010
1101
0010
0100
1000
0100
0010
0100
1000
,
0111
1000
0100
1000
0001
0010
0100
0010
0001
0010
0100
0010
0001
0010
0100
0010
,
0001
0010
0100
0010
0001
1000
0100
1000
0111
1000
0010
1000
0001
0010
0100
0010
,
1101
0010
0001
0100
0010
0001
0010
0100
0010
0001
0010
0100
1000
0100
0010
0001
,
1110
0001
0100
1000
0001
0010
0100
1000
0100
0010
0100
1000
0100
0010
1000
0100
,
1011
0100
1000
0100
0010
0100
1000
0100
0010
0001
0010
0100
0010
0001
0010
0100
,
0010
0001
0010
0100
0010
0001
0010
0100
1011
0100
0010
0100
1000
0100
0010
0100
,
1011
0100
0001
0010
0001
0010
0100
0010
0001
0010
0100
0010
0001
1000
0100
0010
,
0001
0100
1000
0010
0100
1000
0100
0010
1101
0010
0100
1000
0100
0010
0001
0100
,
1011
0100
0010
1000
0001
0010
0100
0010
0001
0010
0100
0010
0001
0010
0100
0010
,
0001
0010
0100
0010
0001
1000
0100
0010
1101
0010
0001
1000
0100
0010
0100
1000
,
0101
1100
0011
1100
,
1100
0000
0000
0000
0000
0000
0000
0000
1001
0000
0000
0000
0000
0000
0000
0000
0200
0300
0020
0030
0200
0300
0000
0000
0011
0000
0000
0000
0000
0000
0000
0000
,
0020
0000
0000
0000
0000
0000
0000
0000
1001
0000
0000
0000
0000
0030
0201
0000
,
0000
0000
0300
0000
0200
0300
0000
0000
0012
0003
0002
0003
0002
0003
0002
0003
,
2000
3000
2000
3000
2000
3000
2000
3000
2100
3000
2000
3000
0020
0030
0020
0030
,
0020
0030
0020
0030
0020
0030
0020
0030
1200
0000
0000
0000
0300
0000
0200
0000
,
0322
0000
0000
0000
0003
0000
0000
0000
1001
0000
0000
0000
0000
0030
0201
0000
,
0000
0000
0300
0000
0200
0300
0000
0000
1002
0003
0002
0003
0002
0003
0002
0003
,
2000
3000
2000
3000
2000
3000
2000
3000
2010
3000
2000
3000
0020
0030
0020
0030
,
0020
0030
0020
0030
0020
0030
0020
0030
1200
0000
0000
0000
0300
0000
0200
0000
,
0322
0000
0000
0000
0003
0000
0000
0000
1001
0000
0000
0000
0000
0030
0201
0000
,
0000
0000
0300
0000
0200
0300
0000
0000
1002
0003
0002
0003
0002
0003
0002
0003
,
2000
3000
2000
3000
2000
3000
2000
3000
2010
3000
2000
3000
0020
0030
0020
0030
,
0020
0030
0020
0030
0020
0030
0020
0030
1200
0000
0000
0000
0300
0000
0200
0000
,
0322
0000
0000
0000
0003
0000
0000
0000
1001
0000
0000
0000
0000
0030
0201
0000
,
0000
0000
0300
0000
0200
0300
0000
0000
1002
0003
0002
0003
0002
0003
0002
0003
,
2000
3000
2000
3000
2000
3000
2000
3000
2010
3000
2000
3000
0020
0030
0020
0030
,
0020
0030
0020
0030
0020
0030
0020
0030
1200
0000
0000
0000
0300
0000
0200
0000
,
0322
0000
0000
0000
0003
0000
0000
0000
1001
0000
0000
0000
0000
0030
0201
0000
,
0000
0000
0300
0000
0200
0300
0000
0000
0012
0003
0002
0003
0002
0003
0002
0003
,
2000
3000
2000
3000
2000
3000
2000
3000
2100
3000
2000
3000
0020
0030
0020
0030
,
0020
0030
0020
0030
0020
0030
0020
0030
1200
0000
0000
0000
0300
0000
0200
0000
,
0322
0000
0000
0000
0003
0000
0000
0000
1001
0000
0000
0000
0000
0030
0201
0000
,
0000
0000
0300
0000
0200
0300
0000
0000
1002
0003
0002
0003
0002
0003
0002
0003
,
2000
3000
2000
3000
2000
3000
2000
3000
2010
3000
2000
3000
0020
0030
0020
0030
,
0020
0030
0020
0030
0020
0030
0020
0030
1200
0000
0000
0000
0300
0000
0200
0000
,
0322
0000
0000
0000
0003
0000
0000
0000
1001
0000
0000
0000
0000
0030
0201
0000
,
0000
0000
0300
0000
0200
0300
0000
0000
1002
0003
0002
0003
0002
0003
0002
0003
,
2000
3000
2000
3000
2000
3000
2000
3000
2010
3000
2000
3000
0020
0030
0020
0030
,
0020
0030
0020
0030
0020
0030
0020
0030
1200
0000
0000
0000
0300
0000
0200
0000
,
0322
0000
0000
0000
0003
0000
0000
0000
1001
0000
0000
0000
0000
0030
0201
0000
,
0000
0000
0300
0000
0200
0300
0000
0000
1002
0003
0002
0003
0002
0003
0002
0003
,
2000
3000
2000
3000
2000
3000
2000
3000
2010
3000
2000
3000
0020
0030
0020
0030
,
0020
0030
0020
0030
0020
0030
0020
0030
1211
0000
0000
0000
1311
0000
0200
0000
,
0300
0000
0000
0000
;
